osu file format v14

[General]
AudioFilename: 8.mp3
AudioLeadIn: 0
PreviewTime: 67257
Countdown: 0
SampleSet: Soft
StackLeniency: 0.7
Mode: 0
LetterboxInBreaks: 0
WidescreenStoryboard: 0

[Editor]
DistanceSpacing: 0.4
BeatDivisor: 4
GridSize: 4
TimelineZoom: 1

[Metadata]
Title:Oriental Blossom
TitleUnicode:Oriental Blossom
Artist:Eisyo-kobu
ArtistUnicode:影翔鼓舞
Creator:Crystal
Version:EmingK's Insane
Source:SOUND VOLTEX III GRAVITY WARS
Tags:Newspaper Cup #3 3rd third sdvx 影虎。Kagetora. saka=ichi The 4th KACオリジナル楽曲コンテスト Original Song Contest konami arcade championship fourth Evil_Twilight 384059043 Pata-Mon Sadism-Bread Gaia Doj EmingK yf_bmp handsome muscle z1085684963 Karen Kashima Vert 23konG Ellyu pw384
BeatmapID:1242786
BeatmapSetID:586889

[Difficulty]
HPDrainRate:6.5
CircleSize:4.5
OverallDifficulty:7
ApproachRate:9
SliderMultiplier:1.4
SliderTickRate:1

[Events]
//Background and Video events
0,0,"15.jpg",0,0
//Break Periods
//Storyboard Layer 0 (Background)
//Storyboard Layer 1 (Fail)
//Storyboard Layer 2 (Pass)
//Storyboard Layer 3 (Foreground)
//Storyboard Sound Samples

[TimingPoints]
674,333.333333333333,4,2,13,70,1,0
10007,-100,4,2,11,70,0,0
11007,-66.6666666666667,4,2,11,70,0,0
11340,-83.3333333333333,4,2,11,70,0,0
54007,-100,4,2,13,70,0,0
59340,-100,4,2,11,70,0,0
60507,-100,4,2,11,40,0,0
60673,-100,4,2,11,70,0,0
63340,-100,4,2,12,80,0,0
64673,-100,4,2,11,70,0,0
67340,-83.3333333333333,4,2,11,70,0,0
108757,-83.3333333333333,4,2,12,70,0,0
109340,-83.3333333333333,4,2,12,70,0,0
109507,-83.3333333333333,4,2,11,70,0,0
110090,-83.3333333333333,4,2,11,20,0,0

[Colours]
Combo1 : 80,175,85
Combo2 : 239,65,135
Combo3 : 222,226,65
Combo4 : 174,69,201

[HitObjects]
217,92,674,6,0,P|284:95|347:150,1,140,6|0,0:0|0:0,0:0:0:0:
395,207,1173,1,0,0:0:0:0:
434,126,1340,2,0,L|423:53,1,70,0|0,3:0|0:0,0:0:0:0:
307,219,1673,2,0,L|291:295,1,70,0|0,0:0|0:0,0:0:0:0:
274,315,1923,1,0,0:0:0:0:
246,336,2007,6,0,P|193:361|101:352,1,140,6|0,0:0|0:0,0:0:0:0:
46,299,2507,1,0,0:0:0:0:
22,193,2673,2,0,L|13:113,1,70,0|0,3:0|0:0,0:0:0:0:
120,237,3007,2,0,L|127:160,1,70,2|0,0:0|0:0,0:0:0:0:
236,118,3340,6,0,B|273:110|273:110|321:141|369:139,1,140,2|0,0:0|0:0,0:0:0:0:
478,124,3840,1,0,0:0:0:0:
426,34,4007,2,0,L|344:45,1,70,0|0,3:0|0:0,0:0:0:0:
282,201,4340,1,0,0:0:0:0:
386,276,4507,6,0,L|369:138,1,140,0|2,0:0|0:0,0:0:0:0:
271,30,5007,1,2,0:0:0:0:
236,118,5173,1,2,0:0:0:0:
168,261,5340,1,0,3:0:0:0:
124,183,5507,1,0,0:0:0:0:
63,59,5673,1,2,0:0:0:0:
141,50,5840,1,0,0:0:0:0:
271,30,6007,6,0,L|361:21,1,70,0|0,1:0|0:0,0:0:0:0:
236,118,6340,2,0,L|326:109,1,70,0|0,1:0|0:0,0:0:0:0:
257,212,6673,2,0,L|187:218,1,70,8|0,1:2|0:0,0:0:0:0:
331,302,7007,2,0,L|421:293,1,70,0|0,1:0|0:0,0:0:0:0:
484,156,7340,6,0,L|466:72,1,70,6|0,1:2|0:0,0:0:0:0:
386,222,7673,2,0,L|368:138,1,70,2|0,1:2|0:0,0:0:0:0:
239,101,8007,2,0,L|253:169,1,70,8|0,1:2|0:0,0:0:0:0:
158,279,8340,2,0,L|140:195,1,70,0|0,1:0|0:0,0:0:0:0:
175,50,8673,5,0,1:0:0:0:
268,68,8840,1,0,1:0:0:0:
143,210,9007,1,0,1:0:0:0:
113,121,9174,1,0,1:0:0:0:
298,157,9340,1,8,1:2:0:0:
236,229,9506,1,0,1:0:0:0:
175,50,9673,1,0,1:0:0:0:
113,121,9840,1,0,1:0:0:0:
298,157,10007,6,0,L|370:149,2,70,2|2|2,1:2|0:0|0:0,0:0:0:0:
236,229,10507,1,2,0:0:0:0:
236,229,10840,5,4,0:3:0:0:
175,50,11007,2,0,L|58:42,1,105.000004005432,8|2,1:0|0:0,0:0:0:0:
21,210,11340,6,0,P|64:219|107:208,1,83.9999974365235,6|0,0:0|0:0,0:0:0:0:
215,127,11673,2,0,P|255:117|296:126,1,83.9999974365235,12|0,1:2|0:0,0:0:0:0:
388,330,12007,1,2,0:0:0:0:
351,252,12173,1,4,3:0:0:0:
431,148,12340,1,8,1:0:0:0:
453,57,12507,1,2,3:0:0:0:
296,126,12673,6,0,P|283:173|287:210,1,83.9999974365235,2|0,3:2|0:0,0:0:0:0:
446,304,13007,1,8,1:0:0:0:
417,220,13173,1,4,0:3:0:0:
286,314,13340,2,0,L|199:325,1,83.9999974365235,2|8,0:0|3:0,0:0:0:0:
137,114,13673,5,8,1:0:0:0:
214,190,13840,1,8,3:0:0:0:
36,276,14007,2,0,L|44:186,1,83.9999974365235,2|0,3:2|0:0,0:0:0:0:
225,113,14340,5,8,1:0:0:0:
302,189,14507,1,8,3:0:0:0:
124,275,14674,2,0,L|132:185,1,83.9999974365235,2|4,3:2|0:3,0:0:0:0:
307,111,15007,5,8,1:0:0:0:
384,187,15174,1,6,3:0:0:0:
206,273,15340,1,2,2:0:0:0:
213,189,15507,1,4,0:3:0:0:
392,271,15673,1,8,1:0:0:0:
384,187,15840,1,8,3:0:0:0:
307,335,16007,6,0,P|345:365|397:376,1,83.9999974365235,6|4,3:0|3:0,0:0:0:0:
405,375,16257,1,8,0:0:0:0:
433,371,16340,1,8,1:0:0:0:
384,187,16507,1,2,3:2:0:0:
308,241,16673,5,6,0:0:0:0:
258,130,16840,1,0,0:0:0:0:
151,209,17007,2,0,L|136:298,1,83.9999974365235,8|0,1:0|0:0,0:0:0:0:
47,207,17340,2,0,P|38:152|45:119,1,83.9999974365235,2|4,0:0|3:0,0:0:0:0:
151,34,17673,2,0,P|157:76|148:117,1,83.9999974365235,8|2,1:0|3:0,0:0:0:0:
228,208,18007,5,2,0:0:0:0:
319,175,18173,1,0,0:0:0:0:
368,277,18340,2,0,L|459:283,1,83.9999974365235,8|4,1:0|0:3,0:0:0:0:
512,186,18673,2,0,L|428:191,1,83.9999974365235,2|0,0:0|3:0,0:0:0:0:
333,355,19007,5,8,1:0:0:0:
256,265,19173,1,2,3:0:0:0:
168,343,19340,2,0,L|76:352,1,83.9999974365235,2|0,0:0|3:0,0:0:0:0:
179,175,19673,5,8,1:0:0:0:
256,265,19839,1,2,3:0:0:0:
387,187,20006,1,2,3:0:0:0:
457,281,20172,1,0,3:0:0:0:
343,292,20340,1,8,1:0:0:0:
478,196,20507,1,4,0:3:0:0:
366,86,20673,5,2,3:2:0:0:
256,117,20840,1,6,3:0:0:0:
256,265,21007,1,8,1:0:0:0:
146,296,21174,1,2,3:0:0:0:
94,167,21340,2,0,L|3:159,2,83.9999974365235,2|8|8,3:2|0:1|1:0,0:0:0:0:
186,175,21840,1,8,0:0:0:0:
256,117,22007,6,0,P|322:100|411:146,1,167.999994873047,4|8,1:2|1:0,0:0:0:0:
472,236,22507,1,2,0:0:0:0:
371,309,22673,1,0,0:0:0:0:
350,311,22756,1,2,0:0:0:0:
329,314,22839,1,4,0:3:0:0:
308,316,22922,1,0,0:0:0:0:
278,293,23007,2,0,L|233:288,3,41.9999987182618,8|2|2|0,1:0|0:0|0:0|0:0,0:0:0:0:
206,316,23340,6,0,L|110:332,1,83.9999974365235,4|2,0:3|0:0,0:0:0:0:
92,316,23590,1,0,2:0:0:0:
92,316,23673,2,0,P|85:258|103:215,1,83.9999974365235,8|4,1:0|2:3,0:0:0:0:
113,203,23923,1,0,2:0:0:0:
113,203,24007,2,0,P|120:145|102:102,2,83.9999974365235,2|4|8,2:2|2:3|1:0,0:0:0:0:
199,267,24507,1,2,2:2:0:0:
297,167,24673,5,4,0:3:0:0:
415,243,24840,1,2,0:0:0:0:
416,263,24923,1,0,0:0:0:0:
418,284,25006,1,8,1:0:0:0:
307,371,25173,5,2,0:0:0:0:
418,284,25340,1,2,2:0:0:0:
416,263,25423,1,2,2:0:0:0:
415,243,25506,1,4,0:3:0:0:
297,167,25673,5,8,1:0:0:0:
415,243,25840,1,4,0:3:0:0:
307,371,26007,6,0,L|250:363,3,41.9999987182618,2|0|0|0,2:0|0:0|0:0|0:0,0:0:0:0:
242,339,26340,2,0,P|251:272|241:233,1,83.9999974365235,8|2,1:0|0:2,0:0:0:0:
237,233,26590,1,0,0:0:0:0:
221,212,26673,5,4,0:3:0:0:
137,290,26840,1,2,0:0:0:0:
328,265,27007,1,8,1:0:0:0:
359,260,27090,1,2,0:0:0:0:
390,256,27173,1,2,0:0:0:0:
421,252,27256,1,0,0:0:0:0:
452,247,27340,5,4,0:3:0:0:
357,152,27507,2,0,L|389:154,2,27.9999991455078,2|0|0,0:0|2:0|0:0,0:0:0:0:
328,149,27673,1,8,1:2:0:0:
286,50,27840,2,0,L|314:56,2,27.9999991455078,0|2|0,2:0|0:0|0:0,0:0:0:0:
262,43,28007,5,2,2:2:0:0:
218,151,28173,1,4,0:3:0:0:
172,267,28340,1,8,1:0:0:0:
91,185,28507,1,2,2:2:0:0:
33,341,28673,6,0,P|87:373|130:373,1,83.9999974365235,4|2,0:3|2:0,0:0:0:0:
137,360,28923,1,2,2:0:0:0:
137,360,29007,2,0,L|193:350,3,41.9999987182618,8|2|2|2,1:0|0:0|2:0|2:0,0:0:0:0:
202,326,29340,2,0,P|256:294|299:294,2,83.9999974365235,2|4|8,0:0|0:3|1:0,0:0:0:0:
480,113,30007,6,0,L|472:202,1,83.9999974365235,4|2,0:0|0:0,0:0:0:0:
402,270,30340,1,8,1:0:0:0:
339,145,30507,2,0,B|295:128|295:128|222:145|222:145|177:131,1,167.999994873047,2|4,0:0|0:3,0:0:0:0:
98,193,31007,1,8,1:0:0:0:
69,95,31173,1,2,1:2:0:0:
196,44,31340,6,0,B|227:56|227:56|279:43,1,83.9999974365235,4|4,1:2|0:3,0:0:0:0:
307,36,31590,2,0,L|387:66,1,83.9999974365235,4|4,1:2|0:3,0:0:0:0:
411,76,31840,2,0,L|428:118,1,41.9999987182618,4|0,1:2|0:0,0:0:0:0:
409,148,32007,6,0,L|401:195,3,41.9999987182618,0|2|0|2,1:0|0:2|1:0|1:2,0:0:0:0:
427,215,32340,2,0,L|432:265,3,41.9999987182618,0|2|0|2,1:0|1:2|1:0|1:2,0:0:0:0:
408,299,32673,6,0,P|364:327|318:329,1,83.9999974365235,4|2,0:0|3:0,0:0:0:0:
254,299,33007,1,8,1:0:0:0:
164,337,33173,1,2,3:0:0:0:
164,337,33507,5,8,3:0:0:0:
254,299,33673,2,0,L|333:330,1,83.9999974365235,8|2,1:0|0:0,0:0:0:0:
496,245,34007,5,0,1:1:0:0:
408,299,34173,1,2,2:0:0:0:
350,194,34340,1,8,1:0:0:0:
262,140,34506,1,2,2:0:0:0:
161,213,34673,2,0,L|151:304,1,83.9999974365235,2|8,3:0|3:0,0:0:0:0:
56,144,35007,5,8,1:0:0:0:
157,90,35173,1,2,3:0:0:0:
262,140,35340,2,0,B|304:170|376:104|424:140,2,167.999994873047,2|8|0,3:2|1:0|0:0,0:0:0:0:
291,54,36173,1,4,0:3:0:0:
385,224,36340,1,8,1:0:0:0:
328,295,36507,1,2,3:0:0:0:
238,247,36673,6,0,L|147:240,1,83.9999974365235,4|0,0:3|3:0,0:0:0:0:
134,238,36923,1,0,3:0:0:0:
112,237,37007,2,0,L|118:284,1,41.9999987182618,8|0,3:1|3:0,0:0:0:0:
90,304,37173,2,0,L|96:351,1,41.9999987182618,10|8,3:0|3:0,0:0:0:0:
77,377,37340,5,0,3:0:0:0:
25,269,37507,1,2,3:0:0:0:
184,314,37673,2,0,L|178:362,3,27.9999991455078,8|2|0|10,1:0|0:2|0:0|3:2,0:0:0:0:
280,190,38007,5,4,2:3:0:0:
400,260,38173,1,2,3:0:0:0:
413,286,38256,1,8,3:0:0:0:
426,312,38340,2,0,L|321:303,1,83.9999974365235,8|8,1:2|3:0,0:0:0:0:
251,359,38840,5,4,3:0:0:0:
342,304,39007,2,0,L|426:312,1,83.9999974365235,8|2,1:0|3:0,0:0:0:0:
458,234,39340,1,4,0:3:0:0:
395,179,39507,1,0,3:0:0:0:
323,222,39673,2,0,L|228:241,2,83.9999974365235,8|2|0,1:0|3:0|0:0,0:0:0:0:
395,179,40173,1,4,0:3:0:0:
457,120,40340,5,8,1:0:0:0:
414,44,40507,1,2,3:3:0:0:
331,61,40673,1,4,0:3:0:0:
321,143,40840,1,2,3:0:0:0:
395,179,41007,2,0,L|382:278,1,83.9999974365235,8|0,1:0|3:0,0:0:0:0:
300,277,41340,5,2,3:2:0:0:
261,203,41507,1,8,3:0:0:0:
321,143,41673,1,8,1:0:0:0:
395,180,41840,1,2,0:0:0:0:
384,263,42007,2,0,L|290:278,1,83.9999974365235,8|2,0:3|0:0,0:0:0:0:
242,336,42340,5,8,1:1:0:0:
165,298,42507,1,2,0:0:0:0:
176,215,42673,2,0,L|159:158,3,41.9999987182618,2|2|4|2,0:0|0:0|0:3|0:0,0:0:0:0:
187,142,43007,2,0,L|193:99,3,41.9999987182618,8|2|8|8,1:0|1:2|1:0|1:0,0:0:0:0:
230,79,43340,6,0,L|328:61,1,83.9999974365235,4|0,1:0|3:0,0:0:0:0:
456,151,43673,2,0,L|373:135,1,83.9999974365235,8|2,1:0|3:0,0:0:0:0:
296,222,44007,2,0,B|285:250|285:250|305:357,2,111.999996582031,10|8|8,3:3|3:3|3:3,0:0:0:0:
247,115,44673,6,0,P|182:128|161:144,1,83.9999974365235,2|2,3:0|3:0,0:0:0:0:
98,239,45007,1,8,1:0:0:0:
14,118,45173,2,0,P|68:138|93:163,1,83.9999974365235,2|2,3:0|3:0,0:0:0:0:
192,260,45507,1,0,3:0:0:0:
83,328,45673,2,0,L|-17:336,1,83.9999974365235,8|10,1:0|3:0,0:0:0:0:
161,183,46007,6,0,L|261:191,1,83.9999974365235,2|0,3:2|0:0,0:0:0:0:
264,277,46340,2,0,L|364:285,1,83.9999974365235,8|0,1:0|0:0,0:0:0:0:
323,124,46673,2,0,L|315:224,1,83.9999974365235,2|4,3:2|0:3,0:0:0:0:
192,260,47006,2,0,L|184:360,1,83.9999974365235,8|0,1:0|0:0,0:0:0:0:
351,373,47340,5,2,3:2:0:0:
382,374,47423,1,0,3:0:0:0:
413,368,47506,1,2,3:0:0:0:
440,353,47590,1,2,3:0:0:0:
464,332,47673,2,0,P|444:276|455:235,1,83.9999974365235,8|8,1:0|3:0,0:0:0:0:
495,139,48007,5,8,3:0:0:0:
406,173,48173,1,10,3:0:0:0:
316,207,48340,1,8,1:0:0:0:
226,241,48507,1,10,3:0:0:0:
221,266,48590,1,8,3:3:0:0:
216,288,48673,6,0,P|169:312|131:311,1,83.9999974365235,4|2,1:2|3:0,0:0:0:0:
76,215,49007,1,8,1:0:0:0:
178,157,49173,2,0,P|229:143|321:229,1,167.999994873047,2|4,3:0|0:3,0:0:0:0:
369,308,49673,1,8,1:0:0:0:
438,189,49840,1,2,3:0:0:0:
381,87,50007,6,0,L|297:78,1,83.9999974365235,2|2,3:2|3:0,0:0:0:0:
226,241,50340,1,8,1:0:0:0:
131,257,50507,1,10,3:0:0:0:
131,127,50673,1,0,3:0:0:0:
226,143,50840,1,10,3:0:0:0:
297,305,51007,2,0,L|381:297,1,83.9999974365235,8|0,1:0|0:0,0:0:0:0:
438,189,51340,6,0,P|448:138|438:100,2,83.9999974365235,4|10|8,1:2|3:0|1:0,0:0:0:0:
381,297,51840,2,0,P|371:348|381:386,2,83.9999974365235,0|2|10,0:0|3:2|3:0,0:0:0:0:
300,203,52340,1,8,1:0:0:0:
234,339,52507,1,2,3:0:0:0:
165,257,52673,6,0,L|75:270,1,83.9999974365235,4|4,1:2|0:3,0:0:0:0:
65,243,52923,2,0,B|60:224|60:224|70:141,1,83.9999974365235,4|4,1:2|0:3,0:0:0:0:
101,134,53173,2,0,L|100:89,1,41.9999987182618,4|0,1:2|0:0,0:0:0:0:
99,64,53340,1,0,1:0:0:0:
194,166,53507,5,0,1:0:0:0:
219,177,53590,1,0,1:0:0:0:
244,188,53673,2,0,L|298:179,3,41.9999987182618,0|0|0|0,1:0|1:0|1:0|1:0,0:0:0:0:
311,206,54007,6,0,P|354:247|437:257,1,140,4|0,2:1|3:0,0:0:0:0:
498,187,54507,1,0,0:0:0:0:
437,99,54673,2,0,L|358:115,1,70,2|0,0:0|0:0,0:0:0:0:
281,43,55007,2,0,L|205:36,1,70,0|0,3:0|0:0,0:0:0:0:
144,178,55340,5,2,0:0:0:0:
205,269,55507,2,0,L|198:344,2,70,0|0|0,0:0|3:0|0:0,0:0:0:0:
317,214,56007,2,0,L|307:141,2,70,2|0|0,0:0|0:0|3:0,0:0:0:0:
10,180,56673,6,0,P|51:163|85:164,1,70,2|0,0:0|0:0,0:0:0:0:
171,187,57007,1,0,3:0:0:0:
95,239,57173,1,0,0:0:0:0:
148,103,57340,2,0,P|203:71|296:87,1,140,2|0,0:0|3:0,0:0:0:0:
365,137,57840,1,2,0:0:0:0:
290,282,58007,5,2,0:0:0:0:
215,211,58173,2,0,L|139:207,2,70,0|0|0,0:0|3:0|0:0,0:0:0:0:
374,228,58673,2,0,L|443:231,2,70,2|2|0,0:0|0:0|3:0,0:0:0:0:
76,290,59340,5,4,1:2:0:0:
157,284,59673,1,0,1:0:0:0:
238,278,60007,1,0,1:0:0:0:
319,272,60340,1,0,1:0:0:0:
204,64,60673,5,4,1:2:0:0:
285,70,61006,1,0,1:0:0:0:
366,76,61340,1,0,1:0:0:0:
447,82,61673,1,0,1:2:0:0:
201,210,62007,5,4,1:2:0:0:
201,210,62173,1,0,1:0:0:0:
293,190,62340,1,0,1:0:0:0:
293,190,62507,1,0,1:0:0:0:
313,282,62673,1,0,1:0:0:0:
313,282,62840,1,0,1:0:0:0:
220,302,63007,1,0,1:0:0:0:
220,302,63173,1,0,1:0:0:0:
104,259,63340,5,4,2:2:0:0:
109,242,63423,1,0,2:0:0:0:
113,225,63506,1,0,2:0:0:0:
115,208,63590,1,0,2:0:0:0:
115,189,63673,2,0,L|104:140,3,35,0|0|0|0,2:0|2:0|2:0|2:0,0:0:0:0:
140,123,64007,2,0,L|142:83,3,35,0|0|0|0,2:0|2:0|2:0|2:0,0:0:0:0:
184,75,64340,2,0,L|192:35,3,35,0|0|0|0,2:2|2:0|2:2|2:0,0:0:0:0:
228,14,64673,5,0,1:0:0:0:
355,107,64840,1,0,1:0:0:0:
250,181,65007,2,0,L|156:176,1,70,8|0,1:0|2:0,0:0:0:0:
146,207,65257,2,0,P|126:247|124:278,1,70,0|0,1:0|1:0,0:0:0:0:
127,306,65507,1,0,2:0:0:0:
275,259,65673,1,0,1:0:0:0:
216,110,65840,1,0,0:0:0:0:
195,92,65923,1,0,0:0:0:0:
177,77,66007,6,0,L|129:66,3,35,0|2|2|2,1:0|0:0|0:0|0:0,0:0:0:0:
96,147,66340,2,0,L|137:146,3,35,2|2|2|2,0:0|0:0|0:0|0:0,0:0:0:0:
178,218,66673,2,0,L|138:224,3,35,0|2|2|2,0:0|0:0|0:0|0:0,0:0:0:0:
268,233,67007,1,0,1:0:0:0:
292,242,67090,1,0,1:0:0:0:
313,258,67173,1,0,1:0:0:0:
330,278,67256,1,0,1:0:0:0:
341,301,67340,6,0,L|446:313,1,83.9999974365235,4|0,1:1|0:0,0:0:0:0:
463,171,67673,2,0,P|415:174|366:201,1,83.9999974365235,12|8,1:2|3:0,0:0:0:0:
238,299,68007,1,2,0:2:0:0:
194,202,68173,1,2,3:0:0:0:
296,124,68340,1,8,1:0:0:0:
324,31,68507,1,2,3:0:0:0:
180,121,68673,6,0,P|177:160|204:214,1,83.9999974365235,2|0,0:2|3:0,0:0:0:0:
277,281,69007,1,8,1:0:0:0:
378,250,69173,1,12,3:0:0:0:
352,156,69340,2,0,L|265:149,1,83.9999974365235,2|6,3:2|3:0,0:0:0:0:
160,275,69673,5,8,1:0:0:0:
68,300,69840,1,2,3:0:0:0:
43,166,70007,2,0,L|145:183,1,83.9999974365235,2|0,3:2|0:0,0:0:0:0:
252,250,70340,5,8,1:0:0:0:
160,275,70507,1,8,0:3:0:0:
135,141,70674,2,0,L|237:158,1,83.9999974365235,2|4,3:2|0:3,0:0:0:0:
344,225,71007,5,0,1:0:0:0:
252,250,71174,1,8,3:3:0:0:
227,116,71341,1,2,3:2:0:0:
309,129,71507,1,8,3:3:0:0:
415,34,71673,1,8,1:0:0:0:
323,45,71840,1,8,3:0:0:0:
437,159,72007,5,4,3:3:0:0:
491,261,72173,1,2,3:3:0:0:
485,291,72256,1,8,0:1:0:0:
479,322,72339,1,8,1:0:0:0:
375,372,72507,1,2,0:2:0:0:
311,228,72673,6,0,P|267:208|231:207,1,83.9999974365235,2|0,3:2|0:0,0:0:0:0:
122,325,73007,2,0,P|163:322|201:303,1,83.9999974365235,8|8,1:0|3:0,0:0:0:0:
172,136,73340,1,2,3:2:0:0:
83,215,73507,1,4,0:3:0:0:
23,123,73673,2,0,L|37:37,1,83.9999974365235,0|2,1:0|3:0,0:0:0:0:
245,53,74007,6,0,P|253:90|243:145,1,83.9999974365235,2|0,2:2|3:0,0:0:0:0:
161,245,74340,2,0,P|152:285|159:327,1,83.9999974365235,10|4,1:2|0:3,0:0:0:0:
311,263,74673,2,0,L|410:251,1,83.9999974365235,2|6,3:2|2:3,0:0:0:0:
501,289,75007,5,10,1:2:0:0:
401,348,75173,1,2,3:0:0:0:
399,150,75340,2,0,P|458:172|485:204,1,83.9999974365235,2|0,3:2|0:0,0:0:0:0:
311,263,75673,5,10,1:2:0:0:
211,322,75839,1,0,3:0:0:0:
201,154,76006,1,2,3:0:0:0:
315,178,76172,1,4,3:3:0:0:
112,217,76340,1,8,1:0:0:0:
88,100,76507,1,2,3:0:0:0:
209,41,76673,6,0,L|303:52,1,83.9999974365235,4|8,3:0|3:0,0:0:0:0:
316,36,76923,1,2,3:0:0:0:
316,36,77007,2,0,P|353:25|409:27,1,83.9999974365235,8|8,1:0|0:1,0:0:0:0:
338,162,77340,1,8,1:1:0:0:
450,206,77507,1,4,3:0:0:0:
311,306,77673,2,0,L|221:318,1,83.9999974365235,8|2,1:0|3:0,0:0:0:0:
99,265,78007,6,0,P|93:223|103:182,1,83.9999974365235,4|0,3:1|0:0,0:0:0:0:
248,81,78340,2,0,P|257:121|252:163,1,83.9999974365235,12|8,1:2|3:0,0:0:0:0:
123,64,78673,1,2,3:2:0:0:
178,175,78840,1,6,3:0:0:0:
341,151,79007,1,8,1:0:0:0:
389,237,79173,1,2,3:0:0:0:
467,140,79340,6,0,L|476:52,2,83.9999974365235,2|0|8,3:2|0:0|1:0,0:0:0:0:
503,256,79840,1,12,3:0:0:0:
387,337,80007,2,0,P|343:355|299:348,1,83.9999974365235,2|2,3:2|3:3,0:0:0:0:
214,229,80340,5,8,1:0:0:0:
279,120,80507,1,2,3:0:0:0:
352,189,80673,2,0,L|334:280,1,83.9999974365235,4|0,3:0|0:0,0:0:0:0:
214,229,81007,5,8,1:0:0:0:
149,120,81174,1,8,3:0:0:0:
76,189,81340,2,0,L|94:280,1,83.9999974365235,2|4,3:2|0:3,0:0:0:0:
214,229,81673,5,8,1:0:0:0:
279,120,81840,1,4,2:3:0:0:
198,40,82007,2,0,L|99:32,2,83.9999974365235,2|2|8,3:2|3:2|1:0,0:0:0:0:
342,52,82507,1,2,3:2:0:0:
214,145,82673,1,2,3:2:0:0:
356,164,82840,2,0,L|409:170,2,41.9999987182618,4|4|8,3:3|3:3|1:0,0:0:0:0:
231,252,83173,1,2,3:2:0:0:
94,189,83340,6,0,P|89:131|102:94,1,83.9999974365235,2|8,3:0|3:0,0:0:0:0:
198,40,83673,1,8,1:0:0:0:
300,107,83840,2,0,P|308:147|301:189,2,83.9999974365235,8|4|2,3:0|3:0|3:3,0:0:0:0:
198,40,84340,5,8,1:0:0:0:
95,106,84507,2,0,P|87:147|94:189,1,83.9999974365235,2|4,3:0|3:0,0:0:0:0:
200,259,84840,2,0,P|200:302|184:348,2,83.9999974365235,8|8|8,3:3|1:0|3:0,0:0:0:0:
94,189,85340,6,0,P|89:131|102:94,1,83.9999974365235,2|6,3:2|3:0,0:0:0:0:
198,40,85673,1,8,1:0:0:0:
300,107,85840,1,2,3:0:0:0:
256,209,86007,6,0,L|148:198,1,83.9999974365235,4|2,3:2|3:2,0:0:0:0:
89,296,86340,1,8,1:0:0:0:
221,344,86507,2,0,P|301:348|369:290,1,167.999994873047,2|6,3:2|3:2,0:0:0:0:
311,148,87007,1,8,1:2:0:0:
403,68,87173,1,2,1:2:0:0:
472,205,87340,6,0,L|371:210,1,83.9999974365235,4|0,1:2|0:0,0:0:0:0:
371,201,87590,2,0,P|335:209|291:247,1,83.9999974365235,4|0,1:2|0:0,0:0:0:0:
288,259,87840,2,0,L|279:299,2,41.9999987182618,4|0|8,1:2|0:0|1:0,0:0:0:0:
248,154,88173,1,8,1:0:0:0:
236,129,88257,1,0,1:0:0:0:
224,105,88340,2,0,L|181:88,3,41.9999987182618,0|0|0|0,1:0|1:0|1:0|1:0,0:0:0:0:
157,98,88673,6,0,B|119:103|90:91|90:91|74:126|77:160|98:198,1,167.999994873047,4|0,3:2|1:0,0:0:0:0:
196,261,89173,1,4,0:3:0:0:
299,164,89340,1,2,0:0:0:0:
324,161,89423,1,2,0:0:0:0:
349,159,89506,1,4,0:3:0:0:
374,156,89589,1,0,0:0:0:0:
402,130,89673,2,0,L|461:139,3,41.9999987182618,8|2|2|2,1:0|0:0|0:0|0:0,0:0:0:0:
476,161,90007,6,0,P|490:216|479:263,1,83.9999974365235,4|2,0:3|0:0,0:0:0:0:
470,272,90257,1,2,0:0:0:0:
470,272,90340,2,0,P|424:269|376:288,1,83.9999974365235,8|4,1:0|0:3,0:0:0:0:
362,300,90590,1,2,0:0:0:0:
362,300,90673,2,0,L|274:290,2,83.9999974365235,0|8|8,0:3|3:3|1:0,0:0:0:0:
446,372,91173,1,2,3:0:0:0:
351,203,91340,5,2,3:2:0:0:
211,231,91507,1,2,3:0:0:0:
207,256,91590,1,2,3:0:0:0:
204,281,91673,1,8,1:0:0:0:
64,309,91840,5,2,3:0:0:0:
204,281,92007,1,2,3:0:0:0:
207,256,92090,1,2,3:0:0:0:
211,231,92173,1,4,3:3:0:0:
351,203,92340,5,8,1:0:0:0:
211,231,92507,1,2,3:2:0:0:
64,309,92673,5,2,3:2:0:0:
52,279,92756,1,2,3:2:0:0:
48,248,92839,1,4,2:3:0:0:
52,217,92922,1,2,2:2:0:0:
63,187,93007,2,0,L|168:178,1,83.9999974365235,8|2,1:0|3:0,0:0:0:0:
178,207,93257,1,2,3:0:0:0:
211,231,93340,2,0,P|273:247|312:237,1,83.9999974365235,0|0,1:0|1:3,0:0:0:0:
385,157,93673,2,0,L|445:151,3,41.9999987182618,8|0|2|2,1:0|0:0|0:0|0:0,0:0:0:0:
465,149,94007,5,4,1:2:0:0:
339,52,94173,2,0,L|302:49,2,27.9999991455078,2|0|0,0:0|0:0|0:0,0:0:0:0:
357,54,94340,1,8,1:2:0:0:
286,172,94507,2,0,L|250:176,2,27.9999991455078,2|0|0,2:0|0:0|0:0,0:0:0:0:
305,169,94673,5,2,0:2:0:0:
385,157,94840,1,4,0:3:0:0:
465,149,95007,1,8,1:0:0:0:
362,250,95173,1,2,2:2:0:0:
259,97,95340,6,0,L|174:86,1,83.9999974365235,4|2,2:3|2:0,0:0:0:0:
146,104,95590,1,2,2:0:0:0:
151,140,95673,2,0,L|156:183,3,41.9999987182618,8|2|2|2,1:0|0:0|2:0|2:0,0:0:0:0:
139,210,96007,2,0,P|79:236|43:230,2,83.9999974365235,2|4|8,0:0|0:3|1:0,0:0:0:0:
450,235,96673,6,0,P|408:231|373:210,1,83.9999974365235,4|2,0:0|0:0,0:0:0:0:
319,109,97007,1,8,1:0:0:0:
213,166,97173,2,0,B|206:227|206:227|225:274|225:274|216:349,1,167.999994873047,2|4,0:0|0:3,0:0:0:0:
118,371,97673,1,8,1:0:0:0:
48,289,97840,1,2,1:2:0:0:
108,190,98007,6,0,L|158:179,3,41.9999987182618,0|2|0|2,1:2|0:0|1:2|0:0,0:0:0:0:
185,207,98340,2,0,L|236:216,3,41.9999987182618,2|2|0|2,1:2|0:2|1:2|0:2,0:0:0:0:
269,174,98673,2,0,L|329:169,3,41.9999987182618,0|0|0|0,1:0|0:0|1:0|1:0,0:0:0:0:
365,220,99007,5,0,1:0:0:0:
398,223,99090,1,0,1:0:0:0:
430,215,99173,1,0,1:0:0:0:
459,198,99256,1,0,1:0:0:0:
481,172,99340,6,0,L|488:120,3,41.9999987182618,4|2|2|2,0:0|0:0|0:0|0:0,0:0:0:0:
473,101,99673,1,8,1:0:0:0:
378,27,99840,1,2,0:0:0:0:
473,101,100007,1,4,0:3:0:0:
336,154,100173,1,4,0:3:0:0:
236,78,100340,2,0,L|191:73,3,41.9999987182618,8|2|2|2,1:0|0:0|0:0|0:0,0:0:0:0:
163,95,100673,5,4,0:3:0:0:
230,202,100840,1,2,0:0:0:0:
336,154,101007,2,0,L|430:148,1,83.9999974365235,8|4,1:0|0:3,0:0:0:0:
378,304,101340,1,2,1:2:0:0:
289,363,101507,1,4,0:3:0:0:
215,279,101673,2,0,P|173:265|129:268,1,83.9999974365235,8|2,1:0|0:0,0:0:0:0:
28,317,102007,5,2,1:2:0:0:
5,182,102173,2,0,L|1:121,2,41.9999987182618,2|2|8,2:0|2:0|1:2,0:0:0:0:
118,147,102507,1,2,2:0:0:0:
119,126,102590,1,2,2:0:0:0:
120,105,102673,1,2,0:0:0:0:
230,202,102840,2,0,L|227:145,2,41.9999987182618,4|2|8,0:3|2:0|1:0,0:0:0:0:
330,123,103173,1,4,0:3:0:0:
341,94,103257,1,2,0:0:0:0:
352,66,103340,6,0,L|402:55,3,41.9999987182618,0|0|2|2,0:3|0:0|0:0|0:0,0:0:0:0:
433,127,103673,2,0,L|481:133,3,41.9999987182618,8|0|2|2,1:1|0:0|0:0|0:0,0:0:0:0:
377,196,104007,2,0,L|322:188,3,41.9999987182618,2|2|4|2,0:0|0:0|0:3|0:0,0:0:0:0:
430,256,104340,5,10,1:2:0:0:
432,266,104423,1,2,1:2:0:0:
434,276,104506,1,8,1:0:0:0:
437,286,104589,1,8,1:0:0:0:
439,296,104673,6,0,P|382:327|347:326,1,83.9999974365235,4|2,1:2|2:0,0:0:0:0:
342,309,104923,1,2,2:0:0:0:
342,309,105007,2,0,P|285:298|258:303,1,83.9999974365235,8|0,1:0|0:0,0:0:0:0:
159,350,105340,1,8,1:0:0:0:
205,244,105507,1,2,0:0:0:0:
159,118,105673,1,8,1:0:0:0:
92,225,105840,1,10,0:0:0:0:
272,168,106007,6,0,L|362:162,1,83.9999974365235,4|2,1:2|0:0,0:0:0:0:
377,141,106257,1,2,0:0:0:0:
377,141,106340,2,8,P|424:122|475:134,1,83.9999974365235,8|0,1:0|0:0,0:0:0:0:
371,235,106673,1,8,1:0:0:0:
300,96,106840,1,2,0:0:0:0:
177,182,107007,2,0,P|163:227|166:275,1,83.9999974365235,8|2,1:0|0:0,0:0:0:0:
234,347,107340,5,4,0:2:0:0:
234,347,107507,1,0,1:0:0:0:
327,317,107673,1,0,1:0:0:0:
327,317,107840,1,0,1:0:0:0:
356,227,108007,1,0,1:0:0:0:
356,227,108173,1,0,1:0:0:0:
297,143,108340,1,0,1:0:0:0:
297,143,108507,1,0,1:0:0:0:
192,140,108673,5,4,1:2:0:0:
171,141,108756,1,0,2:0:0:0:
150,142,108839,1,0,2:2:0:0:
129,144,108922,1,0,2:0:0:0:
101,169,109007,2,0,L|87:220,3,41.9999987182618,0|0|0|0,2:2|2:2|2:2|2:0,0:0:0:0:
103,248,109340,5,2,2:2:0:0:
121,273,109423,1,2,2:2:0:0:
147,290,109506,1,2,2:2:0:0:
178,295,109589,1,2,2:2:0:0:
222,268,109673,2,0,L|268:263,3,41.9999987182618,2|2|2|2,1:2|1:2|1:2|1:2,0:0:0:0:
297,279,110007,5,4,1:2:0:0:
256,192,110173,12,2,115173,0:0:0:0:
