osu file format v14

[General]
AudioFilename: 8.mp3
AudioLeadIn: 0
PreviewTime: 67257
Countdown: 0
SampleSet: Soft
StackLeniency: 0.7
Mode: 0
LetterboxInBreaks: 0
WidescreenStoryboard: 1

[Editor]
Bookmarks: 27590,28757,94340
DistanceSpacing: 0.8
BeatDivisor: 4
GridSize: 32
TimelineZoom: 3.299999

[Metadata]
Title:Oriental Blossom
TitleUnicode:Oriental Blossom
Artist:Eisyo-kobu
ArtistUnicode:影翔鼓舞
Creator:Crystal
Version:Doj's Insane
Source:SOUND VOLTEX III GRAVITY WARS
Tags:Newspaper Cup #3 3rd third sdvx 影虎。Kagetora. saka=ichi The 4th KACオリジナル楽曲コンテスト Original Song Contest konami arcade championship fourth Evil_Twilight 384059043 Pata-Mon Sadism-Bread Gaia Doj EmingK yf_bmp handsome muscle z1085684963 Karen Kashima Vert 23konG Ellyu pw384
BeatmapID:1243782
BeatmapSetID:586889

[Difficulty]
HPDrainRate:7
CircleSize:4
OverallDifficulty:7
ApproachRate:9
SliderMultiplier:1.4
SliderTickRate:1

[Events]
//Background and Video events
0,0,"4.jpg",0,0
//Break Periods
2,54206,58740
//Storyboard Layer 0 (Background)
//Storyboard Layer 1 (Fail)
//Storyboard Layer 2 (Pass)
//Storyboard Layer 3 (Foreground)
//Storyboard Sound Samples

[TimingPoints]
674,333.333333333333,4,2,52,60,1,0
674,-166.666666666667,4,2,52,60,0,0
4590,-166.666666666667,4,2,58,60,0,0
4757,-166.666666666667,4,2,52,60,0,0
6007,-133.333333333333,4,2,51,60,0,0
7340,-133.333333333333,4,2,51,60,0,0
8590,-133.333333333333,4,2,51,60,0,0
8673,-133.333333333333,4,2,51,60,0,0
9340,-133.333333333333,4,2,51,60,0,0
10007,-117.647058823529,4,2,51,60,0,0
11007,-117.647058823529,4,2,51,60,0,0
11340,-100,4,2,51,60,0,0
18257,-100,4,2,51,60,0,0
18340,-100,4,2,51,60,0,0
19590,-100,4,2,51,60,0,0
19673,-100,4,2,51,60,0,0
22007,-80,4,2,51,60,0,0
29923,-80,4,2,51,5,0,0
30007,-80,4,2,51,60,0,0
30757,-80,4,2,51,5,0,0
30840,-80,4,2,51,60,0,0
31340,-80,4,2,51,65,0,0
32673,-100,4,2,51,65,0,0
32840,-100,4,2,51,60,0,0
36840,-100,4,2,51,70,0,0
37007,-100,4,2,51,60,0,0
37173,-100,4,2,51,70,0,0
37673,-100,4,2,51,60,0,0
37840,-100,4,2,51,70,0,0
38007,-100,4,2,51,60,0,0
39590,-100,4,2,51,60,0,0
39673,-100,4,2,51,60,0,0
40340,-100,4,2,51,70,0,0
41007,-100,4,2,51,60,0,0
41340,-100,4,2,51,70,0,0
41673,-100,4,2,51,60,0,0
42007,-100,4,2,51,70,0,0
42090,-100,4,2,51,60,0,0
42673,-100,4,2,51,70,0,0
43007,-100,4,2,51,65,0,0
43340,-86.9565217391304,4,2,51,60,0,0
47507,-86.9565217391304,4,2,51,70,0,0
47673,-86.9565217391304,4,2,51,60,0,0
47840,-86.9565217391304,4,2,51,70,0,0
48340,-86.9565217391304,4,2,51,60,0,0
48507,-86.9565217391304,4,2,51,70,0,0
48673,-86.9565217391304,4,2,51,60,0,0
52673,-80,4,2,51,60,0,0
54007,-80,4,2,51,50,0,0
54090,-80,4,2,52,50,0,0
59340,-86.9565217391304,4,2,51,60,0,0
60673,-86.9565217391304,4,2,51,60,0,0
61923,-86.9565217391304,4,2,51,60,0,0
62007,-86.9565217391304,4,2,51,60,0,0
63340,-86.9565217391304,4,2,51,60,0,0
64673,-86.9565217391304,4,3,55,70,0,0
65007,-86.9565217391304,4,3,55,50,0,0
65173,-86.9565217391304,4,3,55,60,0,0
65507,-86.9565217391304,4,3,55,70,0,0
65673,-86.9565217391304,4,3,55,60,0,0
66007,-86.9565217391304,4,2,51,70,0,0
66340,-86.9565217391304,4,2,51,70,0,0
66673,-86.9565217391304,4,2,51,70,0,0
67007,-86.9565217391304,4,2,51,70,0,0
67340,-80,4,2,51,70,0,0
67590,-80,4,2,51,70,0,0
67673,-80,4,2,51,70,0,0
69423,-80,4,2,51,70,0,0
69507,-80,4,2,51,70,0,0
70257,-80,4,2,51,70,0,0
70340,-80,4,2,51,70,0,0
72923,-80,4,2,51,70,0,0
73007,-80,4,2,51,70,0,0
73673,-80,4,2,70,70,0,0
73757,-80,4,2,51,70,0,0
74257,-80,4,2,51,70,0,0
74340,-80,4,2,51,70,0,0
75590,-80,4,2,51,70,0,0
75673,-80,4,2,51,70,0,0
78007,-80,4,2,51,70,0,0
78257,-80,4,2,51,70,0,0
78340,-80,4,2,51,70,0,0
80090,-80,4,2,51,70,0,0
80173,-80,4,2,51,70,0,0
80923,-80,4,2,51,70,0,0
81007,-80,4,2,51,70,0,0
81673,-80,4,2,70,70,0,0
81840,-80,4,2,51,70,0,0
83340,-80,4,2,51,70,0,0
84173,-80,4,2,57,60,0,0
84340,-80,4,2,51,70,0,0
85173,-80,4,2,57,60,0,0
85340,-80,4,2,51,70,0,0
87340,-80,4,2,51,70,0,0
88673,-74.0740740740741,4,2,51,70,0,0
104673,-68.9655172413793,4,2,51,70,0,0
108673,-68.9655172413793,4,2,51,60,0,0
110007,-68.9655172413793,4,2,51,70,0,0
115173,-68.9655172413793,4,2,51,30,0,0

[Colours]
Combo1 : 200,200,200
Combo2 : 255,91,91
Combo3 : 255,255,128
Combo4 : 106,181,255
Combo5 : 255,140,198
Combo6 : 191,128,255
Combo7 : 255,0,0

[HitObjects]
84,217,674,6,0,P|151:180|211:251,1,167.999994873047,0|8,3:0|0:1,0:0:0:0:
327,230,1673,2,0,L|357:184,1,41.9999987182618,0|0,0:0|3:0,0:0:0:0:
363,175,1923,1,0,0:0:0:0:
376,155,2007,2,0,P|354:228|437:271,1,167.999994873047,2|8,0:3|0:1,0:0:0:0:
311,90,3007,1,0,0:0:0:0:
223,132,3340,6,0,B|173:146|139:132|101:117|40:139,1,167.999994873047,0|8,3:0|0:1,0:0:0:0:
202,42,4340,2,0,P|272:51|266:210,1,251.999992309571,0|8,0:0|0:1,0:0:0:0:
279,202,6007,5,0,3:0:0:0:
352,243,6340,1,0,3:0:0:0:
208,321,6673,2,0,L|161:342,1,26.2500010013581,8|0,0:0|0:0,0:0:0:0:
310,187,7007,1,0,3:0:0:0:
383,228,7340,5,2,3:3:0:0:
378,311,7673,1,0,3:0:0:0:
304,164,8007,2,0,L|285:124,1,26.2500010013581,8|0,0:0|0:0,0:0:0:0:
197,51,8340,2,0,P|206:89|213:141,1,78.7500030040742,0|0,3:0|0:0,0:0:0:0:
211,157,8673,21,0,3:0:0:0:
112,229,8840,1,0,3:0:0:0:
231,305,9007,1,0,3:0:0:0:
211,157,9173,1,0,3:0:0:0:
149,307,9340,1,8,0:0:0:0:
301,224,9507,1,0,3:0:0:0:
129,134,9673,1,0,3:0:0:0:
252,296,9840,1,0,3:0:0:0:
291,82,10007,6,0,P|291:111|292:141,1,59.5000011348725,4|0,0:1|0:0,0:0:0:0:
301,224,10340,1,0,0:0:0:0:
409,50,10507,1,0,0:0:0:0:
426,69,10840,1,0,3:0:0:0:
468,143,11007,2,0,P|474:188|472:221,1,59.5000011348725,8|0,0:0|0:0,0:0:0:0:
453,286,11340,6,0,B|411:300|383:298|383:298|334:280,1,105,4|0,3:2|0:0,0:0:0:0:
351,286,11673,1,10,0:0:0:0:
232,167,11840,1,0,0:0:0:0:
232,167,11923,1,0,0:0:0:0:
232,167,12007,2,0,P|177:152|143:151,2,70,2|2|10,0:0|3:2|0:0,0:0:0:0:
317,92,12507,1,0,0:0:0:0:
372,241,12673,6,0,P|423:228|492:217,1,105,2|0,3:2|0:0,0:0:0:0:
492,230,13007,2,0,L|499:277,1,35,10|0,0:0|0:0,0:0:0:0:
448,336,13173,1,2,3:2:0:0:
448,336,13257,1,0,0:0:0:0:
448,336,13340,1,2,0:0:0:0:
300,193,13507,1,0,3:0:0:0:
219,276,13673,2,0,P|207:315|202:366,1,70,10|2,0:0|0:0,0:0:0:0:
300,193,14007,6,0,B|295:154|295:154|277:124|208:119,1,105,2|0,3:2|0:0,0:0:0:0:
238,123,14340,1,10,0:0:0:0:
146,222,14507,1,2,0:0:0:0:
97,52,14673,2,0,P|89:105|90:146,1,70,2|0,0:0|3:0,0:0:0:0:
261,148,15007,1,10,0:0:0:0:
198,282,15173,1,2,3:2:0:0:
100,189,15340,6,0,P|91:155|88:121,1,70,2|0,0:0|3:0,0:0:0:0:
202,285,15673,1,8,0:0:0:0:
333,134,15840,1,2,0:0:0:0:
333,134,15923,1,0,0:0:0:0:
333,134,16007,1,0,3:0:0:0:
354,107,16090,1,0,0:0:0:0:
387,103,16173,1,0,3:0:0:0:
414,123,16257,1,0,0:0:0:0:
430,155,16340,2,0,P|431:177|432:195,1,35,10|0,0:0|0:0,0:0:0:0:
358,254,16507,2,0,P|360:274|360:294,1,35,2|0,0:0|0:0,0:0:0:0:
254,183,16673,6,0,P|237:142|266:74,1,105,2|0,3:2|0:0,0:0:0:0:
268,64,17007,2,0,P|228:66|190:63,1,70,10|0,0:0|0:0,0:0:0:0:
133,173,17340,1,2,0:0:0:0:
105,36,17507,1,0,3:0:0:0:
318,130,17673,2,0,P|352:124|405:116,1,70,8|0,0:0|0:0,0:0:0:0:
220,291,18007,38,0,P|174:266|155:215,1,105,2|0,3:2|0:0,0:0:0:0:
135,200,18340,2,0,L|121:244,1,35,10|0,0:0|0:0,0:0:0:0:
64,320,18507,2,0,L|56:270,2,35,0|0|0,3:2|0:0|0:0,0:0:0:0:
250,357,18840,1,0,3:0:0:0:
266,179,19007,2,0,P|232:167|199:159,1,70,8|2,0:0|0:0,0:0:0:0:
396,243,19340,6,0,B|437:251|437:251|464:241|495:217,1,105,0|0,3:0|0:0,0:0:0:0:
499,198,19673,2,0,P|497:176|498:146,1,35,8|0,0:0|0:0,0:0:0:0:
468,80,19840,1,2,0:0:0:0:
439,100,19923,1,0,0:0:0:0:
417,127,20007,2,0,P|385:123|323:130,1,70,2|0,0:0|3:0,0:0:0:0:
169,157,20340,1,8,0:0:0:0:
305,241,20507,1,0,3:0:0:0:
261,52,20673,6,0,B|252:89|252:140,1,70,2|2,0:0|3:2,0:0:0:0:
96,209,21007,1,10,0:0:0:0:
59,73,21173,1,2,0:0:0:0:
96,209,21340,2,0,L|75:266,1,35
172,181,21507,2,0,L|160:135,1,35
247,213,21673,1,8,0:0:0:0:
284,198,21756,1,8,0:0:0:0:
324,198,21839,1,8,0:0:0:0:
361,214,21922,1,0,0:0:0:0:
383,231,22007,6,0,B|400:195|395:150|395:150|423:117|419:58,1,175,6|8,3:2|0:0,0:0:0:0:
492,202,22507,1,0,0:0:0:0:
321,85,22673,1,2,0:0:0:0:
304,78,22756,1,0,0:0:0:0:
287,76,22840,1,2,3:2:0:0:
269,77,22923,1,0,0:0:0:0:
249,97,23007,1,10,0:0:0:0:
217,110,23090,1,0,0:0:0:0:
182,110,23173,1,2,0:0:0:0:
150,97,23256,1,0,0:0:0:0:
129,77,23340,6,0,L|116:179,1,87.5,0|2,3:0|0:0,0:0:0:0:
48,222,23590,1,2,0:0:0:0:
48,222,23673,2,0,L|56:328,1,87.5,8|2,0:0|3:2,0:0:0:0:
137,366,23923,1,2,0:0:0:0:
137,366,24007,1,2,0:0:0:0:
180,240,24173,1,0,3:0:0:0:
316,340,24340,2,0,P|354:331|412:323,1,87.5,8|0,0:0|0:0,0:0:0:0:
450,206,24673,37,0,3:0:0:0:
296,145,24840,1,2,0:0:0:0:
264,130,24923,1,2,0:0:0:0:
227,128,25006,1,10,0:0:0:0:
115,158,25173,1,0,0:0:0:0:
291,38,25340,1,2,0:0:0:0:
325,39,25423,1,2,0:0:0:0:
360,55,25507,1,2,3:2:0:0:
150,65,25673,2,0,L|131:25,2,43.75,10|0|2,0:0|0:0|0:0,0:0:0:0:
286,263,26007,5,2,0:0:0:0:
246,252,26090,1,0,0:0:0:0:
204,252,26173,1,2,3:2:0:0:
164,261,26256,1,0,0:0:0:0:
136,279,26340,2,0,P|134:304|134:345,1,43.75,10|0,0:0|0:0,0:0:0:0:
32,233,26507,2,0,P|28:268|30:300,1,43.75,2|0,0:0|0:0,0:0:0:0:
1,127,26673,2,0,B|40:138|63:135|63:135|97:117,1,87.5,0|0,3:0|3:0,0:0:0:0:
266,22,27007,1,10,0:0:0:0:
229,38,27090,1,2,0:0:0:0:
209,72,27173,1,2,0:0:0:0:
213,111,27256,1,2,0:0:0:0:
240,144,27340,6,0,B|287:141|307:137|307:137|344:165,1,87.5,0|2,3:0|0:0,0:0:0:0:
342,173,27562,2,0,L|350:212,1,29.1666666666667,2|2,0:0|0:0,0:0:0:0:
414,299,27673,2,0,P|422:238|436:197,1,87.5,10|2,0:0|0:0,0:0:0:0:
455,199,27896,2,0,L|463:238,1,29.1666666666667,2|2,0:0|0:0,0:0:0:0:
465,369,28007,2,0,P|422:346|376:334,1,87.5,2|0,0:0|3:0,0:0:0:0:
187,367,28340,2,0,P|230:366|269:325,1,87.5,8|2,0:0|0:0,0:0:0:0:
249,228,28673,5,0,0:0:0:0:
86,309,28839,1,2,0:0:0:0:
44,317,28922,1,2,0:0:0:0:
19,343,29007,1,10,0:0:0:0:
35,303,29090,1,0,0:0:0:0:
36,259,29173,1,2,3:2:0:0:
22,218,29256,1,0,0:0:0:0:
0,191,29340,2,0,P|43:188|107:172,1,87.5,2|2,0:0|3:2,0:0:0:0:
177,54,29673,2,0,P|240:32|274:82,1,131.25,8|0,0:0|0:0,0:0:0:0:
269,109,30007,6,0,P|235:155|222:206,2,87.5,6|0|8,3:2|0:0|0:0,0:0:0:0:
464,205,30507,2,0,B|422:199|400:185|400:185|358:185|340:205,1,131.25,2|0,0:0|0:0,0:0:0:0:
329,221,30840,2,0,P|324:255|324:289,1,43.75,2|0,3:2|0:0,0:0:0:0:
301,351,31007,2,0,P|254:339|198:333,1,87.5,8|2,0:0|3:2,0:0:0:0:
81,335,31340,6,0,P|62:317|39:284,1,43.75,12|0,0:2|0:0,0:0:0:0:
28,211,31507,1,0,3:0:0:0:
28,211,31590,2,0,P|50:191|73:162,1,43.75,12|0,0:0|0:0,0:0:0:0:
92,78,31757,1,0,3:0:0:0:
92,78,31840,2,0,P|108:95|119:113,1,43.75,12|0,0:0|0:0,0:0:0:0:
147,210,32007,1,12,0:0:0:0:
340,50,32173,1,8,0:0:0:0:
340,50,32257,1,8,0:0:0:0:
340,50,32340,1,8,0:0:0:0:
300,31,32423,1,8,0:0:0:0:
257,30,32506,1,8,0:0:0:0:
216,46,32589,1,8,0:0:0:0:
189,74,32673,22,0,P|194:126|188:164,1,70,4|2,3:2|0:0,0:0:0:0:
147,210,32923,1,2,0:0:0:0:
147,210,33007,1,8,0:0:0:0:
244,230,33173,2,0,B|269:217|294:228|314:240|369:227,1,105,2|0,0:0|0:0,0:0:0:0:
347,231,33507,1,0,3:0:0:0:
266,317,33673,2,0,P|217:306|177:300,1,70,8|2,0:0|0:0,0:0:0:0:
326,143,34007,6,0,P|319:109|299:66,1,70,2|2,3:2|0:0,0:0:0:0:
305,76,34257,1,2,0:0:0:0:
305,76,34340,1,8,0:0:0:0:
210,142,34507,1,0,3:0:0:0:
402,122,34673,2,0,P|439:120|500:110,1,70,2|2,0:0|3:2,0:0:0:0:
455,211,35007,1,8,0:0:0:0:
451,45,35173,1,2,0:0:0:0:
440,224,35340,6,0,P|406:220|352:221,1,70,2|0,3:2|0:0,0:0:0:0:
216,133,35673,2,0,P|255:129|304:130,1,70,10|0,0:0|0:0,0:0:0:0:
285,130,35923,1,0,0:0:0:0:
285,130,36007,1,2,0:0:0:0:
365,66,36173,1,0,3:0:0:0:
372,220,36340,1,10,0:0:0:0:
365,45,36507,1,0,3:0:0:0:
238,153,36673,6,0,P|200:159|149:154,1,70,2|8,0:0|0:1,0:0:0:0:
134,150,36923,1,8,0:1:0:0:
106,127,37007,1,8,0:0:0:0:
216,263,37173,1,8,0:1:0:0:
262,253,37257,1,0,0:0:0:0:
307,260,37340,1,8,3:1:0:0:
237,345,37507,1,8,3:1:0:0:
230,187,37673,1,8,0:2:0:0:
92,277,37840,1,8,0:1:0:0:
254,148,38007,5,2,3:2:0:0:
161,322,38173,1,2,0:0:0:0:
161,322,38257,1,2,0:0:0:0:
161,322,38340,1,8,0:0:0:0:
57,139,38507,2,0,P|55:192|58:234,2,70,2|0|2,0:0|0:0|3:2,0:0:0:0:
281,103,39007,1,8,0:0:0:0:
174,165,39173,1,0,0:0:0:0:
361,222,39340,38,0,B|375:253|375:253|375:288|360:351,1,105,2|0,3:2|0:0,0:0:0:0:
366,323,39673,1,10,0:0:0:0:
456,167,39840,1,2,3:2:0:0:
466,319,40007,2,0,P|465:284|460:250,1,70,2|0,0:0|3:0,0:0:0:0:
360,171,40340,1,10,1:2:0:0:
510,91,40507,1,2,0:0:0:0:
381,44,40673,2,0,P|348:43|290:45,2,70,8|2|8,1:3|0:0|1:2,0:0:0:0:
388,53,41340,6,0,P|391:102|391:129,1,70,0|2,1:0|3:2,0:0:0:0:
280,227,41673,2,0,P|277:178|277:151,1,70,8|0,1:2|3:0,0:0:0:0:
176,8,42007,2,0,L|142:17,3,35,2|0|8|0,1:2|0:0|3:1|0:0,0:0:0:0:
206,81,42340,2,0,L|239:98,3,35,8|0|8|0,3:2|0:0|0:1|0:0,0:0:0:0:
160,166,42673,2,0,L|113:187,1,35,8|8,3:1|0:1,0:0:0:0:
163,269,42840,2,0,L|138:299,1,35,8|0,0:1|0:0,0:0:0:0:
32,359,43007,1,8,0:0:0:0:
51,318,43090,1,8,0:0:0:0:
50,273,43173,1,8,0:0:0:0:
28,234,43257,1,8,0:0:0:0:
0,211,43340,6,0,B|-15:180|-12:155|-12:155|5:130|14:85,1,120.750002303124,4|0,3:2|0:0,0:0:0:0:
22,85,43673,2,0,B|44:77|63:84|86:91|114:80,1,80.5000015354157,8|0,0:0|0:0,0:0:0:0:
163,38,43923,1,0,0:0:0:0:
163,38,44007,1,2,0:0:0:0:
262,151,44173,1,0,3:0:0:0:
163,258,44340,2,0,P|158:219|165:152,1,80.5000015354157,8|2,0:0|0:0,0:0:0:0:
164,369,44673,6,0,P|122:378|67:356,1,80.5000015354157,2|0,3:0|0:0,0:0:0:0:
44,244,45007,1,8,0:0:0:0:
147,100,45173,2,0,B|161:126|163:154|163:154|157:197,1,80.5000015354157,0|0,3:0|0:0,0:0:0:0:
291,132,45507,1,0,3:0:0:0:
428,204,45673,2,0,P|476:195|531:197,1,80.5000015354157,8|0,0:0|0:0,0:0:0:0:
274,303,46007,6,0,B|326:307|326:307|352:288,1,80.5000015354157,8|0,1:3|0:0,0:0:0:0:
147,236,46340,2,0,B|134:288|134:288|144:331,1,80.5000015354157,8|0,1:2|0:0,0:0:0:0:
104,90,46673,1,0,1:1:0:0:
67,206,46840,1,0,3:0:0:0:
225,51,47007,2,0,P|235:95|236:149,1,80.5000015354157,8|0,1:2|0:0,0:0:0:0:
346,240,47340,5,4,1:1:0:0:
346,240,47423,1,0,0:0:0:0:
346,240,47507,2,0,L|375:204,1,40.2500007677078,8|8,3:1|0:1,0:0:0:0:
446,254,47673,1,8,0:0:0:0:
322,152,47840,1,8,0:1:0:0:
311,304,48007,1,8,3:1:0:0:
232,158,48173,1,8,3:1:0:0:
211,319,48340,1,8,0:0:0:0:
132,148,48507,1,8,3:1:0:0:
102,277,48673,22,0,P|97:322|102:360,2,80.5000015354157,4|2|8,3:2|0:0|0:0,0:0:0:0:
273,371,49173,2,0,B|305:374|335:376|335:376|356:342,1,80.5000015354157,2|2,0:0|0:0,0:0:0:0:
339,229,49507,1,0,3:0:0:0:
205,135,49673,2,0,B|195:173|195:195|195:195|206:227,1,80.5000015354157,8|0,0:0|0:0,0:0:0:0:
349,39,50007,6,0,B|313:69|272:69|272:69|242:38|198:41,1,161.000003070831,4|8,3:1|0:0,0:0:0:0:
249,276,50507,2,0,P|232:247|195:209,1,80.5000015354157,0|0,3:0|0:0,0:0:0:0:
362,299,50840,1,0,3:0:0:0:
407,179,51007,2,0,B|424:171|424:171|516:165,1,80.5000015354157,8|0,0:0|0:0,0:0:0:0:
271,98,51340,6,0,P|203:127|114:79,1,161.000003070831,4|8,3:2|0:0,0:0:0:0:
202,8,51840,1,0,0:0:0:0:
202,8,51923,1,0,0:0:0:0:
202,8,52007,1,2,0:0:0:0:
51,44,52173,1,2,3:2:0:0:
202,206,52340,2,0,P|206:166|200:126,1,80.5000015354157,10|2,0:0|3:2,0:0:0:0:
58,294,52673,38,0,B|84:303|106:305|106:305|161:288,1,87.5,12|0,0:2|3:0,0:0:0:0:
167,275,52923,2,0,B|186:285|186:285|196:317|213:352,1,87.5,12|0,0:0|3:0,0:0:0:0:
236,371,53173,1,12,0:0:0:0:
316,213,53340,1,8,0:0:0:0:
511,304,53507,1,8,0:0:0:0:
511,304,53590,1,8,0:0:0:0:
511,304,53673,1,8,0:0:0:0:
475,279,53756,1,8,0:0:0:0:
432,270,53839,1,8,0:0:0:0:
389,277,53923,1,8,0:0:0:0:
353,300,54006,5,4,3:2:0:0:
407,212,59340,22,0,P|435:282|368:298,1,161.000003070831,12|8,0:0|0:0,0:0:0:0:
284,77,60007,2,0,B|324:51|364:62|364:62|392:85|451:81,1,161.000003070831,8|8,0:0|0:0,0:0:0:0:
28,298,60673,6,0,P|46:340|54:379,1,80.5000015354157,12|0,0:0|0:0,0:0:0:0:
64,170,61007,2,0,P|75:215|99:275,1,80.5000015354157,8|0,0:0|0:0,0:0:0:0:
115,56,61340,2,0,P|133:98|141:137,1,80.5000015354157,8|0,0:0|0:0,0:0:0:0:
141,132,61590,1,0,0:0:0:0:
141,132,61673,2,0,P|198:115|257:132,1,120.750002303124,8|0,0:0|0:0,0:0:0:0:
277,146,62007,5,12,0:0:0:0:
296,35,62173,1,8,0:0:0:0:
196,190,62340,1,8,0:0:0:0:
296,35,62507,1,8,0:0:0:0:
299,164,62673,1,8,0:0:0:0:
191,42,62840,1,8,0:0:0:0:
196,190,63007,1,8,0:0:0:0:
96,93,63173,1,8,0:0:0:0:
120,280,63340,6,0,P|125:302|129:321,3,40.2500007677078,12|8|8|8,0:0|0:0|0:0|0:0,0:0:0:0:
223,327,63673,2,0,P|231:347|241:362,3,40.2500007677078,8|8|8|8,0:0|0:0|0:0|0:0,0:0:0:0:
321,324,64007,6,0,L|331:276,1,40.2500007677078,8|8,0:0|0:0,0:0:0:0:
426,281,64173,2,0,L|403:218,1,40.2500007677078,8|8,0:0|0:0,0:0:0:0:
435,161,64340,1,8,0:0:0:0:
474,164,64423,1,8,0:0:0:0:
503,139,64506,1,8,0:0:0:0:
506,99,64590,1,8,0:0:0:0:
479,71,64673,6,0,P|431:68|368:70,1,80.5000015354157,4|4,0:0|0:0,0:0:0:0:
412,243,65007,1,8,0:0:0:0:
280,167,65173,1,2,0:0:0:0:
280,167,65257,1,2,0:0:0:0:
280,167,65340,2,0,L|277:125,1,40.2500007677078,2|2,0:0|0:0,0:0:0:0:
257,37,65507,1,4,0:0:0:0:
363,102,65673,2,0,P|402:108|452:100,1,80.5000015354157,8|2,0:0|0:0,0:0:0:0:
467,93,65923,1,2,0:0:0:0:
482,85,66007,70,0,L|496:143,3,40.2500007677078,2|0|2|0,3:2|0:0|0:0|0:0,0:0:0:0:
427,180,66340,2,0,L|414:235,3,40.2500007677078,2|0|2|0,0:0|0:0|0:0|0:0,0:0:0:0:
502,243,66673,2,0,L|514:299,1,40.2500007677078,2|0,0:0|0:0,0:0:0:0:
425,313,66840,2,0,L|411:372,1,40.2500007677078,2|0,0:0|0:0,0:0:0:0:
334,343,67007,5,10,0:0:0:0:
295,321,67090,1,8,0:0:0:0:
252,316,67173,1,10,0:0:0:0:
208,323,67256,1,8,0:0:0:0:
165,345,67340,22,0,B|143:362|143:362|107:314|142:250,1,131.25,4|0,3:2|0:0,0:0:0:0:
144,261,67673,2,0,P|94:264|37:255,1,87.5,8|0,0:0|0:0,0:0:0:0:
56,259,67923,1,2,0:0:0:0:
56,259,68007,1,4,0:3:0:0:
121,138,68173,1,4,3:0:0:0:
305,222,68340,2,0,P|354:219|407:209,1,87.5,8|4,0:0|0:3,0:0:0:0:
121,138,68673,6,0,P|169:135|220:140,1,87.5,4|0,3:3|0:0,0:0:0:0:
56,259,69007,1,10,0:0:0:0:
183,349,69173,2,0,B|213:369|249:363|249:363|281:341|328:352,1,131.25,4|0,3:3|0:0,0:0:0:0:
321,346,69507,2,0,P|317:320|311:288,1,43.75,0|0,3:0|0:0,0:0:0:0:
252,214,69673,1,10,0:0:0:0:
395,118,69840,1,4,0:3:0:0:
395,118,69923,1,0,0:0:0:0:
395,118,70007,6,0,B|323:149|323:149|301:129|257:116,1,131.25,8|0,1:3|0:0,0:0:0:0:
277,122,70340,1,10,0:0:0:0:
193,22,70507,1,4,0:3:0:0:
193,22,70590,1,0,0:0:0:0:
193,22,70673,1,2,1:2:0:0:
324,29,70840,1,0,3:0:0:0:
191,131,71007,2,0,B|179:165|178:191|178:191|188:243,1,87.5,10|4,0:0|3:0,0:0:0:0:
243,270,71257,1,0,0:0:0:0:
243,270,71340,6,0,P|291:269|334:262,1,87.5,2|0,1:2|3:0,0:0:0:0:
97,227,71673,2,0,P|53:220|10:219,1,87.5,8|2,0:0|0:2,0:0:0:0:
191,131,72007,1,0,3:0:0:0:
243,270,72173,2,0,P|252:297|262:317,1,43.75,0|0,3:0|0:0,0:0:0:0:
337,348,72340,2,0,P|345:328|354:307,1,43.75,10|2,0:0|0:0,0:0:0:0:
403,214,72507,2,0,P|411:238|422:261,1,43.75,2|2,0:0|0:0,0:0:0:0:
507,300,72673,6,0,B|519:252|502:211|502:211|508:185|506:161,1,131.25,2|0,3:3|0:0,0:0:0:0:
500,180,73007,2,0,P|453:186|402:176,1,87.5,10|0,0:0|0:0,0:0:0:0:
366,125,73257,1,0,0:0:0:0:
366,125,73340,1,4,0:3:0:0:
361,240,73507,1,0,3:0:0:0:
448,24,73673,2,0,P|457:77|452:118,1,87.5,14|0,0:0|0:0,0:0:0:0:
299,172,74007,38,0,B|249:154|201:153|201:153|156:172,1,131.25,8|0,1:3|0:0,0:0:0:0:
157,176,74340,2,0,P|132:177|89:167,1,43.75,8|0,1:2|0:0,0:0:0:0:
74,104,74507,1,0,3:0:0:0:
74,104,74590,1,0,0:0:0:0:
74,104,74673,1,0,1:0:0:0:
160,253,74840,1,0,3:0:0:0:
290,74,75007,1,10,0:0:0:0:
382,165,75173,1,4,0:3:0:0:
382,165,75340,6,0,B|343:146|319:167|288:182|241:155,1,131.25,12|0,1:3|0:0,0:0:0:0:
243,162,75673,2,0,P|232:188|225:216,1,43.75,8|0,0:0|0:0,0:0:0:0:
277,269,75840,2,0,P|277:298|281:325,1,43.75,4|0,0:3|0:0,0:0:0:0:
356,370,76007,1,4,0:3:0:0:
464,136,76173,1,2,3:2:0:0:
464,136,76340,2,0,B|465:175|458:194|458:194|465:226,1,87.5,8|4,0:0|3:0,0:0:0:0:
459,319,76673,5,2,1:2:0:0:
459,319,76840,2,0,P|434:313|415:304,1,43.75,2|2,0:0|0:0,0:0:0:0:
366,247,77007,1,8,1:2:0:0:
337,226,77090,1,0,0:0:0:0:
304,216,77173,1,2,0:0:0:0:
84,247,77340,1,8,1:3:0:0:
143,121,77507,1,0,3:0:0:0:
161,317,77673,2,0,P|184:286|188:231,1,87.5,8|4,0:0|0:1,0:0:0:0:
182,228,77923,1,2,0:0:0:0:
175,216,78007,6,0,B|220:190|270:244|324:205,1,131.25,2|0,3:0|0:0,0:0:0:0:
303,215,78340,1,8,0:0:0:0:
452,143,78507,1,0,0:0:0:0:
452,143,78590,1,0,0:0:0:0:
452,143,78673,1,4,0:3:0:0:
358,282,78840,1,4,3:0:0:0:
279,120,79007,2,0,P|239:78|196:49,1,87.5,8|4,0:0|0:3,0:0:0:0:
388,202,79340,6,0,P|428:160|471:131,1,87.5,4|0,3:3|0:0,0:0:0:0:
279,120,79673,1,8,0:0:0:0:
171,186,79840,2,0,P|126:136|48:146,1,131.25,4|0,3:3|0:0,0:0:0:0:
52,145,80173,2,0,P|45:166|43:188,1,43.75,0|0,3:0|0:0,0:0:0:0:
45,278,80340,1,8,0:0:0:0:
281,274,80507,1,4,0:3:0:0:
281,274,80590,1,0,0:0:0:0:
281,274,80673,38,0,B|244:258|194:259|194:259|154:280,1,131.25,8|0,1:3|0:0,0:0:0:0:
156,278,81007,1,8,0:0:0:0:
282,362,81173,1,4,0:3:0:0:
383,268,81340,2,0,P|390:221|391:165,1,87.5,2|0,1:2|3:0,0:0:0:0:
323,38,81673,1,14,0:0:0:0:
207,133,81840,1,4,3:3:0:0:
391,181,82007,6,0,P|430:167|497:152,1,87.5,4|4,0:3|3:3,0:0:0:0:
207,133,82340,2,0,P|198:182|205:235,1,87.5,10|4,0:0|0:3,0:0:0:0:
344,108,82673,1,4,3:3:0:0:
279,261,82840,1,2,3:2:0:0:
130,182,83007,2,0,B|95:179|68:171|68:171|32:186,1,87.5,8|2,0:0|0:0,0:0:0:0:
0,247,83257,1,2,0:0:0:0:
0,247,83340,5,6,0:3:0:0:
95,311,83507,1,4,0:3:0:0:
132,103,83673,1,8,0:0:0:0:
223,298,83840,2,0,P|225:254|215:211,1,87.5,4|4,0:3|0:1,0:0:0:0:
132,103,84173,1,0,3:0:0:0:
215,211,84340,1,8,0:0:0:0:
45,180,84507,1,4,0:3:0:0:
157,30,84673,6,0,B|195:31|219:20|219:20|262:38,1,87.5,4|4,3:0|0:3,0:0:0:0:
316,65,84923,1,0,0:0:0:0:
316,65,85007,1,8,0:0:0:0:
60,104,85173,1,0,3:0:0:0:
259,221,85340,2,0,B|276:188|277:161|277:161|269:137,1,87.5,4|4,0:3|3:0,0:0:0:0:
125,219,85673,2,0,P|88:211|28:206,1,87.5,8|4,0:0|0:3,0:0:0:0:
159,116,86007,6,0,P|164:72|158:29,2,87.5,4|0|8,3:2|0:0|0:0,0:0:0:0:
231,226,86507,2,0,P|303:195|392:228,1,175,4|2,0:1|3:0,0:0:0:0:
320,365,87007,2,0,B|302:340|299:305|299:305|309:284,1,87.5,8|0,0:0|3:0,0:0:0:0:
470,163,87340,6,0,P|479:206|488:261,1,87.5,12|0,0:0|3:0,0:0:0:0:
368,57,87590,2,0,P|374:102|384:151,1,87.5,12|0,0:0|3:0,0:0:0:0:
382,143,87840,1,12,0:0:0:0:
466,64,88007,1,8,0:0:0:0:
318,210,88173,1,8,0:0:0:0:
318,210,88257,1,8,0:0:0:0:
318,210,88340,1,8,0:0:0:0:
333,250,88423,1,8,0:0:0:0:
334,294,88506,1,8,0:0:0:0:
319,334,88589,1,8,0:0:0:0:
294,359,88673,22,0,P|248:354|195:362,1,94.5000003604889,4|0,3:2|0:0,0:0:0:0:
164,232,89007,1,8,0:0:0:0:
77,331,89173,1,2,0:0:0:0:
32,206,89340,2,0,P|21:182|12:150,3,47.2500001802444,2|0|2|0,0:0|0:0|3:2|0:0,0:0:0:0:
66,80,89673,2,0,P|65:55|62:29,1,47.2500001802444,10|0,0:0|0:0,0:0:0:0:
154,97,89840,2,0,P|161:126|175:163,1,47.2500001802444,2|0,0:0|0:0,0:0:0:0:
235,211,90007,6,0,B|285:203|308:192|308:192|345:215,1,94.5000003604889,2|2,3:2|0:0,0:0:0:0:
384,266,90257,1,2,0:0:0:0:
384,266,90340,1,10,0:0:0:0:
141,206,90507,2,0,P|192:215|245:207,1,94.5000003604889,2|2,3:2|0:0,0:0:0:0:
285,73,90840,1,2,3:2:0:0:
285,73,91007,2,0,B|250:60|226:60|226:60|177:72,1,94.5000003604889,8|2,0:0|0:0,0:0:0:0:
372,6,91340,6,0,P|391:58|387:112,1,94.5000003604889,2|2,3:2|0:0,0:0:0:0:
326,156,91590,1,2,0:0:0:0:
326,156,91673,1,8,0:0:0:0:
366,268,91840,2,0,P|407:251|462:276,1,94.5000003604889,2|2,0:0|0:0,0:0:0:0:
512,336,92090,1,2,0:0:0:0:
512,336,92173,1,2,3:2:0:0:
360,341,92340,1,8,0:0:0:0:
312,184,92507,1,2,3:2:0:0:
272,274,92673,6,0,P|255:302|237:324,1,47.2500001802444,2|0,0:0|0:0,0:0:0:0:
153,302,92840,2,0,P|127:314|103:320,1,47.2500001802444,2|0,3:2|0:0,0:0:0:0:
57,230,93007,2,0,P|67:187|49:118,1,94.5000003604889,10|2,0:0|0:0,0:0:0:0:
57,118,93257,1,2,0:0:0:0:
51,100,93340,2,0,P|70:76|90:63,1,47.2500001802444,2|0,3:2|0:0,0:0:0:0:
177,82,93507,2,0,P|191:102|204:127,1,47.2500001802444,2|0,3:2|0:0,0:0:0:0:
263,193,93673,1,10,0:0:0:0:
304,170,93756,1,0,0:0:0:0:
350,163,93839,1,2,0:0:0:0:
396,174,93922,1,0,0:0:0:0:
435,200,94006,5,2,3:0:0:0:
343,289,94173,2,0,L|298:322,2,31.500000120163,2|2|2,0:0|0:0|0:0,0:0:0:0:
329,271,94340,1,8,0:0:0:0:
436,346,94507,2,0,L|461:369,2,31.500000120163,2|2|2,0:0|0:0|0:0,0:0:0:0:
458,328,94673,2,0,P|463:272|455:225,1,94.5000003604889,2|0,0:0|3:0,0:0:0:0:
429,115,95007,1,8,0:0:0:0:
304,200,95173,1,0,0:0:0:0:
304,200,95257,1,0,0:0:0:0:
304,200,95340,38,0,L|265:149,1,47.2500001802444,2|0,3:2|0:0,0:0:0:0:
334,89,95507,2,0,L|352:38,1,47.2500001802444,2|0,0:0|0:0,0:0:0:0:
254,42,95673,1,10,0:0:0:0:
215,68,95756,1,0,0:0:0:0:
168,76,95839,1,2,3:2:0:0:
123,66,95923,1,0,0:0:0:0:
84,39,96007,2,0,B|70:78|70:108|70:108|84:157,1,94.5000003604889,2|2,0:0|3:2,0:0:0:0:
138,264,96340,2,0,B|88:257|65:254|65:254|32:276,1,94.5000003604889,8|0,0:0|0:0,0:0:0:0:
181,162,96673,6,0,B|225:174|254:174|254:174|294:149,1,94.5000003604889,2|2,3:2|0:0,0:0:0:0:
376,56,97007,1,10,0:0:0:0:
495,163,97173,2,0,P|443:157|387:166,1,94.5000003604889,2|0,0:0|0:0,0:0:0:0:
333,276,97507,1,0,3:0:0:0:
333,276,97590,1,0,0:0:0:0:
333,276,97673,2,0,P|383:278|441:272,1,94.5000003604889,8|0,0:0|3:0,0:0:0:0:
484,73,98007,6,0,L|504:24,3,47.2500001802444,2|0|2|0,0:0|0:0|3:2|0:0,0:0:0:0:
389,57,98340,2,0,L|401:102,3,47.2500001802444,10|0|2|0,0:0|0:0|0:0|0:0,0:0:0:0:
455,161,98673,2,0,L|444:206,1,47.2500001802444,2|0,3:2|0:0,0:0:0:0:
362,228,98840,2,0,L|373:273,1,47.2500001802444,2|0,3:2|0:0,0:0:0:0:
429,350,99007,1,10,0:0:0:0:
388,326,99090,1,8,0:0:0:0:
341,318,99173,1,10,0:0:0:0:
295,326,99256,1,8,0:0:0:0:
254,349,99340,6,0,P|244:324|241:293,1,47.2500001802444,4|0,3:2|0:0,0:0:0:0:
188,227,99507,2,0,P|182:255|169:284,1,47.2500001802444,2|0,0:0|0:0,0:0:0:0:
111,345,99673,2,0,P|55:338|7:349,2,94.5000003604889,10|2|2,0:0|0:0|0:0,0:0:0:0:
173,271,100173,1,2,3:2:0:0:
97,195,100340,2,0,P|77:177|64:159,1,47.2500001802444,10|0,0:0|0:0,0:0:0:0:
135,94,100507,2,0,P|139:73|142:35,1,47.2500001802444,2|0,0:0|0:0,0:0:0:0:
236,64,100673,6,0,P|235:128|210:168,1,94.5000003604889,2|2,3:2|0:0,0:0:0:0:
97,195,101007,1,8,0:0:0:0:
196,315,101173,1,0,3:0:0:0:
329,235,101340,2,0,B|290:221|261:221|261:221|235:233,1,94.5000003604889,0|8,1:0|0:3,0:0:0:0:
307,149,101673,1,8,1:2:0:0:
400,323,101840,1,0,0:0:0:0:
484,219,102007,38,0,B|488:172|488:172|484:116,1,94.5000003604889,2|2,3:0|0:0,0:0:0:0:
474,113,102257,1,2,0:0:0:0:
463,103,102340,2,0,B|459:53|459:53|462:1,1,94.5000003604889,8|2,0:0|0:0,0:0:0:0:
450,17,102590,1,2,0:0:0:0:
437,23,102673,2,0,B|397:31|397:31|366:30|332:18,1,94.5000003604889,2|2,0:0|3:2,0:0:0:0:
265,201,103007,1,8,0:0:0:0:
370,121,103173,1,0,3:0:0:0:
445,247,103340,6,0,P|454:270|461:300,3,47.2500001802444,2|0|2|0,0:0|0:0|3:2|0:0,0:0:0:0:
363,272,103673,2,0,P|354:248|349:226,3,47.2500001802444,10|0|2|0,0:0|0:0|0:0|0:0,0:0:0:0:
265,201,104007,2,0,P|263:177|263:154,1,47.2500001802444,2|0,3:2|0:0,0:0:0:0:
171,151,104174,2,0,P|165:129|161:101,1,47.2500001802444,2|0,3:2|0:0,0:0:0:0:
73,185,104340,1,10,0:0:0:0:
45,223,104423,1,8,0:0:0:0:
35,268,104506,1,10,0:0:0:0:
45,314,104589,1,8,0:0:0:0:
72,352,104673,6,0,P|130:345|201:335,1,101.500003097534,4|2,3:2|0:0,0:0:0:0:
440,352,105007,2,0,P|385:346|311:335,1,101.500003097534,8|0,0:0|0:0,0:0:0:0:
88,126,105340,2,0,B|134:122|163:116|163:116|197:131,1,101.500003097534,10|2,0:0|0:0,0:0:0:0:
423,258,105673,2,0,B|382:260|350:266|350:266|314:253,1,101.500003097534,10|2,0:0|0:0,0:0:0:0:
186,126,106007,6,0,B|159:162|149:193|149:193|151:239,1,101.500003097534,4|2,3:2|0:0,0:0:0:0:
423,258,106340,2,0,B|450:222|460:191|460:191|458:145,1,101.500003097534,8|0,0:0|0:0,0:0:0:0:
150,217,106673,2,0,P|152:272|179:314,1,101.500003097534,10|2,0:0|0:0,0:0:0:0:
458,165,107007,2,0,P|449:116|418:77,1,101.500003097534,10|2,0:0|0:0,0:0:0:0:
303,290,107340,5,4,3:2:0:0:
325,169,107507,1,8,0:0:0:0:
198,222,107673,1,8,0:0:0:0:
204,88,107840,1,8,0:0:0:0:
198,222,108007,1,8,0:0:0:0:
300,89,108173,1,8,0:0:0:0:
289,256,108340,1,8,0:0:0:0:
134,152,108507,1,8,0:0:0:0:
153,311,108673,6,0,P|159:338|179:379,3,50.7500015487671,12|8|8|8,0:0|0:0|0:0|0:0,0:0:0:0:
273,304,109007,2,0,P|279:283|284:255,3,50.7500015487671,8|8|8|8,0:0|0:0|0:0|0:0,0:0:0:0:
375,329,109340,2,0,P|386:351|414:390,3,50.7500015487671,8|8|8|8,0:0|0:0|0:0|0:0,0:0:0:0:
473,284,109673,1,8,0:0:0:0:
498,239,109756,1,8,0:0:0:0:
507,190,109839,1,8,0:0:0:0:
498,140,109922,1,8,0:0:0:0:
470,98,110007,5,2,3:0:0:0:
256,192,110090,12,2,115173,0:0:0:0:
