osu file format v14

[General]
AudioFilename: 8.mp3
AudioLeadIn: 0
PreviewTime: 67257
Countdown: 0
SampleSet: Soft
StackLeniency: 0.7
Mode: 0
LetterboxInBreaks: 0
WidescreenStoryboard: 1

[Editor]
Bookmarks: 5340
DistanceSpacing: 1.4
BeatDivisor: 4
GridSize: 8
TimelineZoom: 1.2

[Metadata]
Title:Oriental Blossom
TitleUnicode:Oriental Blossom
Artist:Eisyo-kobu
ArtistUnicode:影翔鼓舞
Creator:Crystal
Version:384's Hard
Source:SOUND VOLTEX III GRAVITY WARS
Tags:Newspaper Cup #3 3rd third sdvx 影虎。Kagetora. saka=ichi The 4th KACオリジナル楽曲コンテスト Original Song Contest konami arcade championship fourth Evil_Twilight 384059043 Pata-Mon Sadism-Bread Gaia Doj EmingK yf_bmp handsome muscle z1085684963 Karen Kashima Vert 23konG Ellyu pw384
BeatmapID:1243786
BeatmapSetID:586889

[Difficulty]
HPDrainRate:6
CircleSize:4
OverallDifficulty:6.3
ApproachRate:8
SliderMultiplier:1.08
SliderTickRate:1

[Events]
//Background and Video events
0,0,"oriental.jpg",0,0
//Break Periods
2,54207,58590
//Storyboard Layer 0 (Background)
//Storyboard Layer 1 (Fail)
//Storyboard Layer 2 (Pass)
//Storyboard Layer 3 (Foreground)
//Storyboard Sound Samples

[TimingPoints]
674,333.333333333333,4,2,2,75,1,0
674,-133.333333333333,4,2,2,75,0,0
6007,-100,4,2,2,75,0,0
6673,-100,4,2,1,75,0,0
7007,-100,4,2,2,75,0,0
8007,-100,4,2,1,75,0,0
8340,-100,4,2,2,75,0,0
9340,-100,4,2,1,75,0,0
9507,-100,4,2,2,75,0,0
22007,-83.3333333333333,4,2,2,75,0,0
59673,-83.3333333333333,4,2,1,75,0,0
60673,-83.3333333333333,4,2,2,75,0,0
61007,-83.3333333333333,4,2,1,75,0,0
63340,-83.3333333333333,4,2,2,75,0,0
64673,-62.5,4,2,2,75,0,0
67340,-83.3333333333333,4,2,2,75,0,0
111340,-83.3333333333333,4,2,2,45,0,0
112673,-83.3333333333333,4,2,2,25,0,0
115173,-83.3333333333333,4,2,2,15,0,0

[Colours]
Combo1 : 0,128,255
Combo2 : 128,255,0
Combo3 : 0,255,255
Combo4 : 0,255,0

[HitObjects]
160,176,674,6,0,P|208:176|248:184,1,81.0000030899049,2|0,3:0|0:0,0:0:0:0:
256,192,1173,1,0,1:0:0:0:
271,201,1340,2,0,P|311:207|352:208,1,81.0000030899049,8|2,0:1|3:0,0:0:0:0:
512,96,2007,6,0,P|464:96|424:104,1,81.0000030899049,0|0,3:0|1:0,0:0:0:0:
416,112,2506,1,0,0:0:0:0:
400,122,2673,2,0,P|360:128|319:127,1,81.0000030899049,8|0,0:1|3:0,0:0:0:0:
192,256,3340,6,0,P|151:255|112:262,1,81.0000030899049,0|0,1:0|3:0,0:0:0:0:
96,272,3840,1,0,1:0:0:0:
80,282,4006,2,0,P|40:288|0:288,1,81.0000030899049,8|0,0:1|0:0,0:0:0:0:
112,122,4673,6,0,P|151:128|192:127,1,81.0000030899049,0|0,3:0|0:0,0:0:0:0:
319,127,5340,2,0,P|360:128|400:122,1,81.0000030899049,8|0,0:1|1:0,0:0:0:0:
496,8,6007,5,0,1:0:0:0:
488,96,6340,1,0,1:0:0:0:
480,184,6673,1,8,0:1:0:0:
472,272,7007,2,0,L|479:325,1,54,0|0,1:0|0:0,0:0:0:0:
392,304,7340,6,0,L|336:296,1,54,0|0,1:0|0:0,0:0:0:0:
256,280,7673,2,0,L|200:272,1,54,0|0,1:0|0:0,0:0:0:0:
120,256,8007,2,0,L|136:368,1,108,8|0,0:1|1:0,0:0:0:0:
48,352,8507,1,0,0:0:0:0:
36,264,8673,6,0,L|28:208,1,54,0|0,1:0|1:0,0:0:0:0:
16,128,9007,2,0,L|8:72,1,54,0|0,1:0|1:0,0:0:0:0:
112,104,9340,1,8,0:1:0:0:
208,56,9507,1,0,1:0:0:0:
311,85,9673,2,0,L|318:138,1,54,0|0,1:0|1:0,0:0:0:0:
336,232,10007,5,4,1:2:0:0:
336,232,10840,5,0,1:0:0:0:
336,232,11007,1,8,0:1:0:0:
184,304,11340,6,0,P|136:288|80:288,1,108,4|8,1:2|0:1,0:0:0:0:
8,336,11840,1,2,0:0:0:0:
80,288,12007,2,0,P|88:248|88:224,1,54,2|2,0:0|0:0,0:0:0:0:
88,149,12340,2,0,P|85:122|79:95,1,54,8|2,0:1|0:0,0:0:0:0:
79,95,12673,6,0,P|132:96|184:80,1,108,0|8,1:0|0:1,0:0:0:0:
256,32,13173,1,2,1:2:0:0:
327,79,13340,2,0,P|379:96|432:95,1,108,2|8,0:0|0:1,0:0:0:0:
504,48,13840,1,2,0:0:0:0:
432,96,14007,6,0,L|424:208,1,108,0|8,1:0|0:1,0:0:0:0:
344,168,14507,1,2,0:0:0:0:
344,168,14674,2,0,L|336:280,1,108,0|8,1:0|0:1,0:0:0:0:
256,240,15173,1,2,0:0:0:0:
176,275,15340,6,0,P|138:281|104:283,1,54,0|2,1:0|0:0,0:0:0:0:
48,240,15673,2,0,P|41:277|40:312,1,54,8|2,0:1|0:0,0:0:0:0:
128,192,16007,2,0,P|136:136|136:80,1,108,2|8,1:2|0:1,0:0:0:0:
80,24,16507,1,2,0:0:0:0:
216,96,16673,6,0,P|272:104|336:104,1,108,2|8,1:2|0:1,0:0:0:0:
408,88,17173,1,2,0:0:0:0:
488,128,17340,2,0,P|496:168|496:192,1,54,2|0,0:0|1:0,0:0:0:0:
440,248,17673,2,0,P|400:256|376:256,1,54,8|2,0:1|0:0,0:0:0:0:
308,296,18007,6,0,P|305:322|299:349,1,54,0|2,1:0|0:0,0:0:0:0:
212,349,18340,2,0,P|206:322|204:296,1,54,8|0,0:1|0:0,0:0:0:0:
125,256,18673,2,0,P|98:254|72:248,1,54,2|2,0:0|0:0,0:0:0:0:
15,181,19006,2,0,P|17:154|24:128,1,54,8|2,0:1|0:0,0:0:0:0:
142,69,19340,6,0,P|194:82|240:109,1,108,0|8,1:0|0:1,0:0:0:0:
256,192,19840,1,2,0:0:0:0:
272,275,20007,2,0,P|298:272|325:266,1,54,2|2,0:0|1:2,0:0:0:0:
383,114,20340,2,0,P|356:116|329:122,1,54,8|2,0:1|1:2,0:0:0:0:
408,250,20673,6,0,P|405:223|399:196,1,54,2|2,0:0|1:2,0:0:0:0:
248,139,21007,2,0,P|250:165|256:192,1,54,8|2,0:1|0:0,0:0:0:0:
325,266,21340,2,0,P|336:299|344:379,1,108,2|8,1:2|0:1,0:0:0:0:
160,377,22007,6,0,P|85:363|71:242,1,194.399994067383,4|2,1:2|0:0,0:0:0:0:
136,296,22673,2,0,P|176:296|216:312,1,64.799998022461,2|2,0:0|1:2,0:0:0:0:
272,344,23007,2,0,P|312:344|352:360,1,64.799998022461,8|2,0:1|0:0,0:0:0:0:
416,344,23340,6,0,P|424:312|432:208,1,129.599996044922,2|8,1:2|0:1,0:0:0:0:
480,144,23840,1,2,1:2:0:0:
456,64,24007,2,0,P|408:64|312:56,1,129.599996044922,2|8,0:0|0:1,0:0:0:0:
256,104,24507,1,2,0:0:0:0:
185,57,24673,6,0,P|120:63|56:64,1,129.599996044922,2|8,1:2|0:1,0:0:0:0:
32,144,25173,1,2,0:0:0:0:
80,215,25340,2,0,P|112:223|152:223,1,64.799998022461,2|2,0:0|1:2,0:0:0:0:
224,192,25673,2,0,P|256:192|287:200,1,64.799998022461,8|2,0:1|1:2,0:0:0:0:
392,264,26007,6,0,B|416:344|416:344|464:360,2,129.599996044922,2|8|2,0:0|0:1|1:2,0:0:0:0:
440,192,26840,2,0,L|504:192,2,64.799998022461,2|8|2,1:2|0:1|0:0,0:0:0:0:
392,120,27340,6,0,B|416:40|416:40|464:24,2,129.599996044922,0|8|2,1:0|0:1|0:0,0:0:0:0:
256,64,28340,2,0,L|192:64,1,64.799998022461,8|2,0:1|0:0,0:0:0:0:
120,120,28673,6,0,B|96:40|96:40|48:24,2,129.599996044922,0|8|2,1:0|0:1|0:0,0:0:0:0:
72,192,29507,2,0,L|8:192,2,64.799998022461,2|8|2,1:2|0:1|0:0,0:0:0:0:
120,264,30007,5,4,1:2:0:0:
72,336,30173,1,2,0:0:0:0:
144,384,30340,1,8,0:1:0:0:
192,312,30506,1,2,0:0:0:0:
392,264,30840,5,0,1:0:0:0:
440,336,31006,1,8,0:1:0:0:
368,384,31173,1,2,1:2:0:0:
320,312,31340,6,0,P|309:273|320:216,1,97.1999970336915,4|4,1:2|1:2,0:0:0:0:
360,64,31840,1,4,1:2:0:0:
280,128,32007,6,0,L|208:120,1,64.799998022461,4|8,1:2|0:1,0:0:0:0:
112,96,32340,1,8,0:1:0:0:
88,104,32423,1,8,0:1:0:0:
64,112,32507,2,0,L|24:104,1,32.3999990112305,8|8,0:1|0:1,0:0:0:0:
0,96,32673,6,0,L|16:224,1,129.599996044922,4|8,1:2|0:1,0:0:0:0:
112,192,33173,2,0,L|96:320,1,129.599996044922,2|2,0:0|1:2,0:0:0:0:
191,288,33673,2,0,L|199:352,1,64.799998022461,8|2,0:1|0:0,0:0:0:0:
208,192,34007,5,0,1:0:0:0:
304,192,34173,1,2,0:0:0:0:
321,96,34340,2,0,L|313:32,1,64.799998022461,8|2,0:1|1:2,0:0:0:0:
416,64,34673,2,0,L|400:192,1,129.599996044922,2|8,0:0|0:1,0:0:0:0:
512,288,35173,1,2,0:0:0:0:
512,288,35340,6,0,L|496:160,1,129.599996044922,2|8,1:2|0:1,0:0:0:0:
416,320,35840,1,0,0:0:0:0:
416,320,36007,6,0,L|400:192,1,129.599996044922,2|8,0:0|0:1,0:0:0:0:
320,352,36507,1,0,1:0:0:0:
320,352,36674,6,0,L|304:224,1,129.599996044922,2|8,1:2|0:1,0:0:0:0:
217,97,37173,1,2,0:0:0:0:
217,97,37340,6,0,L|209:161,1,64.799998022461,2|2,1:2|1:2,0:0:0:0:
328,120,37673,2,0,L|392:112,1,64.799998022461,8|2,0:1|0:0,0:0:0:0:
512,96,38007,6,0,L|496:224,1,129.599996044922,0|8,1:0|0:1,0:0:0:0:
400,192,38507,2,0,L|416:320,1,129.599996044922,2|2,0:0|1:2,0:0:0:0:
321,288,39007,2,0,L|313:352,1,64.799998022461,8|2,0:1|0:0,0:0:0:0:
304,192,39341,5,0,1:0:0:0:
208,192,39507,1,2,0:0:0:0:
191,96,39674,2,0,L|199:32,1,64.799998022461,8|2,0:1|0:0,0:0:0:0:
96,64,40007,2,0,L|112:192,1,129.599996044922,2|8,0:0|0:1,0:0:0:0:
0,288,40507,1,2,0:0:0:0:
0,288,40674,6,0,L|8:224,1,64.799998022461,2|2,1:2|0:0,0:0:0:0:
96,320,41007,1,8,0:1:0:0:
96,320,41340,6,0,L|104:256,1,64.799998022461,2|2,0:0|1:2,0:0:0:0:
192,352,41674,2,0,L|200:288,1,64.799998022461,8|2,0:1|1:2,0:0:0:0:
288,384,42007,6,0,L|304:256,1,129.599996044922,2|8,0:0|0:1,0:0:0:0:
376,192,42507,1,2,0:0:0:0:
304,128,42673,2,0,L|288:0,1,129.599996044922,2|8,1:2|0:1,0:0:0:0:
287,0,43340,6,0,P|256:32|112:16,1,194.399994067383,4|0,1:2|1:0,0:0:0:0:
56,104,44007,2,0,L|62:194,2,86.3999973632813,2|2|2,0:0|0:0|0:0,0:0:0:0:
104,296,44673,6,0,P|96:328|96:360,1,64.799998022461,2|0,1:3|0:0,0:0:0:0:
192,336,45007,2,0,P|256:344|320:336,1,129.599996044922,8|0,0:1|1:0,0:0:0:0:
408,296,45507,2,0,P|416:328|416:360,1,64.799998022461,0|8,1:0|0:1,0:0:0:0:
488,248,45840,1,0,1:0:0:0:
464,160,46007,6,0,L|336:144,1,129.599996044922,0|8,1:0|0:1,0:0:0:0:
256,192,46507,1,2,3:0:0:0:
176,240,46673,2,0,L|48:224,1,129.599996044922,0|8,3:0|0:1,0:0:0:0:
108,152,47173,1,0,1:0:0:0:
192,111,47340,6,0,L|176:239,1,129.599996044922,2|8,0:0|0:1,0:0:0:0:
256,192,47840,1,2,0:0:0:0:
336,145,48007,2,0,L|320:273,1,129.599996044922,2|8,1:2|1:1,0:0:0:0:
404,232,48507,1,2,0:0:0:0:
464,160,48673,6,0,L|472:96,1,64.799998022461,4|2,1:2|0:0,0:0:0:0:
412,24,49007,1,8,0:1:0:0:
320,48,49173,2,0,B|256:40|256:40|192:48,1,129.599996044922,2|0,0:0|1:0,0:0:0:0:
176,144,49673,2,0,L|48:160,1,129.599996044922,8|2,0:1|1:2,0:0:0:0:
96,368,50340,5,8,0:1:0:0:
168,312,50507,1,2,0:0:0:0:
256,296,50673,1,2,3:2:0:0:
344,312,50840,1,2,1:2:0:0:
416,368,51007,1,8,0:1:0:0:
336,192,51340,6,0,L|344:128,2,64.799998022461,4|2|8,1:2|0:0|0:1,0:0:0:0:
256,112,51840,2,0,L|192:104,2,64.799998022461,2|2|2,0:0|0:0|1:2,0:0:0:0:
176,192,52340,2,0,L|168:256,1,64.799998022461,8|2,0:1|0:0,0:0:0:0:
160,344,52673,6,0,L|262:357,2,97.1999970336915,4|4|4,1:2|1:2|1:2,0:0:0:0:
256,272,53340,2,0,L|320:280,1,64.799998022461,4|8,1:2|0:1,0:0:0:0:
448,352,53673,2,0,L|384:344,1,64.799998022461,8|8,0:1|0:1,0:0:0:0:
384,208,54007,5,4,1:2:0:0:
80,32,59340,5,4,1:2:0:0:
96,112,59673,1,8,0:1:0:0:
112,192,60007,1,8,0:1:0:0:
128,272,60340,1,8,0:1:0:0:
96,368,60673,5,4,1:2:0:0:
176,352,61006,1,8,0:1:0:0:
256,336,61340,1,8,0:1:0:0:
336,320,61673,1,8,0:1:0:0:
432,352,62007,5,8,0:1:0:0:
440,344,62173,1,8,0:1:0:0:
416,272,62340,1,8,0:1:0:0:
424,264,62506,1,8,0:1:0:0:
400,192,62674,1,8,0:1:0:0:
408,184,62840,1,8,0:1:0:0:
384,112,63007,1,8,0:1:0:0:
392,104,63173,1,8,0:1:0:0:
416,16,63340,6,0,L|384:16,15,32.3999990112305,8|8|8|8|8|8|8|8|8|8|8|8|8|8|8|8,0:1|0:1|0:1|0:1|0:1|0:1|0:1|0:1|0:1|0:1|0:1|0:1|0:1|0:1|0:1|0:1,0:0:0:0:
336,16,64673,6,0,B|312:40|312:88|344:120|344:120|376:152|416:200|392:312|336:320|336:320|192:296|176:232|168:168|256:112|344:168|336:232|320:296|176:320|176:320|120:312|96:200|136:152|168:120|168:120|200:88|200:40|176:16,1,1209.6,4|8,1:2|0:1,0:0:0:0:
24,128,67340,6,0,P|16:192|24:256,1,129.599996044922,4|8,1:2|0:1,0:0:0:0:
88,320,67840,1,0,0:0:0:0:
168,272,68007,2,0,P|208:264|240:264,1,64.799998022461,2|0,0:0|1:0,0:0:0:0:
312,312,68340,2,0,P|352:320|384:320,1,64.799998022461,8|2,0:1|0:0,0:0:0:0:
487,256,68673,6,0,P|495:192|488:128,1,129.599996044922,2|8,1:2|0:1,0:0:0:0:
424,64,69173,1,2,0:0:0:0:
352,112,69340,2,0,P|288:120|224:112,1,129.599996044922,2|8,0:0|0:1,0:0:0:0:
144,64,69840,1,2,0:0:0:0:
16,160,70007,6,0,P|80:152|144:160,1,129.599996044922,2|8,1:2|0:1,0:0:0:0:
224,208,70507,1,2,0:0:0:0:
128,296,70673,6,0,P|192:288|256:296,1,129.599996044922,2|8,1:2|0:1,0:0:0:0:
336,344,71173,1,2,0:0:0:0:
416,296,71340,6,0,P|423:327|424:359,1,64.799998022461,2|0,0:0|1:0,0:0:0:0:
336,248,71673,2,0,P|328:208|328:176,1,64.799998022461,8|2,0:1|0:0,0:0:0:0:
384,88,72007,2,0,P|320:96|256:88,1,129.599996044922,2|8,1:2|0:1,0:0:0:0:
176,40,72507,1,2,0:0:0:0:
72,128,72673,6,0,L|72:192,1,64.799998022461,4|0,1:2|0:0,0:0:0:0:
192,312,73007,2,0,L|192:248,1,64.799998022461,8|2,0:1|0:0,0:0:0:0:
160,160,73340,2,0,L|224:160,1,64.799998022461,2|2,0:0|1:2,0:0:0:0:
104,280,73673,2,0,L|40:280,1,64.799998022461,8|0,0:1|0:0,0:0:0:0:
192,312,74007,6,0,P|256:304|320:312,1,129.599996044922,2|8,1:2|0:1,0:0:0:0:
408,280,74507,2,0,L|472:280,1,64.799998022461,2|2,0:0|0:0,0:0:0:0:
352,160,74840,1,2,1:2:0:0:
352,160,75007,2,0,L|288:160,1,64.799998022461,8|2,0:1|0:0,0:0:0:0:
440,192,75340,6,0,L|440:56,1,129.599996044922,4|8,1:2|0:1,0:0:0:0:
304,48,75840,1,2,0:0:0:0:
352,160,76007,2,0,L|352:224,1,64.799998022461,2|2,0:0|1:2,0:0:0:0:
256,320,76340,2,0,L|256:256,1,64.799998022461,8|2,0:1|1:2,0:0:0:0:
160,160,76673,6,0,L|160:224,2,64.799998022461,2|2|8,1:2|0:0|0:1,0:0:0:0:
208,48,77173,1,2,0:0:0:0:
72,62,77340,2,0,L|72:192,1,129.599996044922,2|8,1:2|0:1,0:0:0:0:
8,368,78007,6,0,P|72:360|136:368,1,129.599996044922,4|8,1:2|0:1,0:0:0:0:
192,296,78507,1,2,0:0:0:0:
192,296,78673,2,0,P|256:288|320:296,1,129.599996044922,2|8,0:0|0:1,0:0:0:0:
375,368,79173,1,2,0:0:0:0:
375,368,79340,6,0,P|439:359|503:367,1,129.599996044922,2|8,1:2|0:1,0:0:0:0:
480,280,79840,1,2,0:0:0:0:
504,192,80007,2,0,P|439:199|375:191,1,129.599996044922,2|8,0:0|0:1,0:0:0:0:
320,120,80507,1,2,0:0:0:0:
320,120,80673,6,0,P|256:128|192:120,1,129.599996044922,2|8,1:2|0:1,0:0:0:0:
136,191,81173,1,2,0:0:0:0:
136,191,81340,2,0,P|72:199|8:191,1,129.599996044922,2|8,0:0|0:1,0:0:0:0:
32,280,81840,1,2,1:2:0:0:
120,280,82007,6,0,P|160:288|192:304,1,64.799998022461,2|2,0:0|1:2,0:0:0:0:
256,240,82340,1,8,0:1:0:0:
330,297,82507,2,0,P|360:285|392:280,1,64.799998022461,2|2,0:0|1:2,0:0:0:0:
392,96,83007,5,8,0:1:0:0:
392,96,83173,1,2,0:0:0:0:
320,144,83340,2,0,P|348:173|385:181,1,64.799998022461,4|2,1:2|0:0,0:0:0:0:
469,134,83673,2,0,P|480:95|468:59,1,64.799998022461,8|2,0:1|0:0,0:0:0:0:
192,144,84340,6,0,P|164:173|127:181,1,64.799998022461,8|2,0:1|0:0,0:0:0:0:
43,134,84673,2,0,P|31:95|43:59,1,64.799998022461,2|2,1:2|0:0,0:0:0:0:
475,71,85340,6,0,P|479:103|469:134,1,64.799998022461,2|2,0:0|1:2,0:0:0:0:
370,180,85673,2,0,P|340:168|320:144,1,64.799998022461,8|0,0:1|0:0,0:0:0:0:
192,144,86007,6,0,P|164:173|127:181,1,64.799998022461,4|2,1:2|0:0,0:0:0:0:
43,134,86340,2,0,P|31:95|43:59,1,64.799998022461,8|2,0:1|0:0,0:0:0:0:
256,80,86840,5,2,0:0:0:0:
256,304,87173,1,2,0:0:0:0:
304,224,87340,6,0,P|256:216|208:224,2,97.1999970336915,4|4|4,1:2|1:2|1:2,0:0:0:0:
352,304,88007,2,0,P|392:312|440:312,1,64.799998022461,0|8,1:2|0:1,0:0:0:0:
488,256,88340,2,0,P|496:216|496:168,1,64.799998022461,8|8,0:1|0:1,0:0:0:0:
432,8,88673,6,0,P|417:70|416:135,1,129.599996044922,4|8,1:2|0:1,0:0:0:0:
496,96,89173,1,2,0:0:0:0:
336,176,89340,2,0,P|312:176|256:168,1,64.799998022461,2|2,0:0|1:2,0:0:0:0:
192,120,89673,2,0,P|192:96|184:40,1,64.799998022461,8|2,0:1|0:0,0:0:0:0:
80,8,90007,6,0,P|94:70|95:135,1,129.599996044922,2|8,1:2|0:1,0:0:0:0:
24,256,90507,1,2,1:2:0:0:
24,256,90673,2,0,P|17:224|14:192,1,64.799998022461,2|0,0:0|1:0,0:0:0:0:
160,304,91007,2,0,P|120:312|72:312,1,64.799998022461,8|2,0:1|0:0,0:0:0:0:
200,216,91340,6,0,P|256:208|328:216,1,129.599996044922,2|8,1:2|0:1,0:0:0:0:
415,313,91840,1,2,0:0:0:0:
415,313,92007,2,0,P|383:310|352:304,1,64.799998022461,2|2,0:0|1:2,0:0:0:0:
488,256,92340,2,0,P|495:224|498:192,1,64.799998022461,8|2,0:1|0:0,0:0:0:0:
302,165,92673,6,0,P|295:196|292:228,1,64.799998022461,2|2,0:0|1:2,0:0:0:0:
439,117,93006,2,0,P|407:111|375:108,1,64.799998022461,8|2,0:1|0:0,0:0:0:0:
288,48,93340,2,0,L|224:48,1,64.799998022461,2|2,1:2|1:2,0:0:0:0:
136,108,93673,2,0,P|104:111|72:117,1,64.799998022461,8|2,0:1|0:0,0:0:0:0:
24,256,94007,6,0,P|17:224|14:192,1,64.799998022461,4|2,1:2|0:0,0:0:0:0:
112,336,94340,2,0,P|115:303|121:272,1,64.799998022461,8|2,0:1|0:0,0:0:0:0:
192,192,94673,2,0,P|256:184|320:192,1,129.599996044922,2|8,1:2|0:1,0:0:0:0:
390,272,95173,1,2,0:0:0:0:
390,272,95340,6,0,P|396:303|400:336,1,64.799998022461,0|2,1:0|0:0,0:0:0:0:
497,192,95673,2,0,P|494:224|488:256,1,64.799998022461,8|0,0:1|1:2,0:0:0:0:
456,112,96007,2,0,P|391:120|327:112,1,129.599996044922,2|8,0:0|0:1,0:0:0:0:
248,80,96507,1,0,0:0:0:0:
216,168,96673,5,2,1:2:0:0:
296,216,96840,1,2,0:0:0:0:
264,304,97006,1,8,0:1:0:0:
184,271,97173,2,0,P|120:263|56:272,1,129.599996044922,2|2,0:0|1:2,0:0:0:0:
14,191,97673,2,0,P|17:159|24:128,1,64.799998022461,8|2,0:1|0:0,0:0:0:0:
159,33,98007,6,0,P|155:65|149:96,1,64.799998022461,2|2,0:0|1:2,0:0:0:0:
8,40,98340,2,0,P|40:43|71:49,1,64.799998022461,8|2,0:1|0:0,0:0:0:0:
166,184,98673,2,0,P|133:180|102:174,1,64.799998022461,2|2,1:2|1:2,0:0:0:0:
256,136,99007,1,8,0:1:0:0:
256,136,99173,1,8,0:1:0:0:
346,184,99340,6,0,P|378:180|409:174,1,64.799998022461,4|2,1:2|0:0,0:0:0:0:
504,40,99673,2,0,P|471:43|440:49,1,64.799998022461,8|2,0:1|0:0,0:0:0:0:
497,191,100006,2,0,P|494:159|488:128,1,64.799998022461,2|2,0:0|1:2,0:0:0:0:
352,33,100340,2,0,P|356:65|362:96,1,64.799998022461,8|2,0:1|0:0,0:0:0:0:
256,240,100673,6,0,P|252:207|246:176,1,64.799998022461,2|2,1:2|0:0,0:0:0:0:
111,82,101006,2,0,P|114:114|120:145,1,64.799998022461,8|2,0:1|1:2,0:0:0:0:
168,223,101340,2,0,P|136:229|104:232,1,64.799998022461,2|2,0:0|0:0,0:0:0:0:
199,98,101673,2,0,P|230:91|262:88,1,64.799998022461,8|2,0:1|0:0,0:0:0:0:
448,152,102007,6,0,L|440:288,1,129.599996044922,4|8,1:2|0:1,0:0:0:0:
352,192,102507,1,2,0:0:0:0:
352,192,102673,6,0,L|344:328,1,129.599996044922,2|8,1:2|0:1,0:0:0:0:
256,232,103173,1,2,0:0:0:0:
256,232,103340,6,0,L|252:296,1,64.799998022461,2|2,0:0|1:2,0:0:0:0:
160,272,103673,2,0,L|156:336,1,64.799998022461,8|2,0:1|0:0,0:0:0:0:
59,376,104007,6,0,L|67:247,1,129.599996044922,2|8,1:2|0:1,0:0:0:0:
32,160,104507,1,8,0:1:0:0:
80,80,104673,6,0,P|144:80|208:64,1,129.599996044922,4|8,1:2|0:1,0:0:0:0:
256,144,105173,1,2,0:0:0:0:
304,64,105340,2,0,P|367:79|432:80,1,129.599996044922,8|8,0:1|0:1,0:0:0:0:
480,160,105840,1,2,0:0:0:0:
444,247,106007,6,0,L|448:311,1,64.799998022461,4|2,1:2|0:0,0:0:0:0:
352,271,106340,2,0,L|348:207,1,64.799998022461,8|2,0:1|1:2,0:0:0:0:
251,166,106673,2,0,L|255:230,1,64.799998022461,8|2,0:1|0:0,0:0:0:0:
159,190,107007,2,0,L|155:126,1,64.799998022461,8|2,0:1|0:0,0:0:0:0:
58,85,107340,6,0,L|62:149,1,64.799998022461,8|8,0:1|0:1,0:0:0:0:
24,232,107673,1,8,0:1:0:0:
24,232,107840,1,8,0:1:0:0:
155,125,108007,6,0,L|159:189,1,64.799998022461,8|8,0:1|0:1,0:0:0:0:
121,272,108340,1,8,0:1:0:0:
121,272,108507,1,8,0:1:0:0:
251,166,108673,6,0,L|255:230,1,64.799998022461,4|8,1:2|0:1,0:0:0:0:
348,207,109007,2,0,L|352:271,1,64.799998022461,8|8,0:1|0:1,0:0:0:0:
444,247,109340,6,0,L|446:279,8,32.3999990112305,8|8|8|8|8|8|8|8|4,0:1|0:1|0:1|0:1|0:1|0:1|0:1|0:1|1:2,0:0:0:0:
256,192,110340,12,2,115173,0:0:0:0:
