osu file format v14

[General]
AudioFilename: 8.mp3
AudioLeadIn: 0
PreviewTime: 67257
Countdown: 0
SampleSet: Soft
StackLeniency: 0.7
Mode: 0
LetterboxInBreaks: 0
WidescreenStoryboard: 1

[Editor]
Bookmarks: 5340
DistanceSpacing: 1.4
BeatDivisor: 4
GridSize: 8
TimelineZoom: 1.2

[Metadata]
Title:Oriental Blossom
TitleUnicode:Oriental Blossom
Artist:Eisyo-kobu
ArtistUnicode:影翔鼓舞
Creator:Crystal
Version:384's Advanced
Source:SOUND VOLTEX III GRAVITY WARS
Tags:Newspaper Cup #3 3rd third sdvx 影虎。Kagetora. saka=ichi The 4th KACオリジナル楽曲コンテスト Original Song Contest konami arcade championship fourth Evil_Twilight 384059043 Pata-Mon Sadism-Bread Gaia Doj EmingK yf_bmp handsome muscle z1085684963 Karen Kashima Vert 23konG Ellyu pw384
BeatmapID:1250808
BeatmapSetID:586889

[Difficulty]
HPDrainRate:4.5
CircleSize:4
OverallDifficulty:5.5
ApproachRate:7
SliderMultiplier:0.96
SliderTickRate:1

[Events]
//Background and Video events
0,0,"oriental.jpg",0,0
//Break Periods
2,54207,58440
//Storyboard Layer 0 (Background)
//Storyboard Layer 1 (Fail)
//Storyboard Layer 2 (Pass)
//Storyboard Layer 3 (Foreground)
//Storyboard Sound Samples

[TimingPoints]
674,333.333333333333,4,2,2,75,1,0
674,-100,4,2,2,75,0,0
6007,-100,4,2,2,75,0,0
6673,-100,4,2,1,75,0,0
7007,-100,4,2,2,75,0,0
8007,-100,4,2,1,75,0,0
8340,-100,4,2,2,75,0,0
9340,-100,4,2,1,75,0,0
9507,-100,4,2,2,75,0,0
10840,-83.3333333333333,4,2,2,75,0,0
22007,-83.3333333333333,4,2,2,75,0,0
59673,-83.3333333333333,4,2,1,75,0,0
60673,-83.3333333333333,4,2,2,75,0,0
61007,-83.3333333333333,4,2,1,75,0,0
63340,-83.3333333333333,4,2,2,75,0,0
64673,-83.3333333333333,4,2,2,75,0,0
67340,-83.3333333333333,4,2,2,75,0,0
111340,-83.3333333333333,4,2,2,45,0,0
112673,-83.3333333333333,4,2,2,25,0,0
115173,-83.3333333333333,4,2,2,15,0,0

[Colours]
Combo1 : 0,128,255
Combo2 : 128,255,0
Combo3 : 0,255,255
Combo4 : 0,255,0

[HitObjects]
212,192,674,6,0,P|332:104|388:192,1,288,2|2,3:0|3:0,0:0:0:0:
343,280,2007,2,0,P|255:311|167:279,1,192,0|8,3:0|0:1,0:0:0:0:
72,272,3007,1,0,3:0:0:0:
123,191,3340,6,0,P|212:97|300:192,1,288,0|0,1:0|0:0,0:0:0:0:
343,280,4673,2,0,P|255:311|167:279,1,192,0|8,3:0|0:1,0:0:0:0:
168,103,6007,6,0,P|256:72|344:104,1,192,0|8,1:0|0:1,0:0:0:0:
384,192,7007,1,0,1:0:0:0:
343,280,7340,6,0,P|255:311|167:279,1,192,0|8,1:0|0:1,0:0:0:0:
128,192,8340,1,0,1:0:0:0:
256,192,8673,12,4,10007,1:2:0:0:
256,192,10840,5,0,1:0:0:0:
256,192,11007,1,8,0:1:0:0:
184,64,11340,6,0,P|136:64|72:32,2,115.199996484375,4|8|2,1:2|0:1|0:0,0:0:0:0:
256,32,12173,1,2,0:0:0:0:
328,64,12340,2,0,P|368:64|408:56,1,57.5999982421876,8|2,0:1|0:0,0:0:0:0:
456,24,12673,6,0,P|472:80|472:144,1,115.199996484375,0|8,1:0|0:1,0:0:0:0:
416,192,13173,1,2,1:2:0:0:
472,247,13340,2,0,P|471:304|456:360,1,115.199996484375,2|8,0:0|0:1,0:0:0:0:
385,322,13840,2,0,P|356:319|328:320,1,57.5999982421876,2|0,0:0|1:0,0:0:0:0:
126,322,14340,6,0,P|155:319|184:320,1,57.5999982421876,8|2,0:1|0:0,0:0:0:0:
216,248,14673,2,0,P|152:240|96:248,1,115.199996484375,0|8,1:0|0:1,0:0:0:0:
40,192,15173,1,2,0:0:0:0:
102,137,15340,6,0,P|159:144|216:136,1,115.199996484375,0|8,1:0|0:1,0:0:0:0:
256,64,15840,1,2,0:0:0:0:
295,135,16007,2,0,P|352:144|409:137,1,115.199996484375,2|8,1:2|0:1,0:0:0:0:
456,296,16673,5,2,1:2:0:0:
296,264,17007,1,8,0:1:0:0:
216,120,17340,1,2,0:0:0:0:
56,88,17673,1,8,0:1:0:0:
102,246,18007,6,0,P|159:239|216:248,1,115.199996484375,0|8,1:0|0:1,0:0:0:0:
256,320,18507,1,0,0:0:0:0:
295,248,18674,2,0,P|352:239|409:246,1,115.199996484375,2|8,0:0|0:1,0:0:0:0:
448,320,19173,1,2,0:0:0:0:
448,320,19340,1,0,1:0:0:0:
400,168,19673,6,0,P|400:128|408:96,1,57.5999982421876,8|2,0:1|0:0,0:0:0:0:
424,32,20007,2,0,P|384:32|352:24,1,57.5999982421876,2|2,0:0|1:2,0:0:0:0:
296,64,20340,1,8,0:1:0:0:
216,64,20507,1,2,1:2:0:0:
145,28,20673,6,0,P|116:33|88:32,1,57.5999982421876,2|2,0:0|1:2,0:0:0:0:
108,110,21007,2,0,P|113:139|112:168,1,57.5999982421876,8|2,0:1|0:0,0:0:0:0:
48,224,21340,2,0,P|40:288|40:344,1,115.199996484375,2|8,1:2|0:1,0:0:0:0:
200,376,22007,6,0,P|208:312|208:256,1,115.199996484375,4|8,1:2|1:0,0:0:0:0:
256,192,22507,1,2,0:0:0:0:
303,122,22673,2,0,P|304:65|312:8,1,115.199996484375,2|8,0:0|0:1,0:0:0:0:
472,45,23340,6,0,P|471:102|464:160,1,115.199996484375,2|8,1:2|0:1,0:0:0:0:
400,208,23840,2,0,L|328:200,1,57.5999982421876,2|2,1:2|0:0,0:0:0:0:
169,201,24340,2,0,L|112:208,1,57.5999982421876,8|2,0:1|0:0,0:0:0:0:
72,280,24673,6,0,P|136:288|192:304,1,115.199996484375,2|8,1:2|0:1,0:0:0:0:
256,344,25173,1,2,0:0:0:0:
327,301,25340,2,0,P|382:286|440:280,2,115.199996484375,2|8|2,0:0|0:1|0:0,0:0:0:0:
336,136,26340,6,0,L|392:124,2,57.5999982421876,8|0|2,0:1|0:0|1:2,0:0:0:0:
176,136,27007,2,0,L|119:124,1,57.5999982421876,8|2,0:1|0:0,0:0:0:0:
40,112,27340,6,0,L|48:232,1,115.199996484375,0|8,1:0|0:1,0:0:0:0:
192,232,28007,2,0,L|184:346,1,115.199996484375,2|8,0:0|0:1,0:0:0:0:
320,152,28673,6,0,L|327:37,1,115.199996484375,0|8,1:0|0:1,0:0:0:0:
464,157,29340,2,0,L|472:272,1,115.199996484375,2|8,0:0|0:1,0:0:0:0:
327,347,30007,6,0,L|320:232,1,115.199996484375,4|8,1:2|0:1,0:0:0:0:
256,192,30507,1,2,0:0:0:0:
192,152,30673,2,0,L|184:37,1,115.199996484375,0|8,0:0|0:1,0:0:0:0:
120,176,31340,6,0,B|143:248|236:236|256:192|256:192|276:148|370:136|392:208,1,345.599989453125,4|8,1:2|0:1,0:0:0:0:
456,352,32673,6,0,L|336:352,1,115.199996484375,4|8,1:2|0:1,0:0:0:0:
256,352,33173,1,2,0:0:0:0:
171,352,33340,2,0,L|56:352,1,115.199996484375,0|8,0:0|0:1,0:0:0:0:
80,192,34007,5,0,1:0:0:0:
80,192,34173,1,2,0:0:0:0:
80,192,34340,2,0,P|120:192|160:176,1,57.5999982421876,8|2,0:1|1:2,0:0:0:0:
200,136,34673,2,0,P|256:145|312:135,1,115.199996484375,2|8,0:0|0:1,0:0:0:0:
375,187,35173,1,2,0:0:0:0:
375,187,35340,6,0,P|403:193|432:192,1,57.5999982421876,2|0,1:2|0:0,0:0:0:0:
496,144,35673,2,0,P|501:115|500:87,1,57.5999982421876,8|0,0:1|0:0,0:0:0:0:
452,23,36007,2,0,P|423:17|395:18,1,57.5999982421876,2|0,0:0|0:0,0:0:0:0:
328,64,36340,1,8,0:1:0:0:
171,32,36673,6,0,L|179:96,1,57.5999982421876,2|0,1:2|0:0,0:0:0:0:
112,136,37007,2,0,B|96:192|96:192|112:248,1,115.199996484375,8|2,0:1|1:2,0:0:0:0:
178,294,37507,2,0,L|171:352,1,57.5999982421876,2|8,1:2|0:1,0:0:0:0:
56,352,38007,6,0,L|176:352,1,115.199996484375,0|8,1:0|0:1,0:0:0:0:
256,352,38507,1,2,0:0:0:0:
340,352,38674,2,0,L|456:352,1,115.199996484375,0|8,0:0|0:1,0:0:0:0:
432,192,39341,5,0,1:0:0:0:
432,192,39507,1,2,0:0:0:0:
432,192,39674,2,0,P|392:192|352:176,1,57.5999982421876,8|2,0:1|0:0,0:0:0:0:
312,136,40007,2,0,P|255:145|199:135,1,115.199996484375,2|8,0:0|0:1,0:0:0:0:
136,187,40507,1,2,0:0:0:0:
136,187,40674,6,0,P|108:193|80:192,1,57.5999982421876,2|2,1:2|0:0,0:0:0:0:
16,144,41007,2,0,P|10:115|11:87,1,57.5999982421876,8|0,0:1|0:0,0:0:0:0:
60,23,41341,2,0,P|88:17|116:18,1,57.5999982421876,2|2,0:0|1:2,0:0:0:0:
181,67,41673,2,0,P|186:95|185:123,1,57.5999982421876,8|2,0:1|1:2,0:0:0:0:
136,187,42007,6,0,P|208:192|192:328,2,230.39999296875,2|2|4,0:0|1:2|1:2,0:0:0:0:
8,288,43673,5,8,1:0:0:0:
168,256,44007,2,0,P|224:248|280:344,1,172.799994726563,2|2,0:0|0:0,0:0:0:0:
360,312,44673,2,0,P|392:328|512:216,1,230.39999296875,2|0,1:3|1:0,0:0:0:0:
480,144,45507,1,0,1:0:0:0:
480,144,45673,1,8,0:1:0:0:
340,56,46007,6,0,P|310:53|276:56,1,57.5999982421876,0|0,1:0|0:0,0:0:0:0:
224,112,46340,2,0,P|221:140|222:169,1,57.5999982421876,8|2,0:1|3:0,0:0:0:0:
288,214,46673,2,0,P|289:243|288:272,1,57.5999982421876,0|0,3:0|0:0,0:0:0:0:
229,329,47006,2,0,P|200:330|172:328,1,57.5999982421876,8|0,0:1|1:0,0:0:0:0:
120,264,47340,6,0,P|48:280|-8:280,2,115.199996484375,2|8|2,0:0|0:1|1:2,0:0:0:0:
152,192,48173,1,0,0:0:0:0:
152,192,48340,1,8,0:1:0:0:
288,272,48673,6,0,P|328:272|360:264,1,57.5999982421876,4|0,1:2|0:0,0:0:0:0:
416,232,49007,1,8,0:1:0:0:
496,256,49173,2,0,P|496:216|440:152,1,115.199996484375,2|0,0:0|1:0,0:0:0:0:
368,160,49673,2,0,P|336:160|304:152,1,57.5999982421876,8|0,0:1|0:0,0:0:0:0:
256,96,50007,5,2,1:2:0:0:
112,160,50340,2,0,P|104:192|104:232,1,57.5999982421876,8|2,0:1|0:0,0:0:0:0:
136,288,50673,2,0,P|168:288|256:304,1,115.199996484375,2|8,3:2|0:1,0:0:0:0:
256,192,51340,12,4,54007,1:2:0:0:
120,192,59340,6,0,L|104:72,1,115.199996484375,4|8,1:2|0:1,0:0:0:0:
256,56,60007,2,0,L|376:40,1,115.199996484375,8|8,0:1|0:1,0:0:0:0:
392,192,60673,6,0,L|408:312,1,115.199996484375,4|8,1:2|0:1,0:0:0:0:
256,328,61340,2,0,L|136:344,1,115.199996484375,8|8,0:1|0:1,0:0:0:0:
120,192,62007,6,0,L|120:128,1,57.5999982421876,8|8,0:1|0:1,0:0:0:0:
188,74,62340,2,0,L|243:42,1,57.5999982421876,8|8,0:1|0:1,0:0:0:0:
324,74,62673,2,0,L|379:106,1,57.5999982421876,8|8,0:1|0:1,0:0:0:0:
392,192,63006,2,0,L|392:256,1,57.5999982421876,8|8,0:1|0:1,0:0:0:0:
468,288,63340,6,0,B|400:364|304:344|332:240|180:240|208:344|112:364|44:288,1,460.7999859375,8|4,0:1|1:2,0:0:0:0:
256,16,66007,6,0,B|256:72|256:72|296:120,1,115.199996484375,0|0,1:0|0:0,0:0:0:0:
218,266,66673,2,0,B|256:312|256:312|256:368,1,115.199996484375,0|8,0:0|0:1,0:0:0:0:
102,294,67340,6,0,B|64:248|64:248|64:192,1,115.199996484375,4|8,1:2|0:1,0:0:0:0:
192,80,68007,2,0,B|248:80|248:80|294:118,1,115.199996484375,2|8,0:0|0:1,0:0:0:0:
256,192,68507,1,2,0:0:0:0:
218,266,68673,6,0,B|264:304|264:304|320:304,1,115.199996484375,2|8,1:2|0:1,0:0:0:0:
388,252,69173,1,2,0:0:0:0:
448,192,69340,2,0,B|448:136|448:136|410:90,1,115.199996484375,2|8,0:0|0:1,0:0:0:0:
256,16,70007,6,0,B|256:72|256:72|216:120,1,115.199996484375,2|8,1:2|0:1,0:0:0:0:
256,192,70507,1,2,0:0:0:0:
294,266,70673,2,0,B|256:312|256:312|256:368,1,115.199996484375,2|8,1:2|0:1,0:0:0:0:
96,368,71340,6,0,L|96:304,1,57.5999982421876,2|0,0:0|1:0,0:0:0:0:
40,248,71673,2,0,L|40:184,1,57.5999982421876,8|2,0:1|0:0,0:0:0:0:
96,128,72007,2,0,L|96:12,1,115.199996484375,2|8,1:2|0:1,0:0:0:0:
256,12,72673,6,0,L|256:128,1,115.199996484375,4|8,1:2|0:1,0:0:0:0:
416,128,73340,2,0,L|416:12,1,115.199996484375,2|8,0:0|0:1,0:0:0:0:
336,32,73840,1,0,0:0:0:0:
336,112,74007,6,0,L|336:228,1,115.199996484375,2|8,1:2|0:1,0:0:0:0:
176,228,74673,2,0,L|176:112,1,115.199996484375,2|8,0:0|0:1,0:0:0:0:
176,32,75173,1,2,0:0:0:0:
96,12,75340,6,0,L|96:128,1,115.199996484375,4|8,1:2|0:1,0:0:0:0:
40,190,75840,1,2,0:0:0:0:
40,190,76007,2,0,L|40:248,1,57.5999982421876,2|2,0:0|1:2,0:0:0:0:
96,310,76340,2,0,L|96:368,1,57.5999982421876,8|2,0:1|1:2,0:0:0:0:
176,368,76673,6,0,B|232:368|232:368|288:352,2,115.199996484375,2|8|2,1:2|0:1|1:2,0:0:0:0:
280,248,77673,2,0,L|352:248,1,57.5999982421876,8|0,0:1|0:0,0:0:0:0:
410,294,78007,6,0,B|448:248|448:248|448:192,1,115.199996484375,4|8,1:2|0:1,0:0:0:0:
320,80,78674,2,0,B|264:80|264:80|218:118,1,115.199996484375,2|8,0:0|0:1,0:0:0:0:
256,192,79174,1,2,0:0:0:0:
294,266,79340,6,0,B|248:304|248:304|192:304,1,115.199996484375,2|8,1:2|0:1,0:0:0:0:
124,252,79840,1,2,0:0:0:0:
64,192,80007,2,0,B|64:136|64:136|102:90,1,115.199996484375,2|8,0:0|0:1,0:0:0:0:
256,16,80674,6,0,B|256:72|256:72|296:120,1,115.199996484375,2|8,1:2|0:1,0:0:0:0:
256,192,81174,1,2,0:0:0:0:
218,266,81340,2,0,B|256:312|256:312|256:368,1,115.199996484375,2|8,0:0|0:1,0:0:0:0:
352,240,82007,6,0,L|352:176,1,57.5999982421876,2|2,0:0|1:2,0:0:0:0:
296,121,82340,2,0,L|296:64,1,57.5999982421876,8|2,0:1|0:0,0:0:0:0:
216,64,82674,2,0,B|168:32|168:32|104:32,1,115.199996484375,2|8,1:2|0:1,0:0:0:0:
32,160,83340,6,0,P|72:160|96:168,1,57.5999982421876,4|2,1:2|0:0,0:0:0:0:
160,200,83673,2,0,P|187:206|216:204,1,57.5999982421876,8|2,0:1|0:0,0:0:0:0:
480,223,84340,6,0,P|451:225|423:219,1,57.5999982421876,8|2,0:1|0:0,0:0:0:0:
351,184,84673,2,0,P|323:177|294:179,1,57.5999982421876,2|2,1:2|0:0,0:0:0:0:
32,160,85340,6,0,P|72:160|96:168,1,57.5999982421876,2|2,0:0|1:2,0:0:0:0:
160,200,85673,2,0,P|187:206|216:204,1,57.5999982421876,8|0,0:1|0:0,0:0:0:0:
294,179,86007,6,0,P|323:177|351:184,1,57.5999982421876,4|2,1:2|0:0,0:0:0:0:
423,219,86340,2,0,P|451:225|480:223,1,57.5999982421876,8|2,0:1|0:0,0:0:0:0:
416,48,86840,5,2,0:0:0:0:
294,179,87173,1,2,0:0:0:0:
256,112,87340,6,0,L|256:24,2,86.3999973632813,4|4|4,1:2|1:2|1:2,0:0:0:0:
218,179,88007,2,0,P|136:200|80:136,1,172.799994726563,0|8,1:2|0:1,0:0:0:0:
160,120,88673,6,0,L|160:240,1,115.199996484375,4|8,1:2|0:1,0:0:0:0:
120,304,89173,1,2,0:0:0:0:
88,376,89340,2,0,P|144:344|216:344,1,115.199996484375,2|8,0:0|0:1,0:0:0:0:
256,288,89840,1,2,0:0:0:0:
318,339,90007,6,0,P|375:346|424:376,2,115.199996484375,2|8|2,1:2|0:1|0:0,0:0:0:0:
440,216,91007,2,0,P|448:192|448:160,1,57.5999982421876,8|2,0:1|0:0,0:0:0:0:
400,96,91340,6,0,P|349:61|286:68,1,115.199996484375,2|8,1:2|0:1,0:0:0:0:
328,144,91840,1,2,0:0:0:0:
256,192,92007,2,0,P|307:227|370:220,1,115.199996484375,2|8,0:0|0:1,0:0:0:0:
256,192,92673,6,0,P|211:159|154:160,1,115.199996484375,2|8,0:0|0:1,0:0:0:0:
184,240,93173,1,2,0:0:0:0:
112,288,93340,2,0,P|157:321|214:320,1,115.199996484375,2|8,1:2|0:1,0:0:0:0:
376,296,94007,6,0,P|384:328|384:360,2,57.5999982421876,4|2|8,1:2|0:0|0:1,0:0:0:0:
256,192,94673,2,0,P|208:208|96:152,1,172.799994726563,2|2,1:2|0:0,0:0:0:0:
136,88,95340,6,0,P|128:56|128:24,2,57.5999982421876,0|2|8,1:0|0:0|0:1,0:0:0:0:
256,192,96007,2,0,P|304:176|416:232,1,172.799994726563,2|0,0:0|0:0,0:0:0:0:
376,296,96673,6,0,P|384:328|384:360,1,57.5999982421876,2|2,1:2|0:0,0:0:0:0:
304,328,97007,2,0,P|304:368|300:384,1,57.5999982421876,8|2,0:1|0:0,0:0:0:0:
212,384,97340,2,0,P|206:356|208:328,1,57.5999982421876,0|2,0:0|1:2,0:0:0:0:
127,352,97674,2,0,P|128:323|136:296,1,57.5999982421876,8|2,0:1|0:0,0:0:0:0:
80,232,98007,6,0,P|120:191|175:175,1,115.199996484375,2|8,0:0|0:1,0:0:0:0:
256,192,98507,1,2,0:0:0:0:
336,208,98673,2,0,P|391:192|432:152,1,115.199996484375,2|8,1:2|0:1,0:0:0:0:
295,16,99340,6,0,P|255:57|240:112,1,115.199996484375,4|8,1:2|0:1,0:0:0:0:
256,192,99839,1,2,0:0:0:0:
272,273,100006,2,0,P|256:328|216:368,1,115.199996484375,2|8,0:0|0:1,0:0:0:0:
56,352,100673,6,0,P|40:324|32:296,1,57.5999982421876,2|2,1:2|0:0,0:0:0:0:
16,220,101007,2,0,P|11:191|16:164,1,57.5999982421876,8|2,0:1|1:2,0:0:0:0:
32,84,101340,2,0,P|41:56|56:32,1,57.5999982421876,2|2,0:0|0:0,0:0:0:0:
120,88,101673,2,0,P|147:96|172:111,1,57.5999982421876,8|2,0:1|0:0,0:0:0:0:
228,52,102007,6,0,P|256:47|284:52,1,57.5999982421876,4|0,1:2|0:0,0:0:0:0:
339,111,102340,2,0,P|364:96|392:88,1,57.5999982421876,8|2,0:1|0:0,0:0:0:0:
456,32,102673,2,0,P|470:56|448:152,1,115.199996484375,2|8,1:2|0:1,0:0:0:0:
400,192,103173,1,2,0:0:0:0:
459,245,103340,6,0,P|476:299|456:351,1,115.199996484375,2|8,0:0|0:1,0:0:0:0:
376,376,103840,1,2,0:0:0:0:
392,296,104007,2,0,P|364:287|339:272,1,57.5999982421876,2|0,1:2|0:0,0:0:0:0:
284,331,104340,2,0,P|256:336|228:332,1,57.5999982421876,8|8,0:1|0:1,0:0:0:0:
172,272,104673,6,0,P|147:287|120:296,1,57.5999982421876,4|0,1:2|0:0,0:0:0:0:
55,351,105007,2,0,P|35:299|52:245,1,115.199996484375,8|8,0:1|0:1,0:0:0:0:
32,168,105507,1,0,0:0:0:0:
111,157,105673,2,0,L|175:165,1,57.5999982421876,8|2,0:1|0:0,0:0:0:0:
289,193,106007,6,0,P|264:207|236:216,1,57.5999982421876,4|2,1:2|0:0,0:0:0:0:
172,272,106341,2,0,P|151:219|168:165,1,115.199996484375,8|8,0:1|0:1,0:0:0:0:
148,88,106841,1,2,0:0:0:0:
227,77,107007,2,0,L|291:85,1,57.5999982421876,8|2,0:1|0:0,0:0:0:0:
360,56,107340,6,0,L|424:64,1,57.5999982421876,8|8,0:1|0:1,0:0:0:0:
496,72,107673,2,0,L|488:136,1,57.5999982421876,8|8,0:1|0:1,0:0:0:0:
480,208,108007,2,0,L|416:200,1,57.5999982421876,8|8,0:1|0:1,0:0:0:0:
344,192,108340,2,0,L|352:128,1,57.5999982421876,8|8,0:1|0:1,0:0:0:0:
360,56,108673,6,0,P|496:70|344:192,1,460.7999859375,4|4,1:2|1:2,0:0:0:0:
256,192,110340,12,2,115174,0:0:0:0:
