osu file format v14

[General]
AudioFilename: 8.mp3
AudioLeadIn: 0
PreviewTime: 67257
Countdown: 0
SampleSet: Soft
StackLeniency: 0.7
Mode: 0
LetterboxInBreaks: 0
WidescreenStoryboard: 1

[Editor]
DistanceSpacing: 1.1
BeatDivisor: 4
GridSize: 4
TimelineZoom: 2.3

[Metadata]
Title:Oriental Blossom
TitleUnicode:Oriental Blossom
Artist:Eisyo-kobu
ArtistUnicode:影翔鼓舞
Creator:Crystal
Version:Normal
Source:SOUND VOLTEX III GRAVITY WARS
Tags:Newspaper Cup #3 3rd third sdvx 影虎。Kagetora. saka=ichi The 4th KACオリジナル楽曲コンテスト Original Song Contest konami arcade championship fourth Evil_Twilight 384059043 Pata-Mon Sadism-Bread Gaia Doj EmingK yf_bmp handsome muscle z1085684963 Karen Kashima Vert 23konG Ellyu pw384
BeatmapID:1245574
BeatmapSetID:586889

[Difficulty]
HPDrainRate:3.6
CircleSize:3.3
OverallDifficulty:4
ApproachRate:5
SliderMultiplier:0.799999999999999
SliderTickRate:1

[Events]
//Background and Video events
0,0,"oriental.jpg",0,0
//Break Periods
2,54207,58140
//Storyboard Layer 0 (Background)
//Storyboard Layer 1 (Fail)
//Storyboard Layer 2 (Pass)
//Storyboard Layer 3 (Foreground)
//Storyboard Sound Samples

[TimingPoints]
674,333.333333333333,4,2,2,65,1,0
59673,-100,4,2,1,65,0,0
60673,-100,4,2,2,65,0,0
61007,-100,4,2,1,65,0,0
63340,-100,4,2,2,65,0,0
67340,-100,4,2,2,75,0,1
88590,-100,4,2,2,75,0,0
88673,-100,4,2,2,75,0,1
99257,-100,4,2,2,75,0,0
99340,-100,4,2,2,75,0,1
104340,-100,4,2,2,75,0,0
104673,-100,4,2,2,75,0,1
110007,-100,4,2,1,75,0,0
110173,-100,4,2,2,30,0,0

[Colours]
Combo1 : 0,128,255
Combo2 : 128,255,0
Combo3 : 0,255,255
Combo4 : 0,255,0

[HitObjects]
68,120,674,6,0,B|145:105|109:142|190:130,1,120,2|0,3:0|1:0,0:0:0:0:
224,135,1340,2,0,L|316:129,1,79.9999999999999,8|2,0:1|3:0,0:0:0:0:
383,128,2007,2,0,B|418:200|418:200|381:273,1,160,0|8,3:0|0:1,0:0:0:0:
302,271,3007,1,0,3:0:0:0:
254,335,3340,6,0,B|193:325|193:325|158:342|158:342|96:332,1,160,0|8,1:0|0:1,0:0:0:0:
35,283,4340,1,0,0:0:0:0:
25,203,4673,2,0,L|33:118,1,79.9999999999999,0|0,3:0|0:0,0:0:0:0:
96,74,5340,2,0,L|103:34,2,40,8|0|0,0:1|0:0|1:0,0:0:0:0:
165,113,6007,6,0,L|254:106,1,79.9999999999999,0|0,1:0|1:0,0:0:0:0:
323,122,6673,2,0,L|412:115,1,79.9999999999999,8|0,0:1|1:0,0:0:0:0:
466,164,7340,2,0,P|450:216|427:235,1,79.9999999999999,0|0,1:0|1:0,0:0:0:0:
471,301,8007,2,0,P|417:313|390:302,1,79.9999999999999,8|0,0:1|1:0,0:0:0:0:
326,263,8673,6,0,P|253:233|78:367,1,320,0|4,1:0|1:2,0:0:0:0:
30,169,10840,5,0,1:0:0:0:
30,169,11007,1,8,0:1:0:0:
95,110,11340,6,0,L|174:103,1,79.9999999999999,4|8,1:2|0:1,0:0:0:0:
245,50,12007,2,0,P|289:75|310:110,1,79.9999999999999,2|8,0:0|0:1,0:0:0:0:
390,118,12673,2,0,P|390:168|370:204,1,79.9999999999999,0|8,1:0|0:1,0:0:0:0:
343,221,13173,1,2,1:2:0:0:
343,221,13340,2,0,L|255:228,1,79.9999999999999,2|8,0:0|0:1,0:0:0:0:
180,196,14007,5,0,1:0:0:0:
105,242,14340,2,0,L|110:295,2,40,8|2|0,0:1|0:0|1:0,0:0:0:0:
36,186,15007,2,0,L|32:146,1,40,8|2,0:1|0:0,0:0:0:0:
26,102,15340,6,0,P|62:85|151:92,1,120,0|2,1:0|0:0,0:0:0:0:
181,105,16007,1,2,1:2:0:0:
261,70,16340,2,0,L|306:66,1,40,8|2,0:1|0:0,0:0:0:0:
341,49,16673,6,0,L|334:134,1,79.9999999999999,2|8,1:2|0:1,0:0:0:0:
269,188,17340,2,0,L|262:273,1,79.9999999999999,2|8,0:0|0:1,0:0:0:0:
332,321,18007,2,0,B|372:329|372:329|411:304,2,79.9999999999999,0|8|2,1:0|0:1|0:0,0:0:0:0:
249,352,19007,2,0,L|199:357,1,40,8|2,0:1|0:0,0:0:0:0:
177,325,19340,6,0,P|138:321|86:338,1,79.9999999999999,0|8,1:0|0:1,0:0:0:0:
20,372,20007,2,0,P|55:317|51:260,1,120,2|2,0:0|1:2,0:0:0:0:
33,224,20673,5,2,0:0:0:0:
120,211,21007,1,8,0:1:0:0:
207,198,21340,1,2,1:2:0:0:
294,186,21673,2,0,L|286:240,1,40,8|0,0:1|3:0,0:0:0:0:
279,269,22007,6,0,P|328:264|400:310,1,120,4|0,1:2|0:0,0:0:0:0:
418,328,22673,2,0,P|408:291|421:238,1,79.9999999999999,2|8,0:0|0:1,0:0:0:0:
484,196,23340,1,2,1:2:0:0:
496,282,23673,1,8,0:1:0:0:
414,250,24007,2,0,L|292:255,1,120,2|2,0:0|0:0,0:0:0:0:
253,271,24673,6,0,P|263:225|244:184,1,79.9999999999999,2|8,1:2|0:1,0:0:0:0:
295,119,25340,2,0,P|260:87|215:83,1,79.9999999999999,2|8,0:0|0:1,0:0:0:0:
142,64,26007,1,2,0:0:0:0:
142,64,26173,2,0,P|113:66|89:70,1,40,2|8,1:2|0:1,0:0:0:0:
21,103,26673,2,0,P|16:87|12:63,2,40,2|2|8,1:2|1:2|0:1,0:0:0:0:
71,175,27340,5,0,1:0:0:0:
20,246,27673,1,8,0:1:0:0:
61,323,28007,2,0,B|120:316|120:316|169:353,1,120,2|2,0:0|0:0,0:0:0:0:
211,343,28673,2,0,L|296:347,1,79.9999999999999,0|8,1:0|0:1,0:0:0:0:
378,354,29340,2,0,L|374:304,1,40,2|2,0:0|1:2,0:0:0:0:
371,270,29673,1,8,0:1:0:0:
431,205,30007,6,0,P|391:185|342:186,1,79.9999999999999,4|8,1:2|0:1,0:0:0:0:
315,198,30507,2,0,P|279:202|228:176,1,79.9999999999999,2|0,0:0|1:0,0:0:0:0:
211,151,31007,1,8,0:1:0:0:
194,64,31340,6,0,L|128:53,2,59.9999999999999,4|4|4,1:2|1:2|1:2,0:0:0:0:
237,53,32007,2,0,B|265:46|265:46|321:57,1,79.9999999999999,4|8,1:2|0:1,0:0:0:0:
401,73,32673,6,0,L|390:158,1,79.9999999999999,4|8,1:2|0:1,0:0:0:0:
379,194,33173,2,0,B|340:210|340:210|298:194,1,79.9999999999999,2|2,0:0|1:2,0:0:0:0:
265,177,33673,1,8,0:1:0:0:
181,204,34007,2,0,L|173:288,1,79.9999999999999,0|8,1:0|0:1,0:0:0:0:
150,321,34507,2,0,L|157:367,1,40,2|2,1:2|0:0,0:0:0:0:
243,372,35007,1,8,0:1:0:0:
316,324,35340,6,0,L|410:318,1,79.9999999999999,2|8,1:2|0:1,0:0:0:0:
405,231,36007,2,0,L|325:236,1,79.9999999999999,2|8,0:0|0:1,0:0:0:0:
237,236,36673,1,2,1:2:0:0:
237,236,36840,2,0,L|247:193,2,40,2|8|2,0:0|0:1|0:0,0:0:0:0:
254,276,37340,2,0,P|214:270|170:288,1,79.9999999999999,2|8,1:2|0:1,0:0:0:0:
115,345,38007,6,0,P|78:313|66:274,1,79.9999999999999,0|8,1:0|0:1,0:0:0:0:
83,243,38507,2,0,P|92:204|82:166,1,79.9999999999999,2|2,0:0|1:2,0:0:0:0:
48,138,39007,1,8,0:1:0:0:
116,82,39340,2,0,L|212:77,1,79.9999999999999,0|8,1:0|0:1,0:0:0:0:
229,106,39840,2,0,L|280:92,1,40,2|2,0:0|0:0,0:0:0:0:
351,68,40340,6,0,L|341:244,1,160,8|8,0:1|0:1,0:0:0:0:
335,315,41340,2,0,B|282:297|282:297|207:304,1,120,2|2,0:0|1:2,0:0:0:0:
174,311,42007,6,0,P|85:294|169:240,1,240,2|8,0:0|0:1,0:0:0:0:
228,175,43340,6,0,L|318:167,1,79.9999999999999,4|8,1:2|0:1,0:0:0:0:
389,135,44007,2,0,B|443:163|443:163|398:207,1,120,2|0,0:0|0:0,0:0:0:0:
370,236,44673,2,0,L|376:325,1,79.9999999999999,2|8,1:3|0:1,0:0:0:0:
378,359,45173,1,0,1:0:0:0:
378,359,45340,2,0,P|330:350|284:360,1,79.9999999999999,0|8,1:0|0:1,0:0:0:0:
211,350,46007,6,0,P|163:336|146:312,1,79.9999999999999,0|8,1:0|0:1,0:0:0:0:
63,341,46673,2,0,P|38:297|43:268,1,79.9999999999999,0|8,3:0|0:1,0:0:0:0:
0,192,47340,1,2,0:0:0:0:
69,137,47673,1,8,0:1:0:0:
139,84,48007,2,0,L|130:37,2,40,2|2|2,1:2|1:2|1:2,0:0:0:0:
210,134,48673,6,0,P|244:135|289:110,1,79.9999999999999,4|8,1:2|0:1,0:0:0:0:
315,83,49173,2,0,L|398:77,1,79.9999999999999,2|0,0:0|1:0,0:0:0:0:
438,72,49673,1,8,0:1:0:0:
490,142,50007,6,0,P|510:218|481:303,2,160,2|2|4,1:2|3:2|1:2,0:0:0:0:
412,183,51673,1,8,0:1:0:0:
333,223,52007,2,0,L|239:217,1,79.9999999999999,2|8,0:0|0:1,0:0:0:0:
165,224,52673,6,0,L|97:232,2,59.9999999999999,4|4|4,1:2|1:2|1:2,0:0:0:0:
178,181,53340,2,0,B|185:147|185:147|163:94,1,79.9999999999999,4|8,1:2|0:1,0:0:0:0:
130,24,54007,1,4,1:2:0:0:
81,86,59340,6,0,L|75:169,1,79.9999999999999,4|8,1:2|0:1,0:0:0:0:
118,242,60007,2,0,L|112:325,1,79.9999999999999,8|8,0:1|0:1,0:0:0:0:
193,354,60673,2,0,B|232:367|232:367|282:338,1,79.9999999999999,4|8,1:2|0:1,0:0:0:0:
353,358,61340,2,0,B|382:329|382:329|379:271,1,79.9999999999999,8|8,0:1|0:1,0:0:0:0:
341,210,62007,6,0,L|337:165,3,40,8|8|8|8,0:1|0:1|0:1|0:1,0:0:0:0:
311,134,62673,2,0,L|307:89,3,40,8|8|8|8,0:1|0:1|0:1|0:1,0:0:0:0:
282,57,63340,1,8,0:1:0:0:
256,192,63507,12,4,64673,1:2:0:0:
77,101,66007,6,0,B|233:81|130:175|309:149,1,240,4|8,1:2|0:1,0:0:0:0:
384,123,67340,6,0,L|377:214,1,79.9999999999999,4|8,1:2|0:1,0:0:0:0:
435,269,68007,1,2,0:0:0:0:
350,292,68340,1,8,0:1:0:0:
264,314,68673,2,0,P|216:304|181:317,1,79.9999999999999,2|8,1:2|0:1,0:0:0:0:
153,340,69173,1,2,0:0:0:0:
153,340,69340,1,2,0:0:0:0:
94,274,69673,2,0,L|99:225,1,40,8|0,0:1|0:0,0:0:0:0:
139,216,70007,6,0,B|161:192|161:192|214:196,1,79.9999999999999,2|8,1:2|0:1,0:0:0:0:
252,200,70507,1,2,0:0:0:0:
252,200,70673,1,2,1:2:0:0:
336,224,71007,2,0,P|339:248|334:270,1,40,8|2,0:1|0:0,0:0:0:0:
317,303,71340,2,0,P|362:289|428:321,1,120,2|2,0:0|0:0,0:0:0:0:
456,349,72007,2,0,P|446:308|464:269,1,79.9999999999999,2|8,1:2|0:1,0:0:0:0:
492,244,72507,1,2,0:0:0:0:
492,244,72673,6,0,L|483:153,1,79.9999999999999,4|8,1:2|0:1,0:0:0:0:
396,176,73340,2,0,L|387:85,1,79.9999999999999,2|8,0:0|0:1,0:0:0:0:
435,21,74007,2,0,B|468:12|468:12|523:27,2,79.9999999999999,2|8|2,1:2|0:1|0:0,0:0:0:0:
388,96,75007,2,0,L|336:92,1,40,8|2,0:1|0:0,0:0:0:0:
304,87,75340,5,4,1:2:0:0:
247,154,75673,1,8,0:1:0:0:
247,154,75840,2,0,B|207:165|207:165|161:147,1,79.9999999999999,0|2,0:0|1:2,0:0:0:0:
133,128,76340,2,0,L|129:175,1,40,8|2,0:1|1:2,0:0:0:0:
108,206,76673,6,0,L|114:296,2,79.9999999999999,2|8|2,1:2|0:1|1:2,0:0:0:0:
46,143,77673,1,8,0:1:0:0:
9,223,78007,6,0,L|15:313,1,79.9999999999999,4|8,1:2|0:1,0:0:0:0:
81,359,78673,1,2,0:0:0:0:
168,345,79007,1,8,0:1:0:0:
254,332,79340,2,0,B|286:317|286:317|342:321,1,79.9999999999999,2|8,1:2|0:1,0:0:0:0:
374,323,79840,1,2,0:0:0:0:
374,323,80007,1,0,0:0:0:0:
344,240,80340,2,0,L|353:190,1,40,8|0,0:1|0:0,0:0:0:0:
355,156,80673,6,0,B|384:127|384:127|433:135,1,79.9999999999999,2|8,1:2|0:1,0:0:0:0:
465,141,81173,1,2,0:0:0:0:
465,141,81340,1,2,0:0:0:0:
511,66,81673,1,8,0:1:0:0:
433,23,82007,6,0,P|398:18|347:46,1,79.9999999999999,2|8,0:0|0:1,0:0:0:0:
328,67,82507,1,2,0:0:0:0:
328,67,82673,2,0,L|245:63,1,79.9999999999999,2|8,1:2|0:1,0:0:0:0:
182,4,83340,6,0,P|158:48|204:143,1,160,4|2,1:2|3:0,0:0:0:0:
281,175,84340,2,0,P|239:173|176:226,1,120,8|2,0:1|0:0,0:0:0:0:
168,261,85007,1,8,0:1:0:0:
174,348,85340,2,0,L|120:346,2,40,2|2|8,0:0|1:2|0:1,0:0:0:0:
259,332,86007,6,0,P|309:321|349:337,1,79.9999999999999,4|8,1:2|0:1,0:0:0:0:
373,351,86507,2,0,L|456:343,1,79.9999999999999,2|0,0:0|1:0,0:0:0:0:
506,273,87173,1,2,0:0:0:0:
506,273,87340,6,0,L|509:197,2,59.9999999999999,4|4|4,1:2|1:2|1:2,0:0:0:0:
464,257,88007,2,0,B|442:249|442:249|378:259,1,79.9999999999999,0|8,1:2|0:1,0:0:0:0:
298,254,88673,6,0,P|268:250|213:172,1,120,4|2,1:2|0:0,0:0:0:0:
216,140,89340,2,0,L|224:57,1,79.9999999999999,2|8,0:0|0:1,0:0:0:0:
295,9,90007,1,2,1:2:0:0:
360,67,90340,1,8,0:1:0:0:
440,31,90673,2,0,B|465:65|465:65|457:149,1,120,2|2,0:0|0:0,0:0:0:0:
450,186,91340,6,0,L|458:281,1,79.9999999999999,2|8,1:2|0:1,0:0:0:0:
369,279,92007,2,0,L|377:374,1,79.9999999999999,2|8,0:0|0:1,0:0:0:0:
289,340,92673,5,2,0:0:0:0:
289,340,92840,2,0,L|239:344,1,40,2|8,1:2|0:1,0:0:0:0:
162,360,93340,2,0,L|169:309,2,40,2|2|8,1:2|1:2|0:1,0:0:0:0:
75,375,94007,5,4,1:2:0:0:
59,288,94340,1,8,0:1:0:0:
44,201,94673,2,0,B|86:158|86:158|147:173,1,120,2|2,1:2|0:0,0:0:0:0:
186,186,95340,6,0,L|275:177,1,79.9999999999999,0|8,1:0|0:1,0:0:0:0:
342,135,96007,2,0,P|354:164|354:178,1,40,2|0,0:0|1:0,0:0:0:0:
346,215,96340,1,8,0:1:0:0:
294,286,96673,6,0,P|333:271|385:276,1,79.9999999999999,2|8,1:2|0:1,0:0:0:0:
410,290,97173,1,2,0:0:0:0:
483,338,97507,2,0,L|487:379,2,40,2|8|2,1:2|0:1|0:0,0:0:0:0:
503,298,98007,6,0,P|513:267|501:210,1,79.9999999999999,2|8,0:0|0:1,0:0:0:0:
451,152,98673,2,0,P|420:142|363:154,1,79.9999999999999,2|8,1:2|0:1,0:0:0:0:
298,193,99340,6,0,P|266:198|212:170,1,79.9999999999999,4|8,1:2|0:1,0:0:0:0:
194,146,99840,1,2,0:0:0:0:
194,146,100007,1,2,0:0:0:0:
131,84,100340,2,0,L|83:89,1,40,8|2,0:1|0:0,0:0:0:0:
50,71,100673,2,0,L|46:161,1,79.9999999999999,2|8,1:2|0:1,0:0:0:0:
108,214,101340,2,0,L|104:304,1,79.9999999999999,2|8,0:0|0:1,0:0:0:0:
156,364,102007,5,4,1:2:0:0:
225,310,102340,1,8,0:1:0:0:
302,351,102673,2,0,P|341:350|382:328,1,79.9999999999999,2|8,1:2|0:1,0:0:0:0:
438,269,103340,2,0,P|462:229|406:139,1,160,2|2,0:0|1:2,0:0:0:0:
324,121,104340,1,8,0:1:0:0:
247,164,104673,6,0,L|122:162,1,120,4|2,1:2|0:0,0:0:0:0:
90,137,105340,2,0,P|108:183|98:218,1,79.9999999999999,8|8,0:1|0:1,0:0:0:0:
42,276,106007,6,0,P|81:265|158:292,1,120,4|2,1:2|1:2,0:0:0:0:
190,313,106673,2,0,L|279:309,1,79.9999999999999,8|8,0:1|0:1,0:0:0:0:
351,342,107340,6,0,P|359:306|355:291,2,40,8|8|8,0:1|0:1|0:1,0:0:0:0:
269,309,108007,2,0,P|257:273|246:262,2,40,8|8|8,0:1|0:1|0:1,0:0:0:0:
188,343,108673,2,0,P|141:327|116:292,1,79.9999999999999,4|8,1:2|0:1,0:0:0:0:
96,220,109340,1,8,0:1:0:0:
124,132,109673,2,0,P|153:144|162:157,1,40,8|8,0:1|0:1,0:0:0:0:
178,189,110007,5,4,1:2:0:0:
256,192,110173,12,2,115173,0:0:0:0:
