osu file format v14

[General]
AudioFilename: 8.mp3
AudioLeadIn: 0
PreviewTime: 67257
Countdown: 0
SampleSet: Soft
StackLeniency: 0.7
Mode: 0
LetterboxInBreaks: 0
WidescreenStoryboard: 0

[Editor]
DistanceSpacing: 0.5
BeatDivisor: 4
GridSize: 4
TimelineZoom: 2.3

[Metadata]
Title:Oriental Blossom
TitleUnicode:Oriental Blossom
Artist:Eisyo-kobu
ArtistUnicode:影翔鼓舞
Creator:Crystal
Version:Extra
Source:SOUND VOLTEX III GRAVITY WARS
Tags:Newspaper Cup #3 3rd third sdvx 影虎。Kagetora. saka=ichi The 4th KACオリジナル楽曲コンテスト Original Song Contest konami arcade championship fourth Evil_Twilight 384059043 Pata-Mon Sadism-Bread Gaia Doj EmingK yf_bmp handsome muscle z1085684963 Karen Kashima Vert 23konG Ellyu pw384
BeatmapID:1242787
BeatmapSetID:586889

[Difficulty]
HPDrainRate:7
CircleSize:4.8
OverallDifficulty:8.7
ApproachRate:9.4
SliderMultiplier:1.8
SliderTickRate:1

[Events]
//Background and Video events
0,0,"oriental.jpg",0,0
//Break Periods
//Storyboard Layer 0 (Background)
//Storyboard Layer 1 (Fail)
//Storyboard Layer 2 (Pass)
//Storyboard Layer 3 (Foreground)
//Storyboard Sound Samples

[TimingPoints]
674,333.333333333333,4,2,2,60,1,0
4590,-100,4,2,2,5,0,0
4673,-100,4,2,2,60,0,0
5673,-1000,4,2,2,60,0,0
6007,-100,4,2,2,60,0,0
6673,-100,4,2,1,60,0,0
6840,-100,4,2,2,60,0,0
8007,-100,4,2,1,60,0,0
8173,-100,4,2,2,60,0,0
9340,-100,4,2,1,60,0,0
9507,-100,4,2,2,60,0,0
10007,-1000,4,2,2,60,0,0
10840,-80,4,2,2,60,0,0
11007,-50,4,2,2,60,0,0
11340,-100,4,2,2,60,0,0
22007,-80,4,2,2,60,0,0
32673,-100,4,2,2,60,0,0
54007,-133.333333333333,4,2,2,40,0,0
59673,-100,4,2,1,60,0,0
60673,-100,4,2,2,60,0,0
61007,-100,4,2,1,60,0,0
63340,-100,4,2,2,60,0,0
66007,-133.333333333333,4,2,2,60,0,0
67340,-83.3333333333333,4,2,2,75,0,1
67673,-100,4,2,2,75,0,1
78007,-83.3333333333333,4,2,2,75,0,1
78340,-100,4,2,2,75,0,1
88590,-100,4,2,2,75,0,0
88673,-80,4,2,2,75,0,1
99257,-80,4,2,2,75,0,0
99340,-76.9230769230769,4,2,2,75,0,1
102340,-90.9090909090909,4,2,2,75,0,1
102673,-111.111111111111,4,2,2,75,0,1
103007,-142.857142857143,4,2,2,75,0,1
104340,-100,4,2,2,75,0,0
104673,-76.9230769230769,4,2,2,75,0,1
110007,-500,4,2,1,30,0,0

[Colours]
Combo1 : 0,128,255
Combo2 : 128,255,0
Combo3 : 0,255,255
Combo4 : 0,255,0

[HitObjects]
32,32,674,5,2,3:0:0:0:
64,109,1007,1,0,0:0:0:0:
138,70,1173,1,0,1:0:0:0:
170,147,1340,1,8,0:1:0:0:
64,109,1673,1,2,3:0:0:0:
138,70,1840,1,0,1:0:0:0:
153,109,1923,1,0,0:0:0:0:
170,147,2007,1,0,3:0:0:0:
243,101,2340,5,0,1:0:0:0:
243,101,2507,1,0,0:0:0:0:
275,178,2673,1,8,0:1:0:0:
349,139,3007,1,0,3:0:0:0:
381,216,3339,1,0,1:0:0:0:
455,177,3673,5,0,3:0:0:0:
487,254,3840,1,0,1:0:0:0:
487,254,4007,1,8,0:1:0:0:
224,344,4340,2,0,B|256:284|256:284|288:344,1,135,0|0,0:0|0:0,0:0:0:0:
297,364,4673,5,0,3:0:0:0:
377,352,4840,1,0,1:0:0:0:
407,266,5007,1,0,0:0:0:0:
487,254,5174,1,0,0:0:0:0:
325,215,5340,5,8,0:1:0:0:
245,203,5507,1,0,0:0:0:0:
275,279,5673,2,0,L|273:266,1,13.5,0|0,1:0|0:0,0:0:0:0:
270,249,6007,6,0,L|365:244,1,90,0|0,1:0|0:0,0:0:0:0:
423,298,6340,2,0,L|518:293,1,90,0|0,1:0|0:0,0:0:0:0:
447,172,6673,6,0,L|401:169,1,45,8|0,0:1|0:0,0:0:0:0:
402,169,7007,2,0,L|491:164,1,90,0|0,1:0|0:0,0:0:0:0:
127,269,7340,6,0,B|94:238|94:238|138:236,1,90,0|0,1:0|0:0,0:0:0:0:
220,304,7673,2,0,B|253:335|253:335|209:337,1,90,0|0,1:0|0:0,0:0:0:0:
233,164,8007,6,0,B|243:184|243:184|235:218,1,45,8|0,0:1|0:0,0:0:0:0:
237,206,8340,2,0,B|219:166|219:166|230:122,1,90,0|0,1:0|0:0,0:0:0:0:
315,48,8673,5,0,1:0:0:0:
138,142,8840,1,0,1:0:0:0:
299,159,9007,5,0,1:0:0:0:
49,81,9173,1,0,1:0:0:0:
90,305,9340,5,8,0:1:0:0:
138,40,9507,1,0,1:0:0:0:
277,244,9673,5,0,1:0:0:0:
50,183,9840,1,0,1:0:0:0:
115,219,10007,6,0,P|130:219|144:213,1,27,4|2,1:2|3:2,0:0:0:0:
151,208,10840,6,0,L|206:202,1,56.25,0|0,1:0|0:0,0:0:0:0:
284,236,11007,6,0,B|331:242|382:230|416:172|416:172|393:217|394:261|420:285,1,270,8|0,0:1|0:0,0:0:0:0:
431,299,11340,6,0,L|429:206,1,90,4|0,1:2|0:0,0:0:0:0:
453,103,11673,1,8,0:1:0:0:
341,146,11840,1,2,0:0:0:0:
340,137,11923,1,2,0:0:0:0:
339,127,12007,5,2,0:0:0:0:
261,98,12173,1,2,0:0:0:0:
209,164,12340,1,8,0:1:0:0:
256,233,12507,1,2,0:0:0:0:
336,210,12673,6,0,L|433:204,1,90,0|2,1:0|0:0,0:0:0:0:
326,205,13007,1,8,0:1:0:0:
487,132,13173,1,2,1:2:0:0:
471,309,13340,1,2,0:0:0:0:
471,309,13507,1,0,1:0:0:0:
254,247,13673,2,0,B|237:205|237:205|256:157,1,90,8|2,0:1|0:0,0:0:0:0:
415,210,14007,6,0,L|318:204,1,90,0|0,1:0|0:0,0:0:0:0:
253,163,14340,1,8,0:1:0:0:
282,331,14507,1,2,0:0:0:0:
209,372,14673,6,0,L|119:366,1,90,0|0,1:0|1:0,0:0:0:0:
44,331,15007,1,8,0:1:0:0:
199,269,15173,1,2,0:0:0:0:
332,371,15340,5,0,1:0:0:0:
395,252,15507,1,2,0:0:0:0:
397,260,15590,1,2,0:0:0:0:
399,268,15673,1,8,0:1:0:0:
375,167,15840,1,2,0:0:0:0:
422,349,16007,5,2,1:2:0:0:
422,349,16173,1,0,1:0:0:0:
335,325,16340,1,8,0:1:0:0:
509,373,16507,1,2,0:0:0:0:
263,357,16673,6,0,B|251:312|251:312|278:266,1,90,2|0,1:2|0:0,0:0:0:0:
334,191,17007,1,8,0:1:0:0:
439,278,17173,1,2,0:0:0:0:
437,269,17257,1,2,0:0:0:0:
435,260,17340,1,2,0:0:0:0:
512,250,17507,1,0,1:0:0:0:
363,303,17673,1,8,0:1:0:0:
286,293,17840,1,0,0:0:0:0:
417,179,18007,6,0,B|443:215|443:215|433:268,1,90,0|0,1:0|0:0,0:0:0:0:
230,347,18340,2,0,B|204:311|204:311|214:258,1,90,8|0,0:1|0:0,0:0:0:0:
242,128,18673,1,2,0:0:0:0:
242,128,18840,1,2,0:0:0:0:
162,174,19007,5,8,0:1:0:0:
385,150,19173,1,2,0:0:0:0:
305,196,19340,2,0,L|311:299,1,90,0|0,1:0|0:0,0:0:0:0:
230,331,19673,1,8,0:1:0:0:
453,307,19840,1,2,0:0:0:0:
316,362,20007,5,2,0:0:0:0:
388,246,20173,1,2,1:2:0:0:
316,362,20340,1,8,0:1:0:0:
388,246,20507,1,2,1:2:0:0:
436,377,20673,5,2,0:0:0:0:
300,248,20840,1,2,1:2:0:0:
485,239,21007,1,8,0:1:0:0:
483,230,21090,1,0,0:0:0:0:
481,221,21173,1,2,0:0:0:0:
479,212,21257,1,2,0:0:0:0:
477,203,21340,5,2,1:2:0:0:
329,154,21507,1,0,1:0:0:0:
450,128,21673,1,8,0:1:0:0:
216,183,21840,2,0,L|211:128,1,45,0|0,3:0|0:0,0:0:0:0:
215,76,22007,6,0,L|229:244,1,168.75,4|0,1:2|0:0,0:0:0:0:
232,266,22340,2,0,B|285:245|285:245|352:278,1,112.5,8|0,0:1|0:0,0:0:0:0:
444,329,22673,1,2,0:0:0:0:
474,313,22756,1,2,0:0:0:0:
493,284,22840,1,2,1:2:0:0:
494,249,22922,1,2,0:0:0:0:
478,219,23007,5,8,0:1:0:0:
440,195,23090,1,2,0:0:0:0:
419,156,23173,1,2,0:0:0:0:
419,111,23256,1,2,0:0:0:0:
443,60,23340,5,2,1:2:0:0:
336,119,23507,1,2,0:0:0:0:
298,143,23590,1,2,0:0:0:0:
254,131,23673,1,8,0:1:0:0:
155,61,23840,1,2,1:2:0:0:
111,49,23923,1,2,0:0:0:0:
73,73,24006,1,2,0:0:0:0:
12,177,24173,1,0,1:0:0:0:
175,244,24340,1,8,0:1:0:0:
40,336,24507,2,0,P|28:310|29:282,1,56.25,2|0,0:0|0:0,0:0:0:0:
37,264,24673,5,2,1:2:0:0:
233,195,24840,1,2,0:0:0:0:
269,221,24923,1,2,0:0:0:0:
247,261,25007,1,8,0:1:0:0:
14,195,25173,5,2,0:0:0:0:
233,180,25340,1,2,0:0:0:0:
283,216,25423,1,2,0:0:0:0:
252,273,25507,1,2,1:2:0:0:
49,131,25673,5,8,0:1:0:0:
232,162,25840,1,2,1:2:0:0:
78,67,26007,5,2,0:0:0:0:
112,92,26090,1,2,0:0:0:0:
126,135,26173,1,2,1:2:0:0:
112,176,26256,1,2,0:0:0:0:
75,201,26340,1,8,0:1:0:0:
79,221,26507,5,2,0:0:0:0:
126,189,26591,1,2,0:0:0:0:
145,135,26674,1,2,1:2:0:0:
128,80,26757,1,2,0:0:0:0:
82,47,26840,1,2,1:2:0:0:
230,94,27007,6,0,L|293:90,1,56.25,8|2,0:1|0:0,0:0:0:0:
362,126,27173,2,0,L|425:122,1,56.25,2|2,0:0|0:0,0:0:0:0:
494,158,27340,5,0,1:0:0:0:
475,63,27507,2,0,P|473:49|481:24,3,37.5,2|2|2|8,0:0|0:0|0:0|0:1,0:0:0:0:
478,248,27840,2,0,P|479:261|471:286,3,37.5,2|2|2|2,0:0|0:0|0:0|0:0,0:0:0:0:
188,313,28173,5,0,1:0:0:0:
277,304,28340,1,8,0:1:0:0:
366,296,28507,1,2,0:0:0:0:
113,367,28673,6,0,P|97:346|95:307,1,56.25,0|0,1:0|0:0,0:0:0:0:
121,205,28840,1,2,0:0:0:0:
148,173,28923,1,2,0:0:0:0:
186,156,29006,1,8,0:1:0:0:
228,159,29089,1,2,0:0:0:0:
264,180,29173,5,2,1:2:0:0:
215,174,29256,1,2,0:0:0:0:
184,132,29339,1,2,0:0:0:0:
412,117,29507,5,2,1:2:0:0:
401,206,29673,1,8,0:1:0:0:
391,295,29840,1,0,0:0:0:0:
315,240,30007,5,4,1:2:0:0:
476,171,30173,1,2,0:0:0:0:
319,100,30340,1,8,0:1:0:0:
391,152,30507,2,0,B|284:117|313:180|219:146,1,168.75,2|0,0:0|0:0,0:0:0:0:
205,133,30840,1,0,1:0:0:0:
87,182,31007,2,0,P|68:201|56:232,1,56.25,8|0,0:1|0:0,0:0:0:0:
67,306,31173,2,0,P|74:331|96:356,1,56.25,2|0,1:2|0:0,0:0:0:0:
180,374,31340,5,4,1:2:0:0:
189,368,31423,2,0,L|187:302,1,56.25,0|0,1:0|0:0,0:0:0:0:
279,208,31590,5,4,1:2:0:0:
288,214,31673,2,0,L|286:280,1,56.25,0|0,1:0|0:0,0:0:0:0:
377,359,31840,6,0,P|408:361|444:347,1,56.25,4|0,1:2|0:0,0:0:0:0:
502,267,32007,2,0,P|501:235|485:201,1,56.25,4|0,1:2|0:0,0:0:0:0:
357,158,32173,1,8,0:1:0:0:
305,126,32256,1,8,0:1:0:0:
246,122,32339,1,8,0:1:0:0:
192,150,32422,1,8,0:1:0:0:
159,199,32507,1,8,0:1:0:0:
107,225,32590,1,8,0:1:0:0:
52,207,32673,5,4,1:2:0:0:
103,132,32840,1,2,0:0:0:0:
103,132,32923,1,2,0:0:0:0:
103,132,33007,1,8,0:1:0:0:
129,326,33173,1,2,0:0:0:0:
129,326,33257,1,2,0:0:0:0:
208,380,33507,1,2,1:2:0:0:
243,375,33590,1,2,0:0:0:0:
278,370,33673,1,8,0:1:0:0:
50,270,33840,1,2,0:0:0:0:
291,203,34007,6,0,B|308:245|308:245|288:305,1,90,0|2,1:0|0:0,0:0:0:0:
144,209,34340,1,8,0:1:0:0:
221,250,34507,1,2,1:2:0:0:
251,131,34673,2,0,B|304:118|304:118|369:149|369:149|421:132,1,180,2|8,0:0|0:1,0:0:0:0:
419,132,35173,1,2,0:0:0:0:
187,61,35340,6,0,L|93:55,1,90,2|0,1:2|0:0,0:0:0:0:
38,133,35673,2,0,L|127:138,1,90,8|0,0:1|0:0,0:0:0:0:
203,270,36007,6,0,B|219:228|219:228|201:170,1,90,2|0,0:0|1:0,0:0:0:0:
120,232,36340,2,0,B|104:274|104:274|122:332,1,90,8|0,0:1|1:0,0:0:0:0:
282,329,36673,5,2,1:2:0:0:
36,350,36840,1,2,0:0:0:0:
36,350,36923,1,2,0:0:0:0:
36,350,37007,1,8,0:1:0:0:
202,365,37173,1,2,0:0:0:0:
138,187,37340,1,2,1:2:0:0:
116,379,37506,1,2,1:2:0:0:
284,150,37673,2,0,L|295:116,2,22.5,8|0|2,0:1|0:0|0:0,0:0:0:0:
278,170,37840,1,2,0:0:0:0:
298,362,38007,5,0,1:0:0:0:
95,283,38173,1,2,0:0:0:0:
99,274,38257,1,2,0:0:0:0:
103,265,38340,1,8,0:1:0:0:
368,254,38507,1,2,0:0:0:0:
376,231,38590,2,0,L|390:184,1,45,2|2,0:0|0:0,0:0:0:0:
208,104,38840,2,0,L|222:57,1,45,2|2,1:2|0:0,0:0:0:0:
229,38,39007,1,8,0:1:0:0:
77,118,39173,1,2,0:0:0:0:
301,113,39340,6,0,L|275:199,1,90,0|2,1:0|0:0,0:0:0:0:
322,279,39673,1,8,0:1:0:0:
142,214,39840,1,2,0:0:0:0:
368,192,40007,1,2,0:0:0:0:
368,192,40173,1,2,1:3:0:0:
142,214,40340,5,8,0:1:0:0:
255,186,40507,1,2,0:0:0:0:
181,276,40673,1,2,1:2:0:0:
189,159,40840,1,2,0:0:0:0:
250,258,41007,1,8,0:1:0:0:
270,275,41340,5,2,0:0:0:0:
182,132,41507,1,2,1:2:0:0:
171,301,41673,1,8,0:1:0:0:
277,171,41840,1,2,1:2:0:0:
115,211,42007,5,2,0:0:0:0:
123,213,42090,1,2,0:0:0:0:
131,214,42173,1,2,1:2:0:0:
139,215,42257,1,2,0:0:0:0:
174,210,42340,5,8,0:1:0:0:
196,207,42423,1,2,0:0:0:0:
218,204,42507,1,2,0:0:0:0:
240,201,42590,1,2,0:0:0:0:
280,215,42673,5,2,1:2:0:0:
315,220,42757,1,2,0:0:0:0:
350,224,42840,1,2,1:2:0:0:
385,229,42923,1,2,0:0:0:0:
422,258,43007,5,8,0:1:0:0:
424,281,43090,1,8,0:1:0:0:
453,262,43173,1,8,0:1:0:0:
455,285,43256,1,8,0:1:0:0:
479,267,43340,6,0,L|475:170,1,90,4|0,1:2|0:0,0:0:0:0:
372,36,43673,2,0,L|375:125,1,90,8|0,0:1|0:0,0:0:0:0:
173,151,44007,2,0,B|218:137|218:137|285:156,1,90,2|0,0:0|1:0,0:0:0:0:
274,165,44229,2,0,L|270:297,1,120,2|2,0:0|0:0,0:0:0:0:
270,284,44673,6,0,B|316:290|316:290|350:328,1,90,2|0,1:3|0:0,0:0:0:0:
472,289,45007,2,0,B|490:331|490:331|474:379,1,90,8|0,0:1|1:0,0:0:0:0:
390,244,45340,1,0,1:0:0:0:
390,244,45507,1,0,1:0:0:0:
274,359,45673,2,0,L|176:355,1,90,8|0,0:1|0:0,0:0:0:0:
70,252,46007,5,0,1:0:0:0:
76,226,46173,1,2,3:0:0:0:
154,270,46340,5,8,0:1:0:0:
149,198,46507,1,2,3:0:0:0:
234,258,46673,5,0,3:0:0:0:
241,148,46840,1,0,1:0:0:0:
317,287,47007,5,8,0:1:0:0:
304,98,47173,1,0,1:0:0:0:
417,255,47340,5,2,0:0:0:0:
452,252,47423,1,2,0:0:0:0:
420,234,47507,1,2,1:2:0:0:
455,231,47590,1,2,0:0:0:0:
423,213,47673,1,8,0:1:0:0:
478,98,47840,1,2,0:0:0:0:
442,104,47923,1,2,0:0:0:0:
475,117,48007,5,2,1:2:0:0:
252,86,48173,1,2,1:2:0:0:
374,56,48340,5,2,1:2:0:0:
154,161,48507,1,2,0:0:0:0:
152,169,48590,1,2,0:0:0:0:
150,177,48673,5,4,1:2:0:0:
119,26,48840,1,2,0:0:0:0:
41,198,49007,1,8,0:1:0:0:
246,128,49173,1,2,0:0:0:0:
264,126,49340,1,2,3:0:0:0:
31,206,49507,5,0,1:0:0:0:
277,216,49673,1,8,0:1:0:0:
294,221,49840,1,2,0:0:0:0:
66,322,50007,5,2,1:2:0:0:
178,313,50173,1,2,0:0:0:0:
176,304,50257,1,2,0:0:0:0:
174,295,50340,1,8,0:1:0:0:
154,192,50507,1,2,0:0:0:0:
277,350,50673,5,2,3:2:0:0:
104,254,50840,1,2,1:2:0:0:
277,350,51007,1,8,0:1:0:0:
104,254,51173,1,2,0:0:0:0:
378,232,51340,5,4,1:2:0:0:
247,244,51507,1,2,0:0:0:0:
245,235,51590,1,2,0:0:0:0:
243,226,51673,1,8,0:1:0:0:
480,200,51840,1,2,0:0:0:0:
307,164,52007,5,2,0:0:0:0:
305,155,52090,1,2,0:0:0:0:
303,146,52173,1,2,1:2:0:0:
370,287,52340,1,8,0:1:0:0:
384,60,52507,1,2,0:0:0:0:
134,163,52673,5,4,1:2:0:0:
153,182,52757,2,0,P|179:188|214:176,1,45,0|0,1:0|1:0,0:0:0:0:
311,179,52923,5,4,1:2:0:0:
285,185,53007,2,0,P|266:204|259:240,1,45,0|0,1:0|1:0,0:0:0:0:
220,301,53173,6,0,P|212:275|184:251,1,45,4|0,1:2|1:0,0:0:0:0:
144,203,53340,2,0,P|118:194|82:202,1,45,4|0,1:2|1:0,0:0:0:0:
32,220,53507,1,8,0:1:0:0:
87,193,53590,1,8,0:1:0:0:
114,140,53673,1,8,0:1:0:0:
103,79,53757,1,8,0:1:0:0:
57,39,53840,1,8,0:1:0:0:
109,70,53923,1,8,0:1:0:0:
163,52,54007,6,0,B|270:-31|381:46|381:46|303:157|174:115,1,472.500018024445,4|0,1:2|0:0,0:0:0:0:
107,164,55340,6,0,B|190:271|112:382|112:382|1:304|43:176,1,472.500018024445,0|0,1:0|0:0,0:0:0:0:
178,217,56673,6,0,B|270:240|214:185|327:210|327:210|316:259|330:292|382:342|464:326|493:250|473:182|420:170|420:170|395:228,2,540.000020599366,0|0|4,1:0|1:0|1:2,0:0:0:0:
163,208,59673,1,8,0:1:0:0:
148,199,60007,1,8,0:1:0:0:
133,190,60340,1,8,0:1:0:0:
385,41,60673,5,4,1:2:0:0:
348,148,61007,1,8,0:1:0:0:
433,224,61340,1,8,0:1:0:0:
396,331,61674,1,8,0:1:0:0:
148,242,62007,5,8,0:1:0:0:
294,234,62173,1,8,0:1:0:0:
155,231,62340,1,8,0:1:0:0:
301,223,62506,1,8,0:1:0:0:
162,220,62673,5,8,0:1:0:0:
30,289,62840,1,8,0:1:0:0:
175,223,63007,1,8,0:1:0:0:
43,292,63174,1,8,0:1:0:0:
209,353,63340,5,8,0:1:0:0:
225,352,63423,1,8,0:1:0:0:
242,350,63506,1,8,0:1:0:0:
258,345,63590,1,8,0:1:0:0:
273,338,63673,1,8,0:1:0:0:
288,329,63757,1,8,0:1:0:0:
302,320,63840,1,8,0:1:0:0:
318,314,63923,1,8,0:1:0:0:
334,311,64007,5,8,0:1:0:0:
332,281,64090,1,8,0:1:0:0:
346,310,64173,1,8,0:1:0:0:
344,280,64256,1,8,0:1:0:0:
358,309,64340,1,8,0:1:0:0:
356,279,64423,1,8,0:1:0:0:
370,308,64507,1,8,0:1:0:0:
368,278,64590,1,8,0:1:0:0:
382,307,64673,5,4,1:2:0:0:
388,306,64840,1,2,1:3:0:0:
394,306,65007,1,8,0:1:0:0:
466,258,65173,1,2,1:3:0:0:
479,288,65256,1,8,0:1:0:0:
481,322,65339,1,2,1:3:0:0:
470,353,65423,1,8,0:1:0:0:
448,378,65506,1,0,1:0:0:0:
274,309,65673,5,8,0:1:0:0:
299,291,65756,1,2,0:0:0:0:
333,283,65839,1,2,0:0:0:0:
365,288,65923,1,2,0:0:0:0:
394,306,66007,6,0,L|399:257,3,33.7500012874604,4|0|0|0,1:2|0:0|0:0|0:0,0:0:0:0:
430,241,66340,2,0,L|435:192,3,33.7500012874604,2|0|0|0,1:3|0:0|0:0|0:0,0:0:0:0:
466,176,66673,2,0,L|471:127,3,33.7500012874604,2|0|0|0,1:3|0:0|0:0|0:0,0:0:0:0:
416,81,67007,1,8,0:1:0:0:
397,53,67090,1,8,0:1:0:0:
379,81,67173,1,8,0:1:0:0:
360,53,67256,1,8,0:1:0:0:
342,81,67340,6,0,B|296:65|296:65|253:84|246:138|293:184,1,161.999995056153,4|0,1:2|0:0,0:0:0:0:
289,177,67673,2,0,L|384:172,1,90,8|0,0:1|0:0,0:0:0:0:
467,302,68007,1,2,0:0:0:0:
378,172,68173,1,0,1:0:0:0:
374,330,68340,1,8,0:1:0:0:
470,205,68507,1,2,0:0:0:0:
319,249,68673,6,0,B|239:235|274:286|186:269,1,135,2|0,1:2|0:0,0:0:0:0:
171,259,69007,1,8,0:1:0:0:
300,320,69173,1,2,0:0:0:0:
171,259,69340,2,0,L|81:264,1,90,2|0,0:0|1:0,0:0:0:0:
127,134,69673,5,8,0:1:0:0:
129,144,69757,1,2,0:0:0:0:
126,154,69840,1,2,0:0:0:0:
34,132,70007,2,0,L|30:36,1,90,2|0,1:2|0:0,0:0:0:0:
311,167,70340,5,8,0:1:0:0:
311,177,70424,1,2,0:0:0:0:
306,186,70507,1,2,0:0:0:0:
219,150,70674,2,0,L|230:54,1,90,2|0,1:2|0:0,0:0:0:0:
488,229,71006,5,8,0:1:0:0:
486,238,71090,1,2,0:0:0:0:
480,246,71173,1,2,0:0:0:0:
399,197,71340,2,0,L|424:104,1,90,2|0,0:0|1:0,0:0:0:0:
428,90,71590,1,0,0:0:0:0:
434,68,71673,1,8,0:1:0:0:
306,186,71840,1,2,0:0:0:0:
276,34,72007,5,2,1:2:0:0:
276,34,72173,1,0,1:0:0:0:
158,46,72340,5,8,0:1:0:0:
393,21,72507,1,2,0:0:0:0:
126,133,72673,6,0,P|74:98|68:10,1,135,4|0,1:2|0:0,0:0:0:0:
65,21,73007,2,0,P|73:74|25:108,1,90,8|2,0:1|0:0,0:0:0:0:
38,109,73257,1,2,0:0:0:0:
22,112,73340,1,2,0:0:0:0:
158,46,73507,1,2,1:2:0:0:
272,176,73673,2,0,L|363:174,1,90,8|0,0:1|0:0,0:0:0:0:
112,230,74007,6,0,P|47:212|35:175,1,90,2|0,1:2|0:0,0:0:0:0:
158,46,74340,1,8,0:1:0:0:
175,174,74507,1,2,0:0:0:0:
173,165,74590,1,2,0:0:0:0:
171,156,74673,1,2,0:0:0:0:
193,289,74840,1,2,1:2:0:0:
65,305,75007,5,8,0:1:0:0:
322,272,75173,1,2,0:0:0:0:
32,239,75340,2,0,P|-4:272|8:355,1,135,4|0,1:2|0:0,0:0:0:0:
23,366,75673,2,0,P|72:380|121:352,1,90,8|0,0:1|0:0,0:0:0:0:
275,167,76007,5,2,0:0:0:0:
227,337,76173,1,2,1:2:0:0:
192,204,76340,5,8,0:1:0:0:
396,295,76507,1,2,1:2:0:0:
104,242,76673,5,2,1:2:0:0:
367,197,76840,1,2,0:0:0:0:
318,264,77007,5,8,0:1:0:0:
296,242,77090,1,2,0:0:0:0:
284,215,77173,1,2,0:0:0:0:
283,185,77256,1,2,0:0:0:0:
293,157,77340,1,2,1:2:0:0:
355,104,77507,1,0,1:0:0:0:
154,176,77673,1,8,0:1:0:0:
367,197,77840,1,2,0:0:0:0:
222,254,78007,6,0,B|111:239|175:305|42:283,1,161.999995056153,4|0,1:2|0:0,0:0:0:0:
49,272,78340,2,0,L|45:173,1,90,8|0,0:1|0:0,0:0:0:0:
145,48,78673,1,2,0:0:0:0:
129,184,78840,1,2,1:2:0:0:
224,81,79007,1,8,0:1:0:0:
208,217,79174,1,2,0:0:0:0:
305,66,79340,6,0,B|372:49|372:49|442:82,1,135,2|0,1:2|0:0,0:0:0:0:
453,89,79673,1,8,0:1:0:0:
305,66,79840,1,2,0:0:0:0:
404,197,80007,2,0,L|506:188,1,90,2|0,0:0|1:0,0:0:0:0:
273,196,80340,5,8,0:1:0:0:
264,197,80423,1,2,0:0:0:0:
255,198,80507,1,2,0:0:0:0:
391,207,80673,2,0,L|493:198,1,90,2|0,1:2|0:0,0:0:0:0:
250,273,81007,5,8,0:1:0:0:
238,274,81090,1,2,0:0:0:0:
226,275,81174,1,2,0:0:0:0:
400,287,81340,2,0,L|489:279,1,90,2|0,0:0|0:0,0:0:0:0:
151,328,81673,2,0,B|127:289|127:289|142:232,1,90,8|2,0:1|1:2,0:0:0:0:
293,119,82007,5,2,0:0:0:0:
154,140,82173,1,2,1:2:0:0:
388,142,82340,5,8,0:1:0:0:
76,101,82507,1,2,0:0:0:0:
458,95,82673,6,0,B|479:135|479:135|469:182,1,90,2|0,1:2|1:0,0:0:0:0:
314,315,83007,2,0,B|293:275|293:275|303:228,1,90,8|2,0:1|0:0,0:0:0:0:
469,178,83340,5,4,1:2:0:0:
303,232,83507,1,2,0:0:0:0:
406,91,83673,1,8,0:1:0:0:
406,266,83840,1,2,0:0:0:0:
303,124,84007,1,2,3:0:0:0:
303,124,84173,1,0,1:0:0:0:
489,179,84340,5,8,0:1:0:0:
290,114,84507,1,2,0:0:0:0:
414,285,84673,1,2,1:2:0:0:
414,75,84840,1,2,0:0:0:0:
290,244,85007,1,8,0:1:0:0:
290,244,85173,1,0,1:0:0:0:
381,175,85340,5,2,0:0:0:0:
171,189,85507,1,2,1:2:0:0:
394,185,85673,5,8,0:1:0:0:
159,198,85840,1,0,0:0:0:0:
406,195,86007,5,4,1:2:0:0:
250,88,86173,1,2,0:0:0:0:
214,301,86340,1,8,0:1:0:0:
493,150,86507,2,0,L|486:254,1,90,2|0,0:0|0:0,0:0:0:0:
170,138,86840,2,0,L|163:34,1,90,0|8,1:0|0:1,0:0:0:0:
163,48,87173,1,2,0:0:0:0:
327,77,87340,5,4,1:2:0:0:
350,76,87423,1,0,1:0:0:0:
490,118,87590,1,4,1:2:0:0:
467,117,87673,1,0,1:0:0:0:
299,166,87840,1,4,1:2:0:0:
322,165,87923,1,0,1:0:0:0:
350,179,88007,5,0,1:2:0:0:
473,316,88173,1,8,0:1:0:0:
413,287,88256,1,8,0:1:0:0:
347,291,88339,1,8,0:1:0:0:
291,325,88422,1,8,0:1:0:0:
229,347,88507,1,8,0:1:0:0:
167,329,88590,1,8,0:1:0:0:
127,277,88673,6,0,L|133:104,1,168.75,4|0,1:2|0:0,0:0:0:0:
133,86,89007,2,0,B|189:77|189:77|216:147,1,112.5,8|2,0:1|0:0,0:0:0:0:
401,323,89340,5,2,0:0:0:0:
435,319,89423,1,2,0:0:0:0:
401,304,89507,1,2,1:2:0:0:
435,300,89590,1,2,0:0:0:0:
473,276,89673,5,8,0:1:0:0:
451,314,89756,1,2,0:0:0:0:
412,335,89839,1,2,0:0:0:0:
367,334,89922,1,2,0:0:0:0:
330,310,90007,5,2,1:2:0:0:
209,312,90173,1,2,0:0:0:0:
254,306,90257,1,2,0:0:0:0:
217,332,90340,5,8,0:1:0:0:
301,170,90507,1,2,1:2:0:0:
307,215,90591,1,2,0:0:0:0:
281,178,90673,5,2,0:0:0:0:
438,193,90840,1,0,1:0:0:0:
281,178,91007,1,8,0:1:0:0:
438,193,91173,1,2,0:0:0:0:
169,64,91340,5,2,1:2:0:0:
131,190,91507,1,2,0:0:0:0:
149,242,91590,1,2,0:0:0:0:
180,195,91673,1,8,0:1:0:0:
172,54,91840,5,2,0:0:0:0:
129,196,92007,1,2,0:0:0:0:
149,255,92090,1,2,0:0:0:0:
183,202,92173,1,2,1:2:0:0:
176,43,92340,5,8,0:1:0:0:
44,140,92507,1,2,0:0:0:0:
292,182,92673,5,2,0:0:0:0:
334,165,92757,1,2,0:0:0:0:
375,183,92840,1,2,1:2:0:0:
417,166,92924,1,2,0:0:0:0:
458,184,93007,1,8,0:1:0:0:
474,199,93173,5,2,0:0:0:0:
425,176,93256,1,2,0:0:0:0:
375,197,93340,1,2,1:2:0:0:
325,175,93423,1,2,0:0:0:0:
276,195,93507,1,2,1:2:0:0:
90,262,93673,6,0,B|77:288|77:288|89:337,1,56.25,8|2,0:1|0:0,0:0:0:0:
186,335,93840,2,0,B|202:359|202:359|250:373,1,56.25,2|2,0:0|0:0,0:0:0:0:
324,336,94007,5,4,1:2:0:0:
480,228,94173,2,0,L|483:188,2,37.5,2|2|2,0:0|0:0|0:0,0:0:0:0:
479,250,94340,1,8,0:1:0:0:
331,125,94507,2,0,L|334:165,2,37.5,2|2|2,0:0|0:0|0:0,0:0:0:0:
330,103,94674,1,2,1:2:0:0:
223,109,94840,5,0,1:0:0:0:
438,89,95007,1,8,0:1:0:0:
223,109,95173,1,2,0:0:0:0:
426,196,95340,6,0,L|488:190,1,56.25,0|0,1:0|0:0,0:0:0:0:
426,277,95507,1,2,0:0:0:0:
385,268,95590,1,2,0:0:0:0:
354,239,95673,1,8,0:1:0:0:
343,199,95756,1,2,0:0:0:0:
354,159,95840,5,0,1:2:0:0:
354,209,95923,1,2,0:0:0:0:
324,248,96006,1,2,0:0:0:0:
190,237,96173,5,0,1:0:0:0:
271,179,96340,1,8,0:1:0:0:
205,329,96507,1,0,0:0:0:0:
104,198,96673,5,2,1:2:0:0:
378,226,96840,1,2,0:0:0:0:
104,198,97007,1,8,0:1:0:0:
378,226,97173,2,0,B|281:244|312:178|200:200,1,168.75,2|0,0:0|0:0,0:0:0:0:
190,204,97507,5,2,1:2:0:0:
348,156,97673,1,8,0:1:0:0:
241,270,97840,1,2,0:0:0:0:
449,350,98007,5,2,0:0:0:0:
447,338,98090,1,2,0:0:0:0:
445,326,98173,1,2,1:2:0:0:
443,314,98257,1,2,0:0:0:0:
447,295,98340,5,8,0:1:0:0:
432,278,98423,1,2,0:0:0:0:
449,263,98507,1,2,0:0:0:0:
434,246,98590,1,2,0:0:0:0:
465,224,98673,5,2,1:2:0:0:
437,204,98757,1,2,0:0:0:0:
466,188,98840,1,2,1:2:0:0:
438,168,98924,1,2,0:0:0:0:
480,137,99007,5,8,0:1:0:0:
424,131,99090,1,8,0:1:0:0:
368,125,99173,1,8,0:1:0:0:
311,119,99257,1,8,0:1:0:0:
271,55,99340,6,0,B|281:114|281:114|260:172,1,116.999994644165,4|2,1:2|0:0,0:0:0:0:
250,188,99590,1,2,0:0:0:0:
250,188,99673,1,8,0:1:0:0:
185,363,99840,1,2,0:0:0:0:
40,298,100007,1,2,0:0:0:0:
203,291,100173,1,2,1:2:0:0:
40,298,100340,5,8,0:1:0:0:
80,296,100423,1,2,0:0:0:0:
121,294,100506,1,2,0:0:0:0:
162,293,100589,1,2,0:0:0:0:
203,291,100673,5,2,1:2:0:0:
22,220,100840,1,2,0:0:0:0:
332,244,101007,5,8,0:1:0:0:
106,271,101173,1,2,1:2:0:0:
256,107,101340,6,0,B|242:132|242:132|246:182,1,58.4999973220826,2|2,0:0|0:0,0:0:0:0:
265,336,101507,1,2,0:0:0:0:
464,249,101673,6,0,B|439:235|439:235|389:239,1,58.4999973220826,8|0,0:1|0:0,0:0:0:0:
235,258,101840,1,2,0:0:0:0:
378,356,102007,6,0,L|380:228,1,116.999994644165,4|2,1:2|0:0,0:0:0:0:
305,274,102257,1,2,0:0:0:0:
305,274,102340,6,0,L|307:169,1,99.0000030212403,8|2,0:1|0:0,0:0:0:0:
232,210,102590,1,2,0:0:0:0:
232,210,102673,6,0,L|233:129,1,80.9999975280763,2|2,1:2|0:0,0:0:0:0:
159,164,102923,1,2,0:0:0:0:
159,164,103007,6,0,L|161:94,1,62.9999980773926,8|2,0:1|0:0,0:0:0:0:
162,81,103340,5,2,0:0:0:0:
191,70,103423,1,2,0:0:0:0:
222,71,103506,1,2,1:2:0:0:
251,83,103589,1,2,0:0:0:0:
264,67,103673,5,8,0:1:0:0:
226,50,103756,1,2,0:0:0:0:
186,49,103839,1,2,0:0:0:0:
148,63,103922,1,2,0:0:0:0:
129,39,104008,5,2,1:2:0:0:
179,21,104091,1,2,0:0:0:0:
231,22,104174,1,2,1:2:0:0:
280,44,104257,1,2,0:0:0:0:
328,37,104340,6,0,L|382:33,1,45,8|8,0:1|0:1,0:0:0:0:
410,222,104507,2,0,L|365:225,1,45,8|8,0:1|0:1,0:0:0:0:
252,143,104673,5,4,1:2:0:0:
65,180,104840,1,2,0:0:0:0:
65,180,104923,1,2,0:0:0:0:
65,180,105007,2,0,B|41:198|41:198|45:245,1,58.4999973220826,8|0,0:1|0:0,0:0:0:0:
52,297,105173,1,2,0:0:0:0:
210,232,105340,5,8,0:1:0:0:
237,356,105507,1,2,0:0:0:0:
210,232,105673,5,8,0:1:0:0:
237,356,105840,1,2,0:0:0:0:
314,157,106007,5,4,1:2:0:0:
351,344,106174,1,2,0:0:0:0:
351,344,106257,1,2,0:0:0:0:
351,344,106341,2,0,B|369:368|369:368|416:364,1,58.4999973220826,8|0,0:1|0:0,0:0:0:0:
468,357,106507,1,2,1:2:0:0:
407,177,106673,5,8,0:1:0:0:
209,170,106840,1,2,0:0:0:0:
115,208,107007,5,8,0:1:0:0:
313,201,107174,1,2,0:0:0:0:
123,82,107340,6,0,L|61:76,1,58.4999973220826,4|0,0:2|0:0,0:0:0:0:
41,82,107507,2,0,L|99:87,1,58.4999973220826,8|2,0:1|0:0,0:0:0:0:
116,161,107673,6,0,L|54:155,1,58.4999973220826,8|0,0:1|0:0,0:0:0:0:
34,161,107840,2,0,L|92:166,1,58.4999973220826,8|0,0:1|0:0,0:0:0:0:
109,240,108006,6,0,L|47:234,1,58.4999973220826,8|2,0:1|0:0,0:0:0:0:
27,240,108173,2,0,L|85:245,1,58.4999973220826,8|0,0:1|0:0,0:0:0:0:
102,319,108340,6,0,L|40:313,1,58.4999973220826,8|0,0:1|0:0,0:0:0:0:
20,319,108507,2,0,L|78:324,1,58.4999973220826,8|0,0:1|0:0,0:0:0:0:
257,305,108673,5,4,1:2:0:0:
294,272,108756,1,8,0:1:0:0:
342,259,108839,1,8,0:1:0:0:
391,268,108922,1,8,0:1:0:0:
432,296,109007,5,8,0:1:0:0:
385,280,109090,1,8,0:1:0:0:
353,242,109173,1,8,0:1:0:0:
346,193,109256,1,8,0:1:0:0:
365,147,109340,5,8,0:1:0:0:
395,108,109423,1,8,0:1:0:0:
391,59,109506,1,8,0:1:0:0:
358,23,109589,1,8,0:1:0:0:
309,18,109673,5,8,0:1:0:0:
353,43,109756,1,8,0:1:0:0:
402,51,109839,1,8,0:1:0:0:
451,43,109922,1,8,0:1:0:0:
494,16,110007,6,0,L|496:36,1,18,4|0,1:2|0:0,0:0:0:0:
485,108,110340,2,0,L|487:128,1,18,2|2,0:0|0:0,0:0:0:0:
469,199,110673,2,0,L|471:219,1,18,0|2,3:0|0:0,0:0:0:0:
460,291,111006,2,0,L|462:311,1,18,2|2,0:0|0:0,0:0:0:0:
381,356,111340,5,0,0:0:0:0:
311,335,111507,1,2,0:0:0:0:
269,275,111673,1,0,0:0:0:0:
274,202,111840,1,2,0:0:0:0:
323,148,112006,5,0,0:0:0:0:
302,217,112173,1,2,0:0:0:0:
242,259,112339,1,2,0:0:0:0:
169,254,112506,1,2,0:0:0:0:
115,206,112673,6,0,L|92:209,1,18,0|2,0:0|0:0,0:0:0:0:
209,174,113007,2,0,L|186:177,1,18,0|2,0:0|0:0,0:0:0:0:
303,142,113340,2,0,L|280:145,1,18,2|0,0:0|0:0,0:0:0:0:
397,110,113673,2,0,L|374:113,1,18,2|0,0:0|0:0,0:0:0:0:
480,76,114007,5,0,0:0:0:0:
465,178,114173,1,2,0:0:0:0:
473,79,114340,1,0,0:0:0:0:
458,181,114506,1,2,0:0:0:0:
385,256,114673,5,0,0:0:0:0:
400,358,114839,1,2,0:0:0:0:
394,260,115006,1,0,0:0:0:0:
409,362,115173,1,2,0:0:0:0:
