osu file format v14

[General]
AudioFilename: audio.mp3
AudioLeadIn: 0
PreviewTime: 124
Countdown: 0
SampleSet: Normal
StackLeniency: 0.7
Mode: 1
LetterboxInBreaks: 0
WidescreenStoryboard: 1

[Editor]
DistanceSpacing: 0.7
BeatDivisor: 4
GridSize: 16
TimelineZoom: 1.8

[Metadata]
Title:Faithtival
TitleUnicode:Faithtival
Artist:Eisyo-kobu
ArtistUnicode:影翔鼓舞
Creator:Nao Tomori
Version:Futsuu
Source:Dynamix
Tags:kagetora. 影虎。一白隼翔 d&b eisyokobu rhythm game electronic dnb oriental instrumental taiko enneya een persoon HEAVENLY MOON ginjani
BeatmapID:3721765
BeatmapSetID:1813733

[Difficulty]
HPDrainRate:7
CircleSize:5
OverallDifficulty:4
ApproachRate:5
SliderMultiplier:1.4
SliderTickRate:3

[Events]
//Background and Video events
0,0,"99678306_p0.jpg",0,50
//Break Periods
//Storyboard Layer 0 (Background)
//Storyboard Layer 1 (Fail)
//Storyboard Layer 2 (Pass)
//Storyboard Layer 3 (Foreground)
//Storyboard Layer 4 (Overlay)
//Storyboard Sound Samples

[TimingPoints]
-4510,315.789473684211,4,1,0,50,1,0
143,-100,4,1,0,50,0,0
262,-100,4,1,0,50,0,0
340,-100,4,1,0,50,0,0
419,-100,4,1,0,50,0,0
498,-100,4,1,0,70,0,0
617,-100,4,1,0,50,0,0
972,-100,4,1,0,70,0,0
1090,-100,4,1,0,50,0,0
1880,-100,4,1,0,50,0,0
3025,-100,4,1,0,70,0,0
3143,-100,4,1,0,50,0,0
5551,-100,4,1,0,70,0,0
5669,-100,4,1,0,50,0,0
8354,-100,4,1,0,55,0,0
8709,-100,4,1,0,60,0,0
8867,-100,4,1,0,65,0,0
8985,-100,4,1,0,65,0,0
9143,-100,4,1,0,65,0,0
9301,-100,4,1,0,65,0,0
9893,-100,4,1,0,65,0,0
9972,-100,4,1,0,65,0,0
10051,-100,4,1,0,65,0,0
10130,-100,4,1,0,65,0,0
10209,-100,4,1,0,65,0,0
10288,-100,4,1,0,65,0,0
10367,-100,4,1,0,65,0,0
10446,-100,4,1,0,65,0,0
10525,-100,4,1,0,65,0,0
10604,-100,4,1,0,70,0,0
40446,-100,4,1,0,70,0,0
40643,-100,4,1,0,70,0,0
40840,-100,4,1,0,70,0,0
41038,-100,4,1,0,50,0,0
43367,-100,4,1,0,60,0,0
44196,-100,4,1,0,50,0,0
45893,-100,4,1,0,60,0,0
46495,-100,4,1,0,50,0,0
48419,-100,4,1,0,70,0,0
49683,-100,4,1,0,70,0,0
50354,-100,4,1,0,70,0,0
50472,-100,4,1,0,70,0,0
50551,-100,4,1,0,70,0,0
50630,-100,4,1,0,70,0,0
50709,-100,4,1,0,70,0,0
50788,-100,4,1,0,70,0,0
50867,-100,4,1,0,70,0,0
50946,-100,4,1,0,70,0,0
51025,-100,4,1,0,70,0,0
51143,-100,4,1,0,5,0,0
51301,-100,4,1,0,5,0,0
52248,-100,4,1,0,65,0,0
53235,-100,4,1,0,65,0,0
53314,-100,4,1,0,65,0,0
53393,-100,4,1,0,65,0,0
53472,-100,4,1,0,65,0,0
53551,-100,4,1,0,70,0,0
53595,315.789473684211,4,1,0,70,1,0
53595,-100,4,1,0,70,0,0
83910,-100,4,1,0,80,0,1
93976,-100,4,1,0,90,0,1
94016,-100,4,1,0,90,0,0

[HitObjects]
232,164,543,5,4,0:0:0:0:
232,164,1017,1,4,0:0:0:0:
232,164,1806,1,8,0:0:0:0:
232,164,3069,1,4,0:0:0:0:
232,164,4332,1,8,0:0:0:0:
232,164,4648,1,8,0:0:0:0:
232,164,4964,1,8,0:0:0:0:
232,164,5280,1,8,0:0:0:0:
232,164,5438,1,0,0:0:0:0:
232,164,5595,1,4,0:0:0:0:
267,235,6068,1,0,0:0:0:0:
232,164,6859,1,8,0:0:0:0:
232,164,8122,1,0,0:0:0:0:
231,164,8438,1,8,0:0:0:0:
231,164,8753,1,8,0:0:0:0:
231,164,9069,1,8,0:0:0:0:
230,164,9385,1,0,0:0:0:0:
230,164,9543,1,8,0:0:0:0:
230,164,9701,1,8,0:0:0:0:
230,164,10017,1,0,0:0:0:0:
230,164,10174,1,8,0:0:0:0:
230,164,10332,1,0,0:0:0:0:
230,164,10490,1,0,0:0:0:0:
230,164,10648,1,12,0:0:0:0:
208,194,11122,1,0,0:0:0:0:
220,173,11595,1,8,0:0:0:0:
222,180,11911,1,0,0:0:0:0:
222,180,12069,1,0,0:0:0:0:
222,180,12227,1,8,0:0:0:0:
222,180,12543,1,0,0:0:0:0:
222,180,12859,1,0,0:0:0:0:
212,133,13174,1,8,0:0:0:0:
257,148,13648,1,0,0:0:0:0:
257,148,13806,1,8,0:0:0:0:
252,146,14122,1,8,0:0:0:0:
243,144,14438,1,0,0:0:0:0:
243,144,14595,1,8,0:0:0:0:
243,144,14753,1,0,0:0:0:0:
243,144,14911,1,0,0:0:0:0:
237,145,15069,1,8,0:0:0:0:
235,143,15701,1,4,0:0:0:0:
240,153,16174,1,0,0:0:0:0:
240,152,16648,1,8,0:0:0:0:
240,152,16806,1,8,0:0:0:0:
240,152,16964,1,0,0:0:0:0:
239,154,17280,1,8,0:0:0:0:
238,153,17595,1,0,0:0:0:0:
238,153,17911,1,8,0:0:0:0:
238,152,18227,1,12,0:0:0:0:
238,152,18701,1,0,0:0:0:0:
238,152,19174,1,8,0:0:0:0:
222,159,19490,1,4,0:0:0:0:
245,176,19806,1,8,0:0:0:0:
242,174,20122,1,0,0:0:0:0:
236,133,20359,1,0,0:0:0:0:
236,133,20595,1,0,0:0:0:0:
229,131,20753,1,12,0:0:0:0:
201,174,21385,1,8,0:0:0:0:
194,167,22017,1,0,0:0:0:0:
220,127,22332,1,0,0:0:0:0:
169,138,22648,1,0,0:0:0:0:
167,139,22964,1,0,0:0:0:0:
166,139,23280,1,8,0:0:0:0:
164,139,23595,1,0,0:0:0:0:
221,85,23753,1,0,0:0:0:0:
163,133,23911,1,8,0:0:0:0:
160,138,24227,1,0,0:0:0:0:
161,135,24543,1,8,0:0:0:0:
214,106,24701,1,8,0:0:0:0:
214,106,24859,1,0,0:0:0:0:
210,104,25174,1,0,0:0:0:0:
209,101,25490,1,8,0:0:0:0:
209,102,25806,1,0,0:0:0:0:
244,115,26280,1,0,0:0:0:0:
240,127,26753,1,8,0:0:0:0:
238,127,27069,1,0,0:0:0:0:
238,127,27385,1,8,0:0:0:0:
238,127,27701,1,8,0:0:0:0:
238,127,28017,1,8,0:0:0:0:
238,127,28332,1,0,0:0:0:0:
238,127,28964,1,8,0:0:0:0:
235,137,29595,1,0,0:0:0:0:
246,144,29911,1,8,0:0:0:0:
246,144,30227,1,8,0:0:0:0:
240,122,30385,1,0,0:0:0:0:
263,135,30543,1,0,0:0:0:0:
249,139,30859,1,12,0:0:0:0:
212,142,31174,1,8,0:0:0:0:
248,138,31490,1,8,0:0:0:0:
172,105,31648,1,0,0:0:0:0:
172,105,31806,1,8,0:0:0:0:
172,105,31964,1,8,0:0:0:0:
172,105,32122,1,0,0:0:0:0:
231,130,32438,1,8,0:0:0:0:
209,127,32753,1,0,0:0:0:0:
209,127,33385,1,8,0:0:0:0:
209,127,33859,1,8,0:0:0:0:
241,131,34017,1,8,0:0:0:0:
241,131,34332,1,0,0:0:0:0:
233,89,34490,1,8,0:0:0:0:
226,117,34648,1,0,0:0:0:0:
216,121,34964,1,0,0:0:0:0:
216,120,35280,1,8,0:0:0:0:
215,112,35595,1,8,0:0:0:0:
205,115,35911,1,4,0:0:0:0:
203,113,36543,1,8,0:0:0:0:
207,124,36859,1,0,0:0:0:0:
207,122,37174,1,8,0:0:0:0:
207,119,37490,1,8,0:0:0:0:
207,119,37806,1,0,0:0:0:0:
207,119,38122,1,0,0:0:0:0:
207,118,38438,1,12,0:0:0:0:
231,179,39069,1,0,0:0:0:0:
221,167,39226,1,8,0:0:0:0:
217,161,39543,1,8,0:0:0:0:
125,199,39700,2,4,P|152:222|162:43,1,420,0|0,0:0|0:0,0:0:0:0:
218,155,40964,1,4,0:0:0:0:
269,182,43490,1,0,0:0:0:0:
270,182,43963,1,0,0:0:0:0:
270,182,46016,5,12,0:0:0:0:
201,159,48543,5,4,0:0:0:0:
201,158,48859,1,8,0:0:0:0:
201,158,49174,1,0,0:0:0:0:
201,157,49490,1,8,0:0:0:0:
201,157,49806,1,4,0:0:0:0:
201,158,50122,1,0,0:0:0:0:
256,192,50437,12,0,51068,0:0:0:0:
254,192,53595,5,12,0:0:0:0:
247,119,53911,1,8,0:0:0:0:
234,133,54069,1,8,0:0:0:0:
234,133,54227,1,0,0:0:0:0:
234,133,54385,1,0,0:0:0:0:
230,129,54543,1,8,0:0:0:0:
206,148,54859,1,0,0:0:0:0:
196,126,55174,1,8,0:0:0:0:
196,126,55490,1,0,0:0:0:0:
196,126,55648,1,8,0:0:0:0:
194,130,55806,1,0,0:0:0:0:
194,130,55964,1,8,0:0:0:0:
194,130,56122,1,0,0:0:0:0:
195,124,56753,1,8,0:0:0:0:
195,124,56911,1,8,0:0:0:0:
199,118,57069,1,0,0:0:0:0:
199,118,57227,1,8,0:0:0:0:
199,118,57385,1,0,0:0:0:0:
199,119,57701,1,0,0:0:0:0:
199,121,58017,1,0,0:0:0:0:
187,138,58332,1,0,0:0:0:0:
185,136,58648,1,8,0:0:0:0:
186,137,59280,1,0,0:0:0:0:
186,137,59911,1,8,0:0:0:0:
186,137,60227,1,8,0:0:0:0:
186,137,60543,1,0,0:0:0:0:
186,137,60701,1,0,0:0:0:0:
186,137,60859,1,8,0:0:0:0:
186,138,61174,1,0,0:0:0:0:
185,139,61490,1,8,0:0:0:0:
185,139,61806,1,0,0:0:0:0:
185,139,61964,1,0,0:0:0:0:
185,139,62122,1,8,0:0:0:0:
185,134,62438,1,0,0:0:0:0:
185,134,62753,1,8,0:0:0:0:
185,134,63069,1,0,0:0:0:0:
185,134,63227,1,0,0:0:0:0:
185,134,63385,1,8,0:0:0:0:
185,134,63543,1,8,0:0:0:0:
185,134,63701,1,4,0:0:0:0:
184,138,64332,1,0,0:0:0:0:
200,137,64648,1,8,0:0:0:0:
200,137,64806,1,0,0:0:0:0:
200,137,64964,1,8,0:0:0:0:
201,138,65280,1,0,0:0:0:0:
201,138,65595,1,0,0:0:0:0:
201,138,65911,1,8,0:0:0:0:
201,138,66227,1,8,0:0:0:0:
201,140,66859,1,0,0:0:0:0:
201,140,67017,1,8,0:0:0:0:
201,140,67174,1,8,0:0:0:0:
201,140,67332,1,8,0:0:0:0:
201,140,67490,1,0,0:0:0:0:
199,140,67806,1,8,0:0:0:0:
193,142,68122,1,0,0:0:0:0:
193,142,68280,1,0,0:0:0:0:
193,142,68438,1,8,0:0:0:0:
193,142,68753,1,0,0:0:0:0:
193,140,69227,1,0,0:0:0:0:
193,139,69543,1,0,0:0:0:0:
193,139,69701,1,8,0:0:0:0:
188,133,70017,1,0,0:0:0:0:
188,133,70332,1,8,0:0:0:0:
188,133,70490,1,8,0:0:0:0:
188,133,70648,1,8,0:0:0:0:
188,135,70964,1,0,0:0:0:0:
188,135,71280,1,12,0:0:0:0:
188,134,71753,1,0,0:0:0:0:
188,134,72069,1,0,0:0:0:0:
188,134,72227,1,8,0:0:0:0:
188,133,72543,1,4,0:0:0:0:
188,133,73174,1,0,0:0:0:0:
188,133,73411,1,0,0:0:0:0:
188,133,73648,1,0,0:0:0:0:
188,133,73806,1,12,0:0:0:0:
189,128,74122,1,8,0:0:0:0:
249,123,74280,1,0,0:0:0:0:
249,123,74438,1,8,0:0:0:0:
236,126,74753,1,0,0:0:0:0:
230,121,75069,1,0,0:0:0:0:
230,120,75385,1,8,0:0:0:0:
230,118,75701,1,0,0:0:0:0:
230,118,75859,1,0,0:0:0:0:
231,113,76017,1,8,0:0:0:0:
231,113,76174,1,0,0:0:0:0:
231,113,76332,1,8,0:0:0:0:
230,113,76648,1,8,0:0:0:0:
221,113,76964,1,0,0:0:0:0:
221,113,77122,1,0,0:0:0:0:
221,113,77280,1,8,0:0:0:0:
209,106,77595,1,0,0:0:0:0:
204,107,78227,1,8,0:0:0:0:
204,107,78543,1,0,0:0:0:0:
204,107,78859,1,8,0:0:0:0:
204,107,79017,1,0,0:0:0:0:
204,107,79174,1,8,0:0:0:0:
204,117,79490,1,0,0:0:0:0:
203,120,79806,1,8,0:0:0:0:
200,120,80122,1,0,0:0:0:0:
200,120,80280,1,0,0:0:0:0:
200,120,80438,1,8,0:0:0:0:
200,119,80753,1,0,0:0:0:0:
200,120,81069,1,8,0:0:0:0:
200,120,81385,1,8,0:0:0:0:
200,120,81859,1,0,0:0:0:0:
198,113,82174,1,0,0:0:0:0:
198,113,82332,1,8,0:0:0:0:
189,115,82490,1,8,0:0:0:0:
189,115,82648,1,0,0:0:0:0:
187,117,83280,1,0,0:0:0:0:
187,117,83595,1,8,0:0:0:0:
187,117,83753,1,8,0:0:0:0:
187,122,83911,1,4,0:0:0:0:
189,123,84227,1,8,0:0:0:0:
251,156,84385,1,0,0:0:0:0:
249,152,84701,1,0,0:0:0:0:
168,123,84859,1,8,0:0:0:0:
168,123,85017,1,8,0:0:0:0:
168,123,85174,1,0,0:0:0:0:
170,122,85490,1,8,0:0:0:0:
170,117,85806,1,0,0:0:0:0:
170,117,85964,1,8,0:0:0:0:
170,117,86122,1,0,0:0:0:0:
170,117,86280,1,0,0:0:0:0:
170,117,86438,1,8,0:0:0:0:
170,116,87069,1,0,0:0:0:0:
170,116,87227,1,8,0:0:0:0:
170,116,87385,1,0,0:0:0:0:
170,116,87543,1,8,0:0:0:0:
170,116,87701,1,0,0:0:0:0:
166,115,88017,1,8,0:0:0:0:
166,115,88332,1,0,0:0:0:0:
166,115,88490,1,0,0:0:0:0:
166,115,88648,1,8,0:0:0:0:
166,115,88964,1,4,0:0:0:0:
166,116,89280,1,8,0:0:0:0:
166,116,89438,1,0,0:0:0:0:
166,116,89753,1,0,0:0:0:0:
166,116,89911,1,8,0:0:0:0:
166,115,90227,1,4,0:0:0:0:
166,115,90859,1,0,0:0:0:0:
166,115,91174,1,0,0:0:0:0:
166,115,91332,1,0,0:0:0:0:
166,115,91490,1,12,0:0:0:0:
190,104,91964,1,12,0:0:0:0:
190,104,92438,1,12,0:0:0:0:
200,156,92753,1,4,0:0:0:0:
249,158,93069,1,0,0:0:0:0:
245,158,93385,1,8,0:0:0:0:
198,144,93543,1,8,0:0:0:0:
216,152,93701,1,8,0:0:0:0:
216,152,93859,1,8,0:0:0:0:
216,152,94017,1,4,0:0:0:0:
