osu file format v14

[General]
AudioFilename: 8.mp3
AudioLeadIn: 0
PreviewTime: 22007
Countdown: 0
SampleSet: Normal
StackLeniency: 0.7
Mode: 0
LetterboxInBreaks: 1
WidescreenStoryboard: 0

[Editor]
Bookmarks: 35007,40840,50507
DistanceSpacing: 1
BeatDivisor: 4
GridSize: 4
TimelineZoom: 2.899999

[Metadata]
Title:Oriental Blossom
TitleUnicode:Oriental Blossom
Artist:Eishoukobu
ArtistUnicode:影翔鼓舞
Creator:[ Drop ]
Version:Extra
Source:
Tags:3# Newspaper Cup [Mahua]
BeatmapID:1967356
BeatmapSetID:942191

[Difficulty]
HPDrainRate:6
CircleSize:4
OverallDifficulty:8
ApproachRate:9.4
SliderMultiplier:1.9
SliderTickRate:1

[Events]
//Background and Video events
0,0,"qlwnl1.jpg",0,0
//Break Periods
//Storyboard Layer 0 (Background)
//Storyboard Layer 1 (Fail)
//Storyboard Layer 2 (Pass)
//Storyboard Layer 3 (Foreground)
//Storyboard Sound Samples

[TimingPoints]
674,333.333333333333,4,1,1,30,1,0
674,-125,4,1,1,30,0,0
6007,-100,4,1,1,100,0,0
8673,-100,4,1,1,90,0,0
9007,-100,4,1,1,80,0,0
9340,-100,4,1,1,70,0,0
9673,-100,4,1,1,60,0,0
10007,-100,4,1,1,50,0,0
10840,-100,4,1,1,80,0,0
11007,-58.8235294117647,4,1,1,100,0,0
11340,-100,4,1,1,100,0,0
22007,-90.9090909090909,4,1,1,100,0,0
32673,-100,4,1,1,100,0,0
54007,-200,4,1,1,100,0,0
59340,-100,4,1,1,100,0,0
67340,-100,4,1,1,100,0,1
110007,-133.333333333333,4,1,1,100,0,0

[Colours]
Combo1 : 255,0,255
Combo2 : 255,128,255
Combo3 : 255,128,192

[HitObjects]
60,60,674,6,0,L|136:52,1,76
248,156,1007,2,0,L|172:148,1,76
304,28,1340,5,0,0:0:0:0:
328,180,1507,1,0,0:0:0:0:
456,88,1673,1,0,0:0:0:0:
432,240,1840,1,0,0:0:0:0:
332,344,2007,6,0,P|288:340|256:312,1,76
168,224,2340,2,0,P|199:203|236:201,1,76
80,372,2673,5,0,0:0:0:0:
88,272,2840,1,0,0:0:0:0:
16,192,3007,1,0,0:0:0:0:
24,92,3174,1,0,0:0:0:0:
160,24,3340,6,0,L|236:20,1,76
308,100,3673,2,0,L|384:96,1,76
512,196,4007,5,0,0:0:0:0:
396,188,4173,1,0,0:0:0:0:
380,356,4340,1,0,0:0:0:0:
264,364,4506,1,0,0:0:0:0:
180,272,4673,6,0,P|142:271|107:286,1,76
0,156,5007,2,0,P|37:155|72:170,1,76
232,48,5340,1,0,0:0:0:0:
104,68,5507,1,0,0:0:0:0:
196,184,5673,1,0,0:0:0:0:
324,164,5840,1,0,0:0:0:0:
484,352,6007,6,0,P|424:292|308:320,1,190
32,328,6673,2,0,B|160:308|96:380|224:356,1,190
248,164,7340,6,0,B|120:144|184:216|56:192,1,190
196,24,8007,1,0,0:0:0:0:
372,136,8340,1,0,0:0:0:0:
384,144,8673,5,0,0:0:0:0:
484,244,8840,1,0,0:0:0:0:
416,24,9007,1,0,0:0:0:0:
260,193,9173,1,0,0:0:0:0:
48,48,9340,5,0,0:0:0:0:
184,32,9507,1,0,0:0:0:0:
264,276,9673,1,0,0:0:0:0:
400,292,9840,1,0,0:0:0:0:
504,120,10007,5,0,0:0:0:0:
264,136,10173,1,0,0:0:0:0:
384,128,10340,1,0,0:0:0:0:
144,144,10506,1,0,0:0:0:0:
132,152,10840,6,0,P|109:151|85:145,1,47.5
16,280,11007,6,0,B|124:260|76:320|196:296,1,161.500003080368
248,280,11257,1,0,0:0:0:0:
272,260,11340,6,0,P|267:323|268:360,1,95
468,272,11673,2,0,P|472:224|472:177,1,95
472,177,11923,1,0,0:0:0:0:
472,177,12006,1,0,0:0:0:0:
232,120,12173,1,0,0:0:0:0:
356,264,12340,1,0,0:0:0:0:
392,60,12507,1,0,0:0:0:0:
168,240,12673,6,0,P|143:235|112:232,1,47.5
48,76,12840,2,0,P|71:73|94:68,1,47.5
284,176,13007,1,0,0:0:0:0:
68,312,13173,1,0,0:0:0:0:
39,274,13256,1,0,0:0:0:0:
32,228,13339,1,0,0:0:0:0:
48,184,13423,1,0,0:0:0:0:
83,153,13506,1,0,0:0:0:0:
256,356,13673,2,0,L|161:365,1,95
372,220,14007,6,0,P|431:223|476:236,1,95
412,332,14340,1,0,0:0:0:0:
432,80,14507,1,0,0:0:0:0:
400,115,14590,1,0,0:0:0:0:
359,138,14673,1,0,0:0:0:0:
312,145,14757,1,0,0:0:0:0:
266,137,14840,1,0,0:0:0:0:
60,64,15007,1,0,0:0:0:0:
196,8,15173,1,0,0:0:0:0:
224,280,15340,6,0,P|221:249|213:214,1,47.5
64,364,15507,2,0,P|61:333|53:298,1,47.5
108,176,15673,1,0,0:0:0:0:
172,360,15840,1,0,0:0:0:0:
214,375,15923,1,0,0:0:0:0:
263,371,16007,6,0,P|287:363|325:359,1,47.5
436,216,16173,2,0,P|460:224|498:228,1,47.5
256,256,16340,1,0,0:0:0:0:
432,356,16507,1,0,0:0:0:0:
488,104,16673,6,0,L|388:112,1,95
144,44,17007,2,0,L|244:36,1,95
256,20,17257,1,0,0:0:0:0:
266,66,17340,1,0,0:0:0:0:
270,113,17423,1,0,0:0:0:0:
270,161,17506,1,0,0:0:0:0:
48,232,17673,2,0,P|48:188|64:116,1,95
240,336,18007,5,0,0:0:0:0:
12,352,18173,1,0,0:0:0:0:
236,240,18340,2,0,L|344:248,1,95
396,212,18590,1,0,0:0:0:0:
412,192,18673,2,0,P|415:159|424:124,1,47.5
284,108,18840,2,0,P|288:131|289:155,1,47.5
332,340,19007,1,0,0:0:0:0:
484,232,19173,1,0,0:0:0:0:
348,44,19340,5,0,0:0:0:0:
305,23,19423,1,0,0:0:0:0:
258,24,19506,1,0,0:0:0:0:
218,49,19589,1,0,0:0:0:0:
195,89,19673,1,0,0:0:0:0:
120,256,19840,1,0,0:0:0:0:
72,72,20007,1,0,0:0:0:0:
260,232,20173,1,0,0:0:0:0:
96,336,20340,2,0,P|46:339|-4:348,1,95
144,143,20673,6,0,P|141:167|135:190,1,47.5
260,376,20840,2,0,P|253:353|251:329,1,47.5
368,196,21007,1,0,0:0:0:0:
156,276,21173,1,0,0:0:0:0:
444,304,21340,6,0,P|469:309|508:312,1,47.5
288,136,21507,2,0,P|262:141|224:144,1,47.5
356,372,21673,2,0,P|358:323|364:268,1,95
484,60,22007,6,0,B|436:24|380:52|380:52|328:80|280:44,1,209.000006378174
40,120,22507,1,0,0:0:0:0:
148,32,22673,5,0,0:0:0:0:
178,73,22756,1,0,0:0:0:0:
186,124,22839,1,0,0:0:0:0:
170,173,22922,1,0,0:0:0:0:
139,214,23006,1,0,0:0:0:0:
142,265,23089,1,0,0:0:0:0:
179,300,23172,1,0,0:0:0:0:
230,301,23256,1,0,0:0:0:0:
269,268,23340,6,0,P|273:204|280:160,1,104.500003189087
468,148,23590,1,0,0:0:0:0:
456,168,23673,2,0,P|398:196|356:212,1,104.500003189087
252,55,23924,1,0,0:0:0:0:
275,56,24007,2,0,P|328:91|363:119,1,104.500003189087
72,216,24340,1,0,0:0:0:0:
104,76,24507,1,0,0:0:0:0:
269,268,24673,5,0,0:0:0:0:
136,348,24840,1,0,0:0:0:0:
83,346,24923,1,0,0:0:0:0:
32,335,25006,1,0,0:0:0:0:
308,192,25173,5,0,0:0:0:0:
120,328,25340,1,0,0:0:0:0:
69,316,25423,1,0,0:0:0:0:
20,297,25506,1,0,0:0:0:0:
332,112,25673,5,0,0:0:0:0:
260,374,25840,1,0,0:0:0:0:
68,181,26007,5,0,0:0:0:0:
103,109,26090,1,0,0:0:0:0:
179,124,26174,1,0,0:0:0:0:
187,202,26257,1,0,0:0:0:0:
118,234,26340,2,0,P|60:224|8:208,1,104.500003189087
16,211,26590,1,0,0:0:0:0:
16,211,26673,5,0,0:0:0:0:
156,44,26840,1,0,0:0:0:0:
272,320,27007,1,0,0:0:0:0:
321,334,27090,1,0,0:0:0:0:
372,324,27173,1,0,0:0:0:0:
412,292,27256,1,0,0:0:0:0:
433,245,27340,6,0,P|431:181|420:128,1,104.500003189087
272,80,27590,1,0,0:0:0:0:
256,104,27673,2,0,P|258:168|269:221,1,104.500003189087
286,222,27923,1,0,0:0:0:0:
308,237,28006,1,0,0:0:0:0:
352,12,28173,1,0,0:0:0:0:
184,168,28340,2,0,L|108:164,1,52.2500015945435
0,160,28506,1,0,0:0:0:0:
128,32,28673,5,0,0:0:0:0:
0,304,28840,1,0,0:0:0:0:
41,273,28923,1,0,0:0:0:0:
92,271,29006,1,0,0:0:0:0:
135,300,29089,1,0,0:0:0:0:
177,327,29173,1,0,0:0:0:0:
228,326,29256,1,0,0:0:0:0:
270,295,29339,5,0,0:0:0:0:
468,192,29507,1,0,0:0:0:0:
208,124,29673,2,0,P|201:175|199:227,1,104.500003189087
424,352,30007,5,0,0:0:0:0:
336,108,30173,1,0,0:0:0:0:
320,296,30340,1,0,0:0:0:0:
460,76,30507,2,0,B|420:80|384:64|384:64|332:84|332:84|300:68|248:72,1,209.000006378174
20,28,31007,2,0,P|80:24|140:4,1,104.500003189087
220,216,31340,6,0,P|215:246|214:270,1,52.2500015945435
4,356,31507,1,0,0:0:0:0:
12,324,31590,2,0,P|10:297|5:272,1,52.2500015945435
120,100,31757,1,0,0:0:0:0:
109,132,31840,2,0,L|106:218,1,52.2500015945435
160,348,32007,5,0,0:0:0:0:
208,364,32090,1,0,0:0:0:0:
259,355,32173,1,0,0:0:0:0:
298,321,32256,1,0,0:0:0:0:
315,272,32340,2,0,L|312:228,6,26.1250007972718
292,212,32673,6,0,P|350:212|418:228,1,95
386,218,32923,1,0,0:0:0:0:
386,218,33007,1,0,0:0:0:0:
364,24,33173,1,0,0:0:0:0:
330,57,33256,1,0,0:0:0:0:
287,76,33339,1,0,0:0:0:0:
240,79,33423,1,0,0:0:0:0:
195,64,33506,1,0,0:0:0:0:
0,212,33673,1,0,0:0:0:0:
240,172,33840,1,0,0:0:0:0:
64,24,34007,6,0,P|64:76|72:128,1,95
69,118,34257,1,0,0:0:0:0:
69,118,34340,1,0,0:0:0:0:
192,284,34507,1,0,0:0:0:0:
147,267,34590,1,0,0:0:0:0:
101,272,34673,1,0,0:0:0:0:
61,297,34757,1,0,0:0:0:0:
36,337,34840,1,0,0:0:0:0:
287,352,35007,2,0,P|292:304|286:257,1,95
396,63,35340,6,0,P|391:111|397:158,1,95
397,158,35590,1,0,0:0:0:0:
397,158,35673,1,0,0:0:0:0:
492,112,35840,1,0,0:0:0:0:
304,0,36007,1,0,0:0:0:0:
277,38,36090,1,0,0:0:0:0:
236,63,36173,1,0,0:0:0:0:
189,68,36257,1,0,0:0:0:0:
144,54,36340,2,0,L|136:-8,1,47.5
44,160,36507,2,0,L|36:98,1,47.5
220,228,36673,6,0,P|172:233|127:248,1,95
127,248,36924,1,0,0:0:0:0:
127,248,37007,1,0,0:0:0:0:
340,192,37173,1,0,0:0:0:0:
152,136,37340,1,0,0:0:0:0:
284,348,37507,1,0,0:0:0:0:
468,200,37673,1,0,0:0:0:0:
489,158,37756,1,0,0:0:0:0:
489,111,37839,1,0,0:0:0:0:
465,71,37923,1,0,0:0:0:0:
425,47,38007,6,0,L|328:56,1,95
192,176,38257,1,0,0:0:0:0:
220,196,38340,2,0,L|317:187,1,95
314,187,38590,1,0,0:0:0:0:
314,187,38673,1,0,0:0:0:0:
87,26,38840,1,0,0:0:0:0:
87,26,38923,1,0,0:0:0:0:
87,26,39007,2,0,P|76:72|72:120,1,95
180,264,39340,5,0,0:0:0:0:
220,108,39507,1,0,0:0:0:0:
44,281,39673,1,0,0:0:0:0:
282,347,39840,1,0,0:0:0:0:
328,344,39923,1,0,0:0:0:0:
368,318,40006,1,0,0:0:0:0:
390,277,40090,1,0,0:0:0:0:
389,230,40173,1,0,0:0:0:0:
264,80,40340,5,0,0:0:0:0:
300,264,40507,1,0,0:0:0:0:
512,152,40673,2,0,P|465:144|420:128,1,95
108,288,41007,2,0,P|155:296|200:312,1,95
224,336,41257,1,0,0:0:0:0:
219,288,41340,1,0,0:0:0:0:
214,241,41423,1,0,0:0:0:0:
209,194,41507,1,0,0:0:0:0:
334,351,41673,1,0,0:0:0:0:
136,380,41840,1,0,0:0:0:0:
148,128,42007,5,0,0:0:0:0:
189,105,42090,1,0,0:0:0:0:
236,108,42173,1,0,0:0:0:0:
274,135,42257,1,0,0:0:0:0:
315,157,42340,1,0,0:0:0:0:
362,154,42423,1,0,0:0:0:0:
400,127,42507,2,0,L|408:64,1,47.5
512,284,42673,5,0,0:0:0:0:
478,211,42757,1,0,0:0:0:0:
398,220,42840,1,0,0:0:0:0:
381,298,42923,1,0,0:0:0:0:
451,339,43007,2,0,L|480:356,6,23.75
432,352,43340,6,0,B|397:358|365:347|365:347|314:360|314:360|281:347|231:356,1,190
96,288,43840,1,0,0:0:0:0:
268,72,44007,2,0,P|278:142|276:213,1,142.5
264,240,44340,2,0,P|315:233|372:236,1,95
472,52,44673,6,0,P|424:53|377:46,1,95
377,46,44923,1,0,0:0:0:0:
377,46,45007,1,0,0:0:0:0:
444,276,45173,2,0,P|450:229|449:181,1,95
266,359,45507,1,0,0:0:0:0:
508,336,45673,1,0,0:0:0:0:
364,136,45840,1,0,0:0:0:0:
108,292,46007,6,0,B|147:332|196:316|196:316|228:272|289:282,1,190
176,120,46507,1,0,0:0:0:0:
152,160,46590,1,0,0:0:0:0:
156,206,46673,1,0,0:0:0:0:
266,359,46840,1,0,0:0:0:0:
336,208,47007,2,0,P|291:180|219:184,1,95
40,87,47340,5,0,0:0:0:0:
84,102,47423,1,0,0:0:0:0:
131,96,47506,1,0,0:0:0:0:
171,72,47590,1,0,0:0:0:0:
198,33,47673,1,0,0:0:0:0:
96,0,47840,1,0,0:0:0:0:
12,232,48007,5,0,0:0:0:0:
56,216,48090,1,0,0:0:0:0:
103,222,48173,1,0,0:0:0:0:
143,246,48257,1,0,0:0:0:0:
170,285,48340,1,0,0:0:0:0:
197,324,48423,1,0,0:0:0:0:
237,348,48507,1,0,0:0:0:0:
284,354,48590,1,0,0:0:0:0:
328,338,48673,5,0,0:0:0:0:
468,168,48840,1,0,0:0:0:0:
444,372,49007,1,0,0:0:0:0:
344,184,49173,2,0,P|344:128|356:80,1,95
512,292,49507,1,0,0:0:0:0:
292,368,49673,2,0,P|251:331|143:343,1,142.5
144,352,50007,6,0,L|44:344,1,95
248,248,50340,1,0,0:0:0:0:
0,172,50507,1,0,0:0:0:0:
47,169,50590,1,0,0:0:0:0:
93,159,50673,1,0,0:0:0:0:
216,20,50840,1,0,0:0:0:0:
260,264,51007,2,0,P|208:256|156:254,1,95
320,128,51340,6,0,P|404:136|476:36,1,190
216,28,51840,1,0,0:0:0:0:
202,73,51923,1,0,0:0:0:0:
197,120,52007,2,0,P|200:188|208:228,1,95
404,348,52340,2,0,P|411:301|411:253,1,95
104,336,52676,5,0,0:0:0:0:
131,351,52759,1,0,0:0:0:0:
162,356,52842,1,0,0:0:0:0:
192,349,52926,5,0,0:0:0:0:
181,303,53006,1,0,0:0:0:0:
196,259,53089,1,0,0:0:0:0:
232,229,53173,6,0,P|259:240|292:240,1,47.5
454,364,53340,5,0,0:0:0:0:
466,318,53423,1,0,0:0:0:0:
451,274,53506,1,0,0:0:0:0:
415,244,53590,1,0,0:0:0:0:
368,240,53673,5,0,0:0:0:0:
420,214,53756,1,0,0:0:0:0:
448,162,53839,1,0,0:0:0:0:
442,104,53923,1,0,0:0:0:0:
404,60,54007,6,0,B|328:4|240:56|240:56|272:156|360:160,1,332.5
468,176,55340,6,0,B|504:160|503:117|503:117|461:108|441:139,1,142.5
360,240,56007,6,0,B|355:279|392:299|392:299|421:267|404:235,1,142.5
260,360,56673,6,0,B|277:328|248:296|248:296|211:316|216:355,1,142.5
144,201,57340,6,0,P|156:245|160:277,2,71.25
60,256,58007,5,0,0:0:0:0:
232,212,58173,2,0,L|260:216,2,23.75
104,88,58507,1,0,0:0:0:0:
108,104,58590,1,0,0:0:0:0:
112,120,58673,1,0,0:0:0:0:
240,76,58840,5,0,0:0:0:0:
244,60,58923,1,0,0:0:0:0:
248,44,59007,2,0,L|256:4,3,23.75
316,104,59340,5,0,0:0:0:0:
372,28,59673,1,0,0:0:0:0:
462,58,60007,1,0,0:0:0:0:
460,153,60340,1,0,0:0:0:0:
369,182,60673,5,0,0:0:0:0:
404,288,61007,1,0,0:0:0:0:
272,360,61340,2,0,B|228:340|180:360|180:360|136:380|76:356,1,190
72,348,62007,5,0,0:0:0:0:
185,78,62173,1,0,0:0:0:0:
251,363,62340,1,0,0:0:0:0:
31,171,62507,1,0,0:0:0:0:
320,196,62673,6,0,P|380:193|435:180,1,95
480,344,63007,1,0,0:0:0:0:
216,288,63173,1,0,0:0:0:0:
448,36,63340,5,0,0:0:0:0:
484,64,63423,1,0,0:0:0:0:
493,110,63506,1,0,0:0:0:0:
468,149,63590,1,0,0:0:0:0:
424,162,63673,1,0,0:0:0:0:
382,142,63756,1,0,0:0:0:0:
337,126,63840,1,0,0:0:0:0:
290,129,63923,1,0,0:0:0:0:
249,152,64007,5,0,0:0:0:0:
221,190,64090,1,0,0:0:0:0:
210,145,64173,1,0,0:0:0:0:
179,109,64256,1,0,0:0:0:0:
135,92,64340,1,0,0:0:0:0:
88,96,64423,1,0,0:0:0:0:
49,121,64507,2,0,L|56:60,1,47.5
92,272,64673,5,0,0:0:0:0:
212,24,64840,1,0,0:0:0:0:
236,316,65007,1,0,0:0:0:0:
0,264,65173,5,0,0:0:0:0:
20,221,65256,1,0,0:0:0:0:
58,193,65339,1,0,0:0:0:0:
104,187,65423,1,0,0:0:0:0:
148,204,65507,2,0,L|140:136,1,47.5
280,44,65673,2,0,L|268:138,1,95
300,236,65923,1,0,0:0:0:0:
328,220,66007,6,0,P|366:222|388:236,3,47.5
464,312,66340,6,0,P|486:304|504:289,3,47.5
439,191,66674,6,0,P|448:213|448:237,3,47.5
368,8,67007,5,0,0:0:0:0:
448,30,67090,1,0,0:0:0:0:
451,115,67173,1,0,0:0:0:0:
371,145,67257,1,0,0:0:0:0:
319,78,67340,6,0,B|266:57|266:57|288:220,1,190
396,288,67840,1,0,0:0:0:0:
396,288,67923,1,0,0:0:0:0:
396,288,68007,2,0,P|445:294|494:260,1,95
248,372,68340,2,0,P|210:345|161:351,1,95
8,180,68673,6,0,B|80:172|80:172|136:192|136:192|216:184,1,190
144,20,69173,1,0,0:0:0:0:
144,20,69257,1,0,0:0:0:0:
144,20,69340,2,0,B|132:68|132:68|148:120,1,95
84,352,69673,2,0,B|96:304|96:304|80:252,1,95
272,188,70007,5,0,0:0:0:0:
28,168,70173,1,0,0:0:0:0:
260,204,70340,2,0,P|312:200|372:200,1,95
440,24,70673,2,0,P|388:28|328:28,1,95
400,288,71007,6,0,P|452:284|512:284,1,95
316,128,71340,1,0,0:0:0:0:
244,360,71507,1,0,0:0:0:0:
244,360,71590,1,0,0:0:0:0:
244,360,71673,2,0,P|192:364|132:364,1,95
36,276,72007,1,0,0:0:0:0:
324,244,72173,1,0,0:0:0:0:
92,140,72340,2,0,P|139:140|186:144,1,95
456,92,72673,6,0,P|376:96|304:12,1,190
412,0,73173,1,0,0:0:0:0:
472,192,73340,1,0,0:0:0:0:
272,276,73507,2,0,P|264:212|264:168,1,95
444,304,73840,1,0,0:0:0:0:
223,351,74007,6,0,L|119:343,1,95
129,344,74257,1,0,0:0:0:0:
129,344,74340,1,0,0:0:0:0:
216,180,74507,1,0,0:0:0:0:
222,202,74590,1,0,0:0:0:0:
224,226,74673,1,0,0:0:0:0:
32,192,74840,1,0,0:0:0:0:
228,84,75007,2,0,P|284:88|336:100,1,95
512,192,75340,6,0,P|464:224|348:172,1,190
432,40,75840,1,0,0:0:0:0:
434,63,75923,1,0,0:0:0:0:
436,87,76006,1,0,0:0:0:0:
456,308,76173,1,0,0:0:0:0:
276,372,76340,2,0,P|229:362|182:358,1,95
24,364,76673,5,0,0:0:0:0:
240,280,76840,1,0,0:0:0:0:
0,232,77007,1,0,0:0:0:0:
256,288,77173,1,0,0:0:0:0:
112,88,77340,2,0,P|100:136|96:184,1,95
368,212,77673,2,0,P|363:164|352:118,1,95
335,101,77923,1,0,0:0:0:0:
315,87,78007,6,0,P|403:103|475:7,1,190
224,16,78507,1,0,0:0:0:0:
224,16,78590,1,0,0:0:0:0:
224,15,78673,2,0,P|222:63|226:110,1,95
396,260,79007,2,0,L|516:252,1,95
384,136,79340,5,0,0:0:0:0:
288,352,79507,1,0,0:0:0:0:
490,253,79673,1,0,0:0:0:0:
224,208,79840,1,0,0:0:0:0:
224,208,79923,1,0,0:0:0:0:
224,208,80007,2,0,P|176:212|128:220,1,95
24,52,80340,2,0,P|72:48|120:40,1,95
268,120,80673,5,0,0:0:0:0:
4,160,80840,1,0,0:0:0:0:
232,92,81007,1,0,0:0:0:0:
352,280,81173,1,0,0:0:0:0:
352,280,81257,1,0,0:0:0:0:
352,280,81340,2,0,L|344:376,1,95
224,356,81673,1,0,0:0:0:0:
476,288,81840,1,0,0:0:0:0:
240,188,82007,6,0,P|188:192|132:204,1,95
120,220,82257,1,0,0:0:0:0:
98,244,82340,2,0,L|90:140,1,95
204,308,82673,1,0,0:0:0:0:
8,204,82840,1,0,0:0:0:0:
232,88,83007,2,0,P|284:92|340:104,1,95
484,192,83340,5,0,0:0:0:0:
276,204,83507,1,0,0:0:0:0:
368,16,83673,1,0,0:0:0:0:
408,268,83840,1,0,0:0:0:0:
200,340,84007,2,0,P|148:336|92:324,1,95
20,196,84340,5,0,0:0:0:0:
288,160,84507,1,0,0:0:0:0:
36,180,84673,1,0,0:0:0:0:
360,256,84840,1,0,0:0:0:0:
168,380,85007,2,0,P|162:332|152:286,1,95
200,76,85340,2,0,P|206:124|216:170,1,95
304,376,85673,1,0,0:0:0:0:
80,340,85840,1,0,0:0:0:0:
296,104,86007,5,0,0:0:0:0:
236,312,86173,1,0,0:0:0:0:
376,240,86340,1,0,0:0:0:0:
168,172,86507,2,0,P|112:172|52:180,1,95
220,16,86840,1,0,0:0:0:0:
220,16,87007,2,0,P|276:16|336:8,1,95
496,176,87340,5,0,0:0:0:0:
465,181,87423,1,0,0:0:0:0:
434,174,87506,1,0,0:0:0:0:
409,155,87589,5,0,0:0:0:0:
418,202,87673,1,0,0:0:0:0:
418,249,87756,1,0,0:0:0:0:
407,295,87840,2,0,P|437:286|472:288,1,47.5
264,368,88007,5,0,0:0:0:0:
284,327,88090,1,0,0:0:0:0:
277,281,88173,1,0,0:0:0:0:
245,247,88256,1,0,0:0:0:0:
199,238,88340,5,0,0:0:0:0:
126,205,88423,1,0,0:0:0:0:
113,127,88506,1,0,0:0:0:0:
172,73,88589,1,0,0:0:0:0:
250,92,88673,6,0,B|284:120|324:112|324:112|368:72|432:96,1,190
304,16,89173,1,0,0:0:0:0:
328,288,89340,1,0,0:0:0:0:
367,312,89423,1,0,0:0:0:0:
414,307,89506,1,0,0:0:0:0:
447,275,89589,1,0,0:0:0:0:
455,229,89673,1,0,0:0:0:0:
432,188,89756,1,0,0:0:0:0:
390,170,89840,2,0,P|356:176|316:192,1,47.5
200,352,90007,5,0,0:0:0:0:
76,224,90173,1,0,0:0:0:0:
196,160,90340,1,0,0:0:0:0:
88,372,90507,1,0,0:0:0:0:
4,100,90673,2,0,P|56:108|104:120,1,95
304,28,91007,2,0,P|252:20|204:8,1,95
176,264,91340,5,0,0:0:0:0:
309,130,91507,1,0,0:0:0:0:
356,127,91590,1,0,0:0:0:0:
404,124,91673,1,0,0:0:0:0:
152,272,91840,5,0,0:0:0:0:
341,150,92007,1,0,0:0:0:0:
389,153,92090,1,0,0:0:0:0:
436,156,92173,1,0,0:0:0:0:
128,280,92340,5,0,0:0:0:0:
232,68,92507,1,0,0:0:0:0:
456,304,92673,5,0,0:0:0:0:
430,264,92756,1,0,0:0:0:0:
388,243,92839,1,0,0:0:0:0:
341,244,92922,1,0,0:0:0:0:
301,269,93007,2,0,P|304:332|312:384,1,95
308,363,93257,1,0,0:0:0:0:
308,363,93340,5,0,0:0:0:0:
480,192,93507,1,0,0:0:0:0:
276,132,93673,1,0,0:0:0:0:
228,134,93756,1,0,0:0:0:0:
181,137,93839,1,0,0:0:0:0:
133,140,93922,1,0,0:0:0:0:
86,143,94007,6,0,P|83:80|75:28,1,95
176,216,94257,1,0,0:0:0:0:
144,220,94340,2,0,P|90:254|49:287,1,95
162,105,94590,1,0,0:0:0:0:
181,131,94673,2,0,P|237:159|286:178,1,95
412,8,95007,2,0,L|300:16,1,95
264,280,95340,6,0,P|308:262|350:240,1,95
391,217,95590,1,0,0:0:0:0:
437,221,95673,1,0,0:0:0:0:
474,250,95756,1,0,0:0:0:0:
487,295,95840,1,0,0:0:0:0:
473,340,95923,1,0,0:0:0:0:
436,368,96006,1,0,0:0:0:0:
266,172,96173,1,0,0:0:0:0:
496,60,96340,2,0,P|491:110|488:180,1,95
408,296,96673,5,0,0:0:0:0:
356,92,96840,1,0,0:0:0:0:
512,256,97007,1,0,0:0:0:0:
288,368,97173,2,0,P|232:360|180:360,1,95
12,204,97507,2,0,P|59:202|106:195,1,95
68,320,97840,1,0,0:0:0:0:
42,122,98008,5,0,0:0:0:0:
72,86,98091,1,0,0:0:0:0:
115,66,98174,1,0,0:0:0:0:
162,67,98257,1,0,0:0:0:0:
205,85,98340,1,0,0:0:0:0:
251,75,98423,1,0,0:0:0:0:
282,41,98506,1,0,0:0:0:0:
297,86,98590,5,0,0:0:0:0:
329,120,98673,1,0,0:0:0:0:
373,138,98756,1,0,0:0:0:0:
420,135,98840,2,0,P|426:103|428:80,1,47.5
475,358,99007,5,0,0:0:0:0:
443,288,99090,1,0,0:0:0:0:
379,247,99173,1,0,0:0:0:0:
303,248,99256,1,0,0:0:0:0:
240,291,99340,6,0,P|186:297|144:272,1,95
88,236,99590,1,0,0:0:0:0:
64,248,99673,2,0,P|68:320|76:364,1,95
252,168,100007,2,0,P|248:96|240:52,1,95
148,132,100340,1,0,0:0:0:0:
328,28,100507,1,0,0:0:0:0:
328,28,100590,1,0,0:0:0:0:
328,28,100673,6,0,P|375:34|422:35,1,95
200,240,101007,2,0,P|152:233|105:232,1,95
376,144,101340,1,0,0:0:0:0:
176,120,101507,1,0,0:0:0:0:
392,168,101673,1,0,0:0:0:0:
152,139,101840,1,0,0:0:0:0:
328,336,102007,6,0,L|464:328,1,95
438,285,102256,1,0,0:0:0:0:
438,238,102339,1,0,0:0:0:0:
168,288,102507,1,0,0:0:0:0:
168,335,102590,1,0,0:0:0:0:
184,379,102673,1,0,0:0:0:0:
268,160,102840,1,0,0:0:0:0:
37,197,103007,1,0,0:0:0:0:
288,204,103173,1,0,0:0:0:0:
64,52,103340,5,0,0:0:0:0:
97,82,103423,1,0,0:0:0:0:
144,86,103506,1,0,0:0:0:0:
183,60,103589,1,0,0:0:0:0:
223,35,103673,1,0,0:0:0:0:
270,39,103756,1,0,0:0:0:0:
303,69,103840,2,0,P|300:102|288:128,1,47.5
504,144,104007,2,0,P|507:111|519:85,1,47.5
416,12,104173,2,0,L|412:68,1,47.5
348,204,104340,5,0,0:0:0:0:
432,208,104423,1,0,0:0:0:0:
454,290,104507,1,0,0:0:0:0:
382,338,104590,1,0,0:0:0:0:
315,285,104673,6,0,L|212:296,1,95
152,264,104923,1,0,0:0:0:0:
128,268,105007,2,0,L|25:279,1,95
164,120,105340,2,0,L|267:109,1,95
176,372,105673,2,0,L|73:383,1,95
40,56,106007,6,0,P|84:110|68:204,1,142.5
70,195,106340,2,0,P|125:179|176:176,1,95
328,24,106673,2,0,P|280:18|235:4,1,95
152,284,107007,2,0,L|264:276,1,95
472,88,107340,5,0,0:0:0:0:
412,344,107507,1,0,0:0:0:0:
340,96,107673,5,0,0:0:0:0:
328,306,107840,1,0,0:0:0:0:
208,72,108007,5,0,0:0:0:0:
237,322,108174,1,0,0:0:0:0:
84,92,108340,5,0,0:0:0:0:
170,381,108507,1,0,0:0:0:0:
376,164,108674,5,0,0:0:0:0:
388,80,108757,1,0,0:0:0:0:
473,68,108841,1,0,0:0:0:0:
512,145,108924,1,0,0:0:0:0:
451,205,109007,1,0,0:0:0:0:
430,234,109090,1,0,0:0:0:0:
420,268,109173,1,0,0:0:0:0:
422,303,109256,1,0,0:0:0:0:
434,336,109340,5,0,0:0:0:0:
393,313,109423,1,0,0:0:0:0:
347,302,109506,1,0,0:0:0:0:
300,304,109589,1,0,0:0:0:0:
255,320,109673,1,0,0:0:0:0:
183,357,109756,1,0,0:0:0:0:
106,332,109839,1,0,0:0:0:0:
71,259,109922,1,0,0:0:0:0:
100,183,110006,5,0,0:0:0:0:
264,200,110173,1,0,0:0:0:0:
276,64,110340,1,0,0:0:0:0:
179,197,110507,1,0,0:0:0:0:
291,276,110673,1,0,0:0:0:0:
224,125,110840,1,0,0:0:0:0:
179,197,111007,1,0,0:0:0:0:
264,200,111173,1,0,0:0:0:0:
276,64,111340,5,0,0:0:0:0:
100,183,111507,1,0,0:0:0:0:
291,276,111673,1,0,0:0:0:0:
276,64,111840,1,0,0:0:0:0:
164,284,112007,1,0,0:0:0:0:
172,304,112173,1,0,0:0:0:0:
244,352,112340,5,0,0:0:0:0:
216,233,112507,1,0,0:0:0:0:
98,261,112673,1,0,0:0:0:0:
125,378,112840,1,0,0:0:0:0:
244,352,113007,5,0,0:0:0:0:
332,272,113173,1,0,0:0:0:0:
304,156,113340,1,0,0:0:0:0:
188,116,113507,1,0,0:0:0:0:
304,156,113673,5,0,0:0:0:0:
408,180,113840,1,0,0:0:0:0:
432,76,114007,1,0,0:0:0:0:
328,52,114173,1,0,0:0:0:0:
304,156,114340,5,0,0:0:0:0:
332,244,114507,1,0,0:0:0:0:
360,332,114673,1,0,0:0:0:0:
420,260,114840,1,0,0:0:0:0:
332,244,115007,5,0,0:0:0:0:
312,252,115173,1,0,0:0:0:0:
