osu file format v14

[General]
AudioFilename: audio.mp3
AudioLeadIn: 0
PreviewTime: 147
Countdown: 0
SampleSet: Soft
StackLeniency: 0.4
Mode: 0
LetterboxInBreaks: 0
WidescreenStoryboard: 1

[Editor]
Bookmarks: 231,16227,31223,32223,46219,50218,66214,81210,82210,96207,100206
DistanceSpacing: 1
BeatDivisor: 3
GridSize: 4
TimelineZoom: 1

[Metadata]
Title:Yeti caves
TitleUnicode:Yeti caves
Artist:Eirik Suhrke
ArtistUnicode:Eirik Suhrke
Creator:Phynta
Version:Duskyui's Normal
Source:Spelunky
Tags:video game videogame ost original soundtrack instrumental jazz duskyui spelunky
BeatmapID:3873274
BeatmapSetID:1518856

[Difficulty]
HPDrainRate:3
CircleSize:4.2
OverallDifficulty:4.5
ApproachRate:5
SliderMultiplier:1.4
SliderTickRate:1

[Events]
//Background and Video events
0,0,"yeti_king.png",0,0
//Break Periods
//Storyboard Layer 0 (Background)
//Storyboard Layer 1 (Fail)
//Storyboard Layer 2 (Pass)
//Storyboard Layer 3 (Foreground)
//Storyboard Layer 4 (Overlay)
//Storyboard Sound Samples

[TimingPoints]
231,499.875031242189,4,2,1,50,1,0
32223,-90.9090909090909,4,2,1,50,0,0
40221,-83.3333333333333,4,2,1,50,0,0
40720,-83.3333333333333,4,2,1,50,0,1
46219,-100,4,2,1,50,0,0
82210,-90.9090909090909,4,2,1,50,0,0
90708,-83.3333333333333,4,2,1,50,0,1
96207,-100,4,2,1,50,0,0

[Colours]
Combo1 : 210,217,238
Combo2 : 123,181,238
Combo3 : 196,224,227
Combo4 : 132,201,206

[HitObjects]
234,27,230,6,0,P|188:10|142:17,1,93.3333333333333,4|0,3:2|0:2,0:0:0:0:
99,7,730,2,0,P|61:38|45:81,1,93.3333333333333,8|0,0:2|0:2,0:0:0:0:
14,113,1230,2,0,P|22:160|51:196,1,93.3333333333333,0|0,3:2|0:2,0:0:0:0:
169,120,2063,1,0,0:2:0:0:
169,120,2230,6,0,B|214:123|214:123|253:147|253:147|319:151,2,140,2|10|2,3:2|0:2|3:2,0:0:0:0:
220,250,3730,1,10,0:2:0:0:
132,245,4063,1,2,0:2:0:0:
132,245,4230,6,0,B|100:282|100:282|52:286,1,93.3333333333333,0|0,3:2|0:2,0:0:0:0:
15,261,4729,2,0,L|23:354,1,93.3333333333333,8|0,0:2|0:2,0:0:0:0:
61,380,5229,2,0,L|154:372,1,93.3333333333333,0|0,3:2|0:2,0:0:0:0:
261,285,6062,1,0,0:2:0:0:
261,285,6229,6,0,P|319:262|393:296,2,140,0|8|8,3:2|0:2|0:2,0:0:0:0:
322,380,7562,1,6,3:2:0:0:
465,373,8062,1,6,3:2:0:0:
465,373,8229,6,0,P|482:326|471:283,1,93.3333333333333,0|0,3:2|0:2,0:0:0:0:
432,260,8728,2,0,P|415:213|426:170,1,93.3333333333333,8|0,0:2|0:2,0:0:0:0:
465,147,9228,2,0,P|482:100|471:57,1,93.3333333333333,0|0,3:2|0:2,0:0:0:0:
349,123,10061,1,0,0:2:0:0:
349,123,10228,6,0,L|251:114,1,93.3333333333333,0|0,3:2|0:2,0:0:0:0:
209,110,10728,1,10,0:2:0:0:
142,52,11061,1,2,0:2:0:0:
142,52,11228,2,0,B|119:91|119:91|126:137,1,93.3333333333333,2|2,3:2|0:2,0:0:0:0:
136,184,11728,1,10,0:2:0:0:
83,260,12061,6,0,L|224:249,1,140,2|0,0:2|0:2,0:0:0:0:
248,287,12727,2,0,P|289:307|334:302,1,93.3333333333333,8|0,0:2|0:2,0:0:0:0:
359,342,13227,2,0,P|397:316|416:274,1,93.3333333333333,0|0,3:2|0:2,0:0:0:0:
385,238,13727,1,8,0:2:0:0:
480,227,14060,1,0,0:2:0:0:
480,227,14227,5,12,0:2:0:0:
363,149,14727,1,12,0:2:0:0:
459,47,15227,2,0,B|511:47,2,46.6666666666667,0|0|0,3:2|3:2|3:2,3:2:0:0:
419,21,15727,1,0,3:2:0:0:
363,149,16227,6,0,B|322:124|322:124|312:25,2,140,6|8|0,3:2|0:2|3:2,0:0:0:0:
288,264,17726,1,8,0:2:0:0:
216,211,18059,1,0,0:2:0:0:
216,211,18226,6,0,P|155:195|75:217,1,140,2|8,3:2|0:2,0:0:0:0:
6,167,19059,1,0,0:2:0:0:
6,167,19226,1,0,3:2:0:0:
46,82,19559,1,2,0:2:0:0:
131,122,19892,1,2,0:2:0:0:
177,40,20226,6,0,P|241:63|316:52,1,140,2|10,3:2|0:2,0:0:0:0:
392,6,21059,1,0,0:2:0:0:
392,6,21225,2,0,L|404:148,1,140,2|10,3:2|0:2,0:0:0:0:
415,243,22059,1,0,0:2:0:0:
415,243,22225,6,0,P|456:205|475:280,1,140,2|8,3:2|0:2,0:0:0:0:
368,326,23225,2,0,L|266:317,1,93.3333333333333,2|0,3:2|0:0,0:0:0:0:
241,350,23725,1,10,0:2:0:0:
148,341,24058,1,2,0:2:0:0:
148,341,24225,6,0,B|136:305|157:274|157:274|113:291|73:254,2,140,2|8|0,3:2|0:2|3:2,0:0:0:0:
129,202,25724,1,8,0:2:0:0:
201,143,26057,1,0,0:2:0:0:
201,143,26224,6,0,P|246:143|273:56,1,140,2|8,3:2|0:2,0:0:0:0:
351,7,27057,1,0,0:2:0:0:
351,7,27224,1,0,3:2:0:0:
419,77,27557,1,2,0:2:0:0:
419,77,27724,2,0,L|466:81,2,46.6666666666667,10|2|2,0:2|0:2|0:2,0:0:0:0:
382,105,28224,6,0,P|343:160|334:236,1,140,2|10,3:2|0:2,0:0:0:0:
413,288,29057,1,0,0:2:0:0:
413,288,29223,2,0,B|344:312|344:312|263:301,1,140,2|10,3:2|0:2,0:0:0:0:
244,269,29890,2,0,L|197:262,1,46.6666666666667,2|2,0:2|0:2,0:0:0:0:
156,286,30223,1,2,3:2:0:0:
17,267,30723,1,8,0:2:0:0:
101,156,31223,6,0,P|106:111|90:68,1,93.3333333333333,6|2,0:2|3:2,0:0:0:0:
56,34,31723,1,2,3:2:0:0:
156,0,32056,1,2,3:2:0:0:
156,0,32223,6,0,L|277:21,1,102.666669799805,0|0,3:2|0:2,0:2:0:0:
298,56,32722,2,0,L|419:34,1,102.666669799805,8|0,0:2|0:2,0:2:0:0:
450,60,33222,1,0,3:2:0:0:
382,137,33556,6,0,P|366:185|373:235,2,102.666669799805,2|2|2,0:2|0:2|0:2,0:0:0:0:
479,168,34555,2,0,P|485:218|470:266,2,102.666669799805,2|2|2,0:3|0:3|3:3,0:0:0:0:
377,186,35555,6,0,L|367:294,2,102.666669799805,2|2|2,0:2|0:2|3:2,0:0:0:0:
475,217,36555,2,0,L|484:325,2,102.666669799805,2|2|2,0:3|0:3|3:3,0:0:0:0:
373,235,37555,6,0,B|352:281|352:281|363:343,2,102.666669799805,2|2|2,0:2|0:2|3:2,0:0:0:0:
473,270,38554,2,0,B|494:316|494:316|482:378,2,102.666669799805,2|2|2,0:3|0:3|3:3,0:0:0:0:
373,286,39554,6,0,P|314:307|268:289,1,102.666669799805,2|0,0:2|0:0,0:0:0:0:
186,244,40221,1,6,0:2:0:0:
85,287,40554,5,0,0:2:0:0:
85,287,40720,2,0,P|101:226|93:174,1,111.999996582031,8|0,0:2|0:2,0:0:0:0:
55,139,41220,1,0,3:2:0:0:
146,73,41554,5,2,0:2:0:0:
196,95,41720,2,0,L|199:152,2,55.9999982910157,8|2|0,0:2|0:2|0:2,0:0:0:0:
247,73,42220,1,2,3:2:0:0:
317,165,42553,5,0,0:0:0:0:
317,165,42719,2,0,P|301:226|309:278,1,111.999996582031,8|0,0:2|0:2,0:0:0:0:
347,313,43219,1,0,3:2:0:0:
459,319,43553,5,2,0:2:0:0:
477,266,43720,2,0,L|466:194,1,55.9999982910157,8|2,0:2|0:2,0:0:0:0:
418,186,44053,1,0,0:2:0:0:
436,133,44220,1,2,3:2:0:0:
504,48,44553,5,0,0:0:0:0:
504,48,44719,2,0,P|466:7|412:0,1,111.999996582031,8|0,0:2|0:2,0:0:0:0:
379,45,45219,1,0,3:2:0:0:
267,29,45553,1,2,0:2:0:0:
217,55,45719,2,0,P|194:83|187:109,1,55.9999982910157,8|2,0:2|0:2,0:0:0:0:
256,192,46219,5,2,3:2:0:0:
256,192,46386,12,8,49718,0:2:0:0:
203,321,50218,6,0,P|249:338|295:331,1,93.3333333333333,4|0,3:2|0:2,0:0:0:0:
326,300,50718,2,0,B|307:256|307:256|333:218,1,93.3333333333333,8|0,0:2|0:2,0:0:0:0:
305,180,51218,2,0,P|261:167|216:176,1,93.3333333333333,0|0,3:2|0:2,0:0:0:0:
132,288,52051,1,0,0:2:0:0:
132,288,52218,6,0,B|90:261|90:261|83:161,2,140,2|10|2,3:2|0:2|3:2,0:0:0:0:
215,176,53717,1,10,0:2:0:0:
157,102,54050,1,2,0:2:0:0:
157,102,54217,6,0,P|203:85|249:92,1,93.3333333333333,0|0,3:2|0:2,0:0:0:0:
273,128,54717,2,0,P|319:145|365:138,1,93.3333333333333,8|0,0:2|0:2,0:0:0:0:
396,111,55217,2,0,L|406:19,1,93.3333333333333,0|0,3:2|0:2,0:0:0:0:
471,147,56050,1,0,0:2:0:0:
471,147,56217,6,0,P|494:205|460:279,2,140,0|8|8,3:2|0:2|0:2,0:0:0:0:
397,205,57550,1,6,3:2:0:0:
429,340,58049,1,6,3:2:0:0:
429,340,58216,6,0,L|332:331,1,93.3333333333333,0|0,3:2|0:2,0:0:0:0:
316,288,58716,2,0,L|219:279,1,93.3333333333333,8|0,0:2|0:2,0:0:0:0:
195,319,59216,2,0,L|103:311,1,93.3333333333333,0|0,3:2|0:2,0:0:0:0:
44,183,60049,1,0,0:2:0:0:
44,183,60216,6,0,P|90:166|136:173,1,93.3333333333333,0|0,3:2|0:2,0:0:0:0:
161,208,60715,1,10,0:2:0:0:
255,191,61049,1,2,0:2:0:0:
255,191,61216,2,0,P|263:142|248:98,1,93.3333333333333,2|2,3:2|0:2,0:0:0:0:
210,80,61715,1,10,0:2:0:0:
152,6,62048,6,0,L|295:-2,1,140,2|0,0:2|0:2,0:0:0:0:
316,37,62715,2,0,P|356:65|402:70,1,93.3333333333333,8|0,0:2|0:2,0:0:0:0:
444,58,63215,2,0,L|435:152,1,93.3333333333333,0|0,3:2|0:2,0:0:0:0:
473,177,63715,1,8,0:2:0:0:
386,203,64048,1,0,0:2:0:0:
386,203,64215,5,12,0:2:0:0:
510,266,64714,1,12,0:2:0:0:
393,341,65214,2,0,L|387:288,2,46.6666666666667,0|0|0,3:2|3:2|3:2,0:0:0:0:
355,368,65714,1,0,3:2:0:0:
274,265,66214,6,0,B|211:240|212:310|143:290,2,140,6|8|0,3:2|0:2|3:2,0:0:0:0:
150,198,67714,1,8,0:2:0:0:
68,239,68047,1,0,0:2:0:0:
68,239,68214,6,0,B|14:193|14:193|8:115,1,140,2|8,3:2|0:2,0:0:0:0:
63,48,69047,1,0,0:2:0:0:
63,48,69213,1,0,3:2:0:0:
139,103,69547,1,2,0:2:0:0:
194,27,69880,1,2,0:2:0:0:
270,82,70213,6,0,P|317:98|389:32,1,140,2|10,3:2|0:2,0:0:0:0:
476,83,71046,1,0,0:2:0:0:
476,83,71213,2,0,B|482:153|482:153|444:214,1,140,2|10,3:2|0:2,0:0:0:0:
362,252,72046,1,0,0:2:0:0:
362,252,72213,6,0,B|356:182|356:182|397:118,1,140,2|8,3:2|0:2,0:0:0:0:
468,242,73212,2,0,L|417:324,1,93.3333333333333,2|0,3:2|0:0,0:0:0:0:
418,321,73712,1,10,0:2:0:0:
334,301,74045,1,2,0:2:0:0:
334,301,74212,6,0,B|300:284|292:247|292:247|273:290|219:292,2,140,2|8|0,3:2|0:2|3:2,0:0:0:0:
223,215,75712,1,8,0:2:0:0:
166,289,76045,1,0,0:2:0:0:
166,289,76212,2,0,P|119:305|47:239,1,140,2|8,3:2|0:2,0:0:0:0:
129,203,77045,1,0,0:2:0:0:
129,203,77211,1,0,3:2:0:0:
50,160,77545,1,2,0:2:0:0:
50,160,77711,2,0,L|6:138,2,46.6666666666667,10|2|2,0:2|0:2|0:2,0:0:0:0:
92,140,78211,6,0,P|131:84|139:8,1,140,2|10,3:2|0:2,0:0:0:0:
218,65,79044,1,0,0:2:0:0:
219,65,79211,2,0,B|255:72|272:106|272:106|280:65|310:51,1,140,2|10,3:2|0:2,0:0:0:0:
357,44,79877,2,0,L|414:55,1,46.6666666666667,2|2,0:2|0:2,0:0:0:0:
438,22,80211,1,2,3:2:0:0:
497,148,80710,1,8,0:2:0:0:
358,136,81210,6,0,P|327:182|329:223,1,93.3333333333333,6|2,0:2|3:2,0:0:0:0:
371,235,81710,1,2,3:2:0:0:
467,230,82043,1,2,3:2:0:0:
467,230,82210,6,0,L|476:334,1,102.666669799805,0|0,3:2|0:2,0:0:0:0:
445,373,82710,2,0,L|341:382,1,102.666669799805,8|0,0:2|0:2,0:0:0:0:
301,351,83210,1,0,3:2:0:0:
201,374,83543,6,0,B|152:388|152:388|92:368,2,102.666669799805,2|2|2,0:2|0:2|3:2,0:0:0:0:
204,272,84543,2,0,B|155:258|155:258|95:278,2,102.666669799805,2|2|2,0:3|0:3|3:3,0:0:0:0:
287,328,85543,6,0,P|249:362|200:375,2,102.666669799805,2|2|2,0:2|0:2|3:2,0:0:0:0:
241,238,86542,2,0,P|191:250|153:284,2,102.666669799805,2|2|2,0:3|0:3|3:3,0:0:0:0:
344,243,87542,6,0,B|284:334,2,102.666669799805,2|2|2,0:2|0:2|3:2,0:0:0:0:
256,190,88542,2,0,B|206:287,2,102.666669799805,2|2|2,0:3|0:3|3:3,0:0:0:0:
344,243,89542,6,0,P|394:249|442:231,1,102.666669799805,2|0,0:2|0:0,0:0:0:0:
463,131,90208,1,6,0:2:0:0:
386,62,90541,5,0,0:2:0:0:
386,62,90708,2,0,B|329:58|329:58|272:85,1,111.999996582031,8|0,0:2|0:2,0:0:0:0:
248,127,91208,1,0,3:2:0:0:
199,31,91541,5,2,0:2:0:0:
150,61,91708,1,8,0:2:0:0:
101,31,91874,2,0,L|41:0,2,55.9999982910157,2|0|2,0:2|0:2|3:2,0:0:0:0:
144,139,92541,5,0,0:0:0:0:
144,139,92708,2,0,B|148:196|148:196|121:253,1,111.999996582031,8|0,0:2|0:2,0:0:0:0:
79,276,93208,1,0,3:2:0:0:
190,272,93541,5,2,0:2:0:0:
240,295,93707,2,0,L|302:325,1,55.9999982910157,8|2,0:2|0:2,0:0:0:0:
335,284,94040,1,0,0:2:0:0:
386,308,94207,1,2,3:2:0:0:
461,225,94540,5,0,0:0:0:0:
461,225,94707,2,0,P|476:168|464:112,1,111.999996582031,8|0,0:2|0:2,0:0:0:0:
444,64,95207,1,0,3:2:0:0:
350,125,95540,1,2,0:2:0:0:
306,89,95707,2,0,P|283:80|251:80,1,55.9999982910157,8|2,0:2|0:2,0:0:0:0:
256,192,96207,1,2,3:2:0:0:
256,192,96373,12,8,99706,0:2:0:0:
256,192,100206,5,4,3:2:0:0:
