osu file format v14

[General]
AudioFilename: _(MV).mp3
AudioLeadIn: 0
PreviewTime: -1
Countdown: 1
SampleSet: Normal
StackLeniency: 0.7
Mode: 0
LetterboxInBreaks: 0
WidescreenStoryboard: 0

[Editor]
DistanceSpacing: 1.4
BeatDivisor: 4
GridSize: 4
TimelineZoom: 1

[Metadata]
Title:Sword Art Online Lost Song : Cynthia No Haruki
TitleUnicode:Sword Art Online Lost Song : Cynthia No Haruki
Artist:Eir Aoi
ArtistUnicode:Eir Aoi
Creator:Lacey465
Version:Hard
Source:Download MP3 Songs
Tags:Sword Art Online Lost Song
BeatmapID:891755
BeatmapSetID:410992

[Difficulty]
HPDrainRate:5
CircleSize:5
OverallDifficulty:5
ApproachRate:5
SliderMultiplier:1.4
SliderTickRate:1

[Events]
//Background and Video events
0,0,"meg.jpg",0,0
//Break Periods
//Storyboard Layer 0 (Background)
//Storyboard Layer 1 (Fail)
//Storyboard Layer 2 (Pass)
//Storyboard Layer 3 (Foreground)
//Storyboard Sound Samples

[TimingPoints]
1520.71428571429,705.885714285712,4,1,0,100,1,0

[Colours]
Combo1 : 255,192,0
Combo2 : 0,202,0
Combo3 : 18,124,255
Combo4 : 255,0,255

[HitObjects]
56,184,1344,5,0,0:0:0:0:
200,184,2050,1,0,0:0:0:0:
344,176,2756,1,0,0:0:0:0:
492,176,3461,1,0,0:0:0:0:
376,280,4167,1,0,0:0:0:0:
176,288,4873,1,0,0:0:0:0:
80,88,5579,1,0,0:0:0:0:
392,80,6285,1,0,0:0:0:0:
216,244,7167,1,0,0:0:0:0:
332,240,7873,1,0,0:0:0:0:
204,200,8579,1,0,0:0:0:0:
224,132,8932,1,0,0:0:0:0:
304,132,9285,1,0,0:0:0:0:
340,188,9461,1,0,0:0:0:0:
104,56,12814,2,0,P|184:188|228:184,1,210
240,44,14050,2,0,P|360:204|368:204,1,210
360,52,15814,6,0,L|360:136,1,70
448,48,16520,2,0,L|448:128,1,70
448,224,17050,2,0,L|452:320,1,70
356,220,17932,2,0,L|360:316,1,70
40,140,18638,1,0,0:0:0:0:
316,172,18991,1,0,0:0:0:0:
152,232,19344,1,0,0:0:0:0:
164,96,19697,1,0,0:0:0:0:
312,304,19873,1,0,0:0:0:0:
112,256,20226,1,0,0:0:0:0:
224,168,20579,1,0,0:0:0:0:
132,144,20932,1,0,0:0:0:0:
88,208,24109,2,0,L|164:220,7,70
132,88,27285,6,0,P|172:224|248:224,1,210
280,72,28520,2,0,P|336:240|380:224,1,280
120,128,30285,1,0,0:0:0:0:
280,128,30462,1,0,0:0:0:0:
180,212,30991,1,0,0:0:0:0:
196,72,31344,1,0,0:0:0:0:
296,208,31520,1,0,0:0:0:0:
80,192,31873,1,0,0:0:0:0:
256,128,32226,1,0,0:0:0:0:
136,188,32579,1,0,0:0:0:0:
256,268,35403,2,0,L|356:272,8,70
152,64,38932,6,0,L|212:220,1,140
284,264,39991,2,0,P|440:176|432:144,1,245
368,128,41756,2,0,P|208:252|208:256,1,210
80,184,42991,1,0,0:0:0:0:
200,192,43344,1,0,0:0:0:0:
164,256,43520,1,0,0:0:0:0:
56,76,44403,2,0,P|132:212|140:208,1,210
320,76,45815,2,0,P|312:232|288:236,1,210
136,288,47226,2,0,P|308:220|312:204,1,210
392,112,48991,2,0,P|304:224|312:240,1,175
56,92,50403,1,0,0:0:0:0:
264,128,50932,1,0,0:0:0:0:
264,128,51109,1,0,0:0:0:0:
136,252,51638,1,0,0:0:0:0:
136,252,51815,1,0,0:0:0:0:
256,192,53226,12,0,55344,0:0:0:0:
68,64,55344,5,0,0:0:0:0:
312,96,55520,1,0,0:0:0:0:
80,212,55873,1,0,0:0:0:0:
336,244,56050,1,0,0:0:0:0:
144,68,56403,2,0,P|180:240|188:248,1,175
336,56,57638,2,0,P|344:256|336:268,1,210
76,240,59226,2,0,L|160:200,1,70
128,316,59932,2,0,L|204:272,1,70
80,92,60991,1,0,0:0:0:0:
284,96,61344,1,0,0:0:0:0:
88,184,61520,1,0,0:0:0:0:
324,220,61873,1,0,0:0:0:0:
168,124,62050,1,0,0:0:0:0:
100,128,62403,2,0,L|160:252,1,105
212,108,63109,2,0,L|276:208,1,105
288,88,64168,2,0,L|384:180,1,105
144,120,64873,5,0,0:0:0:0:
280,120,65579,1,0,0:0:0:0:
196,196,65932,2,0,L|260:256,3,70
112,80,67697,2,0,P|200:216|200:232,1,175
280,104,69815,1,0,0:0:0:0:
384,72,70344,2,0,P|384:248|400:264,1,210
72,320,73344,2,0,L|200:192,1,175
272,284,74756,2,0,L|400:160,1,175
92,80,76344,2,0,P|196:216|192:224,1,210
316,80,77932,2,0,P|344:248|336:256,1,175
248,132,79168,1,0,0:0:0:0:
248,132,79344,1,0,0:0:0:0:
256,192,82344,12,0,84815,0:0:0:0:
