osu file format v14

[General]
AudioFilename: _(MV).mp3
AudioLeadIn: 0
PreviewTime: -1
Countdown: 1
SampleSet: None
StackLeniency: 0.7
Mode: 0
LetterboxInBreaks: 0
WidescreenStoryboard: 1

[Editor]
DistanceSpacing: 1.4
BeatDivisor: 4
GridSize: 4
TimelineZoom: 1

[Metadata]
Title:Sword Art Online Lost Song : Cynthia No Haruki
TitleUnicode:Sword Art Online Lost Song : Cynthia No Haruki
Artist:Eir Aoi
ArtistUnicode:Eir Aoi
Creator:Lacey465
Version:Easy
Source:Download MP3 Songs
Tags:Sword Art Online Lost Song
BeatmapID:892736
BeatmapSetID:410992

[Difficulty]
HPDrainRate:5
CircleSize:4
OverallDifficulty:5
ApproachRate:5
SliderMultiplier:1.4
SliderTickRate:1

[Events]
//Background and Video events
0,0,"meg.jpg",0,0
//Break Periods
2,50073,52203
//Storyboard Layer 0 (Background)
//Storyboard Layer 1 (Fail)
//Storyboard Layer 2 (Pass)
//Storyboard Layer 3 (Foreground)
//Storyboard Sound Samples

[TimingPoints]
1520.71428571429,705.885714285712,4,1,0,100,1,0

[Colours]
Combo1 : 255,192,0
Combo2 : 0,202,0
Combo3 : 18,124,255
Combo4 : 255,0,255

[HitObjects]
56,112,1167,5,0,0:0:0:0:
264,112,2756,1,0,0:0:0:0:
140,240,4167,1,0,0:0:0:0:
360,232,5579,1,0,0:0:0:0:
260,292,7167,1,0,0:0:0:0:
260,168,8579,1,0,0:0:0:0:
252,48,9991,1,0,0:0:0:0:
64,80,12814,2,0,L|208:240,1,210
248,96,14403,2,0,L|380:232,1,175
88,304,18638,1,0,0:0:0:0:
308,316,19873,1,0,0:0:0:0:
160,116,24285,2,0,L|252:188,1,105
376,68,25697,2,0,P|520:224|520:236,1,210
120,188,30285,1,0,0:0:0:0:
276,192,30638,1,0,0:0:0:0:
204,264,30991,1,0,0:0:0:0:
356,264,31520,1,0,0:0:0:0:
384,112,32050,1,0,0:0:0:0:
488,96,32579,1,0,0:0:0:0:
320,104,35932,6,0,P|432:276|428:284,1,245
160,208,38050,1,0,0:0:0:0:
404,184,38226,1,0,0:0:0:0:
128,96,41579,2,0,P|224:256|224:272,1,210
336,104,42815,2,0,P|428:276|420:296,1,210
112,308,44403,2,0,L|320:184,1,210
212,336,45991,2,0,L|396:200,1,210
176,272,47579,2,0,L|320:144,1,175
332,344,48991,2,0,L|480:204,1,175
256,192,53403,12,0,55168,0:0:0:0:
204,176,56226,5,0,0:0:0:0:
380,180,57638,1,0,0:0:0:0:
272,320,58344,1,0,0:0:0:0:
260,80,59050,1,0,0:0:0:0:
100,344,60109,1,0,0:0:0:0:
220,344,60638,1,0,0:0:0:0:
400,352,62050,1,0,0:0:0:0:
504,348,63462,1,0,0:0:0:0:
80,112,64873,2,0,B|360:320|356:312,1,315
212,104,66991,2,0,L|432:260,1,245
32,256,68756,1,0,0:0:0:0:
156,248,69109,1,0,0:0:0:0:
84,88,70697,2,0,P|288:252|296:264,1,280
240,80,73344,2,0,P|404:256|404:264,1,245
144,160,74756,2,0,P|328:288|340:328,1,245
288,104,76344,2,0,P|472:248|464:272,1,315
124,208,78991,1,0,0:0:0:0:
304,208,79344,1,0,0:0:0:0:
228,296,80932,1,0,0:0:0:0:
248,96,81462,1,0,0:0:0:0:
256,192,82344,12,0,84815,0:0:0:0:
