osu file format v14

[General]
AudioFilename: Eir_Aoi-Sirius_TV_size_ver_OP_1_Opening_1__1_Kill_la_Kill.mp3
AudioLeadIn: 0
PreviewTime: 60357
Countdown: 0
SampleSet: Normal
StackLeniency: 0.7
Mode: 0
LetterboxInBreaks: 0
WidescreenStoryboard: 1

[Editor]
DistanceSpacing: 0.8
BeatDivisor: 4
GridSize: 4
TimelineZoom: 1

[Metadata]
Title:Sirius (TV size ver.)
TitleUnicode:Sirius (TV size ver.)
Artist:Eir Aoi
ArtistUnicode:Eir Aoi
Creator:kricher
Version:Normal
Source:kill la kill
Tags:kill la kill
BeatmapID:900884
BeatmapSetID:415763

[Difficulty]
HPDrainRate:4
CircleSize:3
OverallDifficulty:5
ApproachRate:5.6
SliderMultiplier:1.8
SliderTickRate:1

[Events]
//Background and Video events
0,0,"sirius osu.jpg",0,0
//Break Periods
//Storyboard Layer 0 (Background)
//Storyboard Layer 1 (Fail)
//Storyboard Layer 2 (Pass)
//Storyboard Layer 3 (Foreground)
//Storyboard Sound Samples

[TimingPoints]
357.168091623047,340.909090909091,4,1,0,25,1,0
23632,-133.333333333333,4,2,0,25,0,0
28911,-100,4,2,0,25,0,0
31209,-133.333333333333,4,2,0,25,0,0
31593,-100,4,2,0,25,0,0
35811,-100,4,3,0,26,0,0
38261,-100,4,2,0,25,0,0
46174,-142.857142857143,4,2,0,25,0,0
60357,-100,4,1,0,25,0,1
68297,-200,4,1,0,25,0,1
69386,-100,4,1,0,25,0,1
79362,-200,4,2,0,25,0,0
80615,-200,4,2,0,25,0,0
81872,-200,4,2,0,25,0,0

[Colours]
Combo1 : 255,255,255
Combo2 : 0,255,168

[HitObjects]
248,192,357,6,0,L|296:156,12,45
336,156,1720,2,0,P|312:204|24:232,1,360
88,192,2913,2,2,P|100:120|356:236,2,495
272,240,5129,1,0,0:0:0:0:
360,172,5470,2,0,P|312:152|56:144,2,270
324,236,7175,5,0,0:0:0:0:
216,212,7686,1,0,0:0:0:0:
124,144,8198,2,0,P|168:132|272:208,1,180
256,64,8879,1,0,0:0:0:0:
356,164,9220,1,0,0:0:0:0:
332,204,9561,1,0,0:0:0:0:
292,240,9732,2,0,L|224:228,12,45
320,232,10925,2,0,P|368:212|260:32,1,360
288,144,12118,1,0,0:0:0:0:
212,64,12629,6,0,P|168:136|212:240,1,180
268,324,13311,1,0,0:0:0:0:
368,236,13652,2,0,P|364:188|252:112,1,180
208,104,14334,1,0,0:0:0:0:
144,184,14675,1,0,0:0:0:0:
156,296,15186,2,0,P|240:288|380:76,2,360
88,228,17061,1,0,0:0:0:0:
120,148,17402,1,0,0:0:0:0:
96,68,17743,6,0,P|148:68|220:96,2,90
32,40,18425,1,0,0:0:0:0:
60,104,18766,1,0,0:0:0:0:
28,176,19107,1,0,0:0:0:0:
104,220,19448,1,0,0:0:0:0:
112,152,19788,1,0,0:0:0:0:
236,192,20470,5,0,0:0:0:0:
200,100,20811,2,0,P|244:96|348:184,1,180
268,212,21493,1,0,0:0:0:0:
200,220,21834,1,0,0:0:0:0:
136,180,22175,1,0,0:0:0:0:
112,112,22516,2,0,P|160:112|280:164,1,180
40,104,23538,6,0,P|104:92|468:212,1,450
360,296,24902,2,0,P|280:288|412:216,1,405.000015449525
428,264,26266,2,0,P|392:280|136:80,1,405.000015449525
244,112,27629,1,0,0:0:0:0:
312,256,28141,1,0,0:0:0:0:
104,108,28993,5,0,0:0:0:0:
196,188,29334,1,0,0:0:0:0:
256,272,29675,2,0,L|328:108,1,180
332,68,30186,1,0,0:0:0:0:
180,132,30527,2,0,P|240:108|276:80,2,90
104,172,31550,6,0,P|136:184|272:176,1,135
328,88,32062,1,0,0:0:0:0:
172,88,32403,1,0,0:0:0:0:
168,212,32743,1,0,0:0:0:0:
248,104,33084,1,0,0:0:0:0:
312,148,33425,1,0,0:0:0:0:
312,268,33766,1,0,0:0:0:0:
360,252,34107,2,0,P|388:216|352:84,2,180
312,160,34959,1,0,0:0:0:0:
252,208,35300,1,0,0:0:0:0:
336,232,35641,1,0,0:0:0:0:
312,264,35811,2,0,L|244:268,14,45
360,240,37175,1,0,0:0:0:0:
392,184,37345,1,0,0:0:0:0:
288,76,37686,5,0,0:0:0:0:
220,48,37857,2,0,L|152:40,4,45
104,80,38538,2,0,L|464:164,1,360
280,272,39732,2,0,L|172:124,1,180
80,56,40413,1,0,0:0:0:0:
92,140,40925,1,0,0:0:0:0:
116,216,41266,2,0,P|192:228|312:192,1,180
284,120,41948,1,0,0:0:0:0:
176,100,42459,1,0,0:0:0:0:
80,152,42970,6,0,P|120:216|236:224,2,180
72,120,43823,2,0,P|104:72|420:152,1,450
388,208,45186,2,0,L|92:204,1,270
60,112,46209,1,0,0:0:0:0:
104,144,46720,2,0,P|144:208|312:176,2,251.999992309571
172,104,48595,1,0,0:0:0:0:
72,176,49277,6,0,P|156:216|276:196,1,188.999994232178
312,180,49959,2,0,P|292:124|160:116,1,188.999994232178
168,144,50641,2,0,P|160:208|48:220,1,188.999994232178
56,176,51323,2,0,P|72:112|188:116,1,188.999994232178
380,72,52175,6,0,P|364:140|240:184,1,188.999994232178
240,144,52857,1,0,0:0:0:0:
224,100,53027,2,0,P|168:112|168:128,1,62.9999980773926
204,184,53368,1,0,0:0:0:0:
288,260,53709,1,0,0:0:0:0:
408,208,54050,1,0,0:0:0:0:
316,84,54732,6,0,P|236:88|148:180,1,188.999994232178
156,204,55413,2,0,P|136:244|4:280,1,188.999994232178
0,200,56095,2,0,P|4:152|136:112,1,188.999994232178
152,160,56948,2,0,P|224:168|344:132,1,188.999994232178
316,112,57629,2,0,P|268:96|60:152,1,251.999992309571
60,252,58482,2,0,L|104:280,16,31.4999990386963
48,172,60016,1,0,0:0:0:0:
124,188,60357,6,0,P|136:144|264:148,1,180
292,180,61038,1,0,0:0:0:0:
416,128,61379,1,0,0:0:0:0:
296,80,61720,1,0,0:0:0:0:
400,228,62061,1,0,0:0:0:0:
264,264,62743,5,0,0:0:0:0:
316,192,63084,1,0,0:0:0:0:
244,144,63425,1,0,0:0:0:0:
136,152,63766,1,0,0:0:0:0:
60,232,64277,1,0,0:0:0:0:
132,300,64788,6,0,P|232:296|256:296,1,90
292,308,65129,2,0,P|336:264|356:56,1,270
300,68,65811,2,0,P|272:128|100:264,2,270
404,96,67175,1,0,0:0:0:0:
368,204,67516,1,0,0:0:0:0:
244,168,67857,1,0,0:0:0:0:
176,240,68198,2,0,P|140:208|304:128,2,360
276,248,70073,5,0,0:0:0:0:
372,176,70413,1,0,0:0:0:0:
368,84,71095,2,0,P|312:72|180:120,1,180
188,208,71777,2,0,P|232:248|372:232,1,180
392,184,72629,2,0,P|348:144|428:72,1,180
460,76,73311,2,0,P|472:136|456:256,1,180
328,296,73993,5,0,0:0:0:0:
200,272,74334,1,0,0:0:0:0:
252,184,74675,1,0,0:0:0:0:
128,164,75016,1,0,0:0:0:0:
228,92,75357,2,0,P|280:80|492:268,1,360
388,304,76720,5,0,0:0:0:0:
308,308,77061,2,0,P|224:296|140:224,1,180
88,172,77573,1,0,0:0:0:0:
88,68,77913,1,0,0:0:0:0:
164,96,78254,2,0,P|168:140|424:152,1,360
376,84,79448,2,0,P|300:124|164:312,1,315
180,320,80811,2,0,P|236:324|244:324,4,45
248,312,81663,2,0,P|272:296|280:272,1,45
256,192,82004,12,0,87800,0:0:0:0:
