osu file format v14

[General]
AudioFilename: Eir_Aoi-Sirius_TV_size_ver_OP_1_Opening_1__1_Kill_la_Kill.mp3
AudioLeadIn: 0
PreviewTime: 60357
Countdown: 0
SampleSet: Soft
StackLeniency: 0.7
Mode: 0
LetterboxInBreaks: 0
WidescreenStoryboard: 0

[Editor]
Bookmarks: 87032
DistanceSpacing: 0.8
BeatDivisor: 4
GridSize: 4
TimelineZoom: 1

[Metadata]
Title:Sirius (TV size ver.)
TitleUnicode:Sirius (TV size ver.)
Artist:Eir Aoi
ArtistUnicode:Eir Aoi
Creator:kricher
Version:Insane
Source:kill la kill
Tags:kill la kill
BeatmapID:900846
BeatmapSetID:415763

[Difficulty]
HPDrainRate:6
CircleSize:4.5
OverallDifficulty:7
ApproachRate:9
SliderMultiplier:1.8
SliderTickRate:1

[Events]
//Background and Video events
0,0,"sirius osu.jpg",0,0
//Break Periods
//Storyboard Layer 0 (Background)
//Storyboard Layer 1 (Fail)
//Storyboard Layer 2 (Pass)
//Storyboard Layer 3 (Foreground)
//Storyboard Sound Samples

[TimingPoints]
357.445304522317,340.909090909091,4,1,0,45,1,0
23490,-133.333333333333,4,2,0,45,0,0
28823,-100,4,2,0,45,0,0
31174,-133.333333333333,4,2,0,45,0,0
31593,-100,4,2,0,45,0,0
46174,-142.857142857143,4,2,0,45,0,0
48688,-100,4,2,0,45,0,0
60357,-100,4,1,0,45,0,1
69391,-100,4,1,0,45,0,1
79363,-200,4,2,0,45,0,1
80300,-200,4,2,0,45,0,0
81872,-200,4,2,0,45,0,0

[Colours]
Combo1 : 255,255,255
Combo2 : 0,255,168

[HitObjects]
129,106,527,5,0,0:0:0:0:
151,85,613,1,0,0:0:0:0:
176,69,698,1,0,0:0:0:0:
204,59,783,1,0,0:0:0:0:
232,52,868,2,0,L|276:48,8,45
144,84,1721,6,0,B|216:152|308:168|332:168,1,180
352,52,2232,1,0,0:0:0:0:
240,80,2402,2,0,B|208:68|168:56|168:112|104:124|72:168,1,180
88,252,2914,5,0,0:0:0:0:
156,184,3084,1,0,0:0:0:0:
212,280,3255,1,0,0:0:0:0:
236,192,3425,1,0,0:0:0:0:
320,272,3596,2,0,B|320:232|336:220|328:196|328:176|328:156|328:88,1,180
280,44,4107,1,0,0:0:0:0:
120,56,4448,2,0,B|108:120|156:156|76:228,1,180
84,268,5130,6,0,B|148:272|204:284|264:280,1,180
376,284,5641,2,0,B|376:232|376:176|376:160|376:156,1,90
316,124,5982,1,0,0:0:0:0:
236,80,6152,2,0,P|144:120|80:188,1,180
264,236,6664,1,0,0:0:0:0:
180,304,6834,2,0,B|136:312|80:304|80:288|100:312|68:268,1,90
96,116,7175,2,0,L|164:56,1,90
232,128,7516,5,0,0:0:0:0:
216,212,7686,2,0,P|284:268|292:272,1,90
344,272,8027,2,0,P|368:232|324:184,1,90
328,128,8368,1,0,0:0:0:0:
304,52,8539,5,0,0:0:0:0:
160,68,8709,1,0,0:0:0:0:
44,184,8880,2,0,P|20:240|44:288,2,90
93,198,9391,2,0,B|161:190|260:120|260:120,1,180
116,104,9902,1,0,0:0:0:0:
208,72,10073,1,0,0:0:0:0:
292,124,10243,1,0,0:0:0:0:
232,172,10414,1,0,0:0:0:0:
304,232,10584,1,0,0:0:0:0:
288,280,10755,2,0,P|248:312|192:292,1,90
168,252,11096,6,0,L|144:204,12,45
116,140,12289,6,0,P|100:196|148:228,1,90
252,212,12630,2,0,P|244:104|312:92,1,180
376,52,13141,2,0,L|444:152,1,90
344,168,13482,1,0,0:0:0:0:
232,176,13652,1,0,0:0:0:0:
216,268,13823,2,0,P|148:248|116:144,1,180
224,92,14334,1,0,0:0:0:0:
80,248,14505,1,0,0:0:0:0:
92,140,14675,6,0,B|136:84|208:112|208:112,1,90
168,208,15016,1,0,0:0:0:0:
80,168,15186,1,0,0:0:0:0:
112,264,15357,2,0,P|148:304|216:308,1,90
316,220,15698,1,0,0:0:0:0:
188,136,15868,1,0,0:0:0:0:
192,224,16039,5,0,0:0:0:0:
120,96,16209,2,0,P|176:76|240:88,1,90
396,104,16550,1,0,0:0:0:0:
376,192,16721,2,0,P|320:204|264:184,1,90
136,220,17061,2,0,B|128:276|160:288|176:316,1,90
328,76,17402,6,0,B|344:124|368:148|312:256,1,180
136,248,17914,5,0,0:0:0:0:
88,208,18084,2,0,P|68:160|168:76,1,180
324,200,18595,1,0,0:0:0:0:
256,304,18766,1,0,0:0:0:0:
160,252,18936,1,0,0:0:0:0:
192,160,19107,1,0,0:0:0:0:
72,236,19277,1,0,0:0:0:0:
84,136,19448,1,0,0:0:0:0:
120,56,19618,1,0,0:0:0:0:
192,48,19789,2,0,P|244:72|248:336,1,360
164,316,20641,5,0,0:0:0:0:
80,192,20811,2,0,B|96:120|120:132|144:120|148:124,2,90
256,48,21323,5,0,0:0:0:0:
364,72,21493,2,0,B|328:140|360:176|312:228,1,135
284,260,22004,1,0,0:0:0:0:
248,256,22090,1,0,0:0:0:0:
212,252,22175,2,0,B|184:200|256:136|252:136,1,90
184,96,22516,1,0,0:0:0:0:
108,112,22686,1,0,0:0:0:0:
104,148,22772,1,0,0:0:0:0:
100,188,22857,1,0,0:0:0:0:
100,220,22942,2,0,B|132:248|176:252|272:272|292:264|352:260,1,225
372,248,23539,6,0,P|384:176|180:104,1,337.500012874604
184,156,24561,1,0,0:0:0:0:
292,164,24902,2,0,P|340:192|208:336,1,337.500012874604
180,268,25925,1,0,0:0:0:0:
176,140,26095,1,0,0:0:0:0:
260,60,26266,2,0,P|340:88|208:280,1,405.000015449525
144,240,27459,1,0,0:0:0:0:
72,152,27629,2,0,B|116:100|356:152|360:152,1,270.000010299683
384,240,28482,1,0,0:0:0:0:
384,240,28567,1,0,0:0:0:0:
384,240,28652,1,0,0:0:0:0:
356,300,28823,6,0,B|320:260|224:260|208:256|172:252,1,180
228,172,29334,1,0,0:0:0:0:
184,344,29504,1,0,0:0:0:0:
160,264,29675,2,0,B|104:236|112:204|100:176|164:116,1,180
216,184,30186,1,0,0:0:0:0:
368,188,30357,2,0,B|336:152|408:104|308:28,1,180
256,72,30868,1,0,0:0:0:0:
128,92,31039,2,0,B|92:156|160:204|152:208,1,90
192,308,31379,2,0,L|280:272,1,67.5000025749208
328,224,31720,2,0,P|256:224|184:116,1,202.500007724762
184,100,32232,1,0,0:0:0:0:
296,84,32402,5,0,0:0:0:0:
128,88,32573,2,0,P|104:128|152:148,1,90
104,252,32913,1,0,0:0:0:0:
320,252,33084,1,0,0:0:0:0:
236,64,33254,1,0,0:0:0:0:
296,112,33425,1,0,0:0:0:0:
160,104,33595,1,0,0:0:0:0:
232,104,33766,2,0,B|192:196|192:216|200:228|208:240|196:256|188:276,1,180
200,288,34277,5,0,0:0:0:0:
218,248,34362,1,0,0:0:0:0:
222,203,34447,1,0,0:0:0:0:
204,162,34533,1,0,0:0:0:0:
175,128,34618,1,0,0:0:0:0:
142,97,34703,1,0,0:0:0:0:
106,70,34788,1,0,0:0:0:0:
76,68,34874,5,0,0:0:0:0:
44,79,34959,1,0,0:0:0:0:
29,121,35044,1,0,0:0:0:0:
32,166,35129,1,0,0:0:0:0:
54,205,35215,1,0,0:0:0:0:
90,231,35300,1,0,0:0:0:0:
134,240,35385,1,0,0:0:0:0:
177,230,35470,1,0,0:0:0:0:
212,202,35555,1,0,0:0:0:0:
233,163,35641,1,0,0:0:0:0:
248,128,35726,5,0,0:0:0:0:
214,144,35811,1,0,0:0:0:0:
182,163,35896,1,0,0:0:0:0:
151,185,35981,1,0,0:0:0:0:
122,209,36066,1,0,0:0:0:0:
95,235,36152,1,0,0:0:0:0:
71,263,36237,1,0,0:0:0:0:
52,280,36323,1,0,0:0:0:0:
304,296,36493,5,0,0:0:0:0:
388,80,36664,1,0,0:0:0:0:
112,76,36834,1,0,0:0:0:0:
188,232,37005,1,0,0:0:0:0:
316,232,37175,1,0,0:0:0:0:
312,208,37346,2,0,P|280:132|368:60,1,180
408,124,37857,5,0,0:0:0:0:
240,224,38027,1,0,0:0:0:0:
240,224,38112,1,0,0:0:0:0:
240,224,38197,1,0,0:0:0:0:
180,272,38538,5,0,0:0:0:0:
116,144,38709,1,0,0:0:0:0:
256,200,38879,1,0,0:0:0:0:
228,72,39050,1,0,0:0:0:0:
344,40,39220,1,0,0:0:0:0:
156,240,39391,1,0,0:0:0:0:
344,80,39561,2,0,L|356:200,1,90
328,224,39902,2,0,L|268:140,1,90
240,136,40243,2,0,L|120:164,1,90
328,164,40754,5,0,0:0:0:0:
392,280,40925,1,0,0:0:0:0:
320,80,41096,1,0,0:0:0:0:
240,100,41266,1,0,0:0:0:0:
160,40,41436,1,0,0:0:0:0:
80,164,41607,1,0,0:0:0:0:
152,56,41777,1,0,0:0:0:0:
344,52,41948,1,0,0:0:0:0:
384,152,42118,1,0,0:0:0:0:
272,224,42459,2,0,L|160:236,1,90
108,224,42970,5,0,0:0:0:0:
64,64,43141,1,0,0:0:0:0:
192,224,43311,1,0,0:0:0:0:
285,128,43481,1,0,0:0:0:0:
279,136,43567,1,0,0:0:0:0:
274,145,43652,1,0,0:0:0:0:
269,154,43737,1,0,0:0:0:0:
264,163,43822,1,0,0:0:0:0:
260,173,43908,1,0,0:0:0:0:
240,184,43993,6,0,B|196:160|224:112|220:112,6,45
216,144,45016,6,0,P|248:96|208:60,1,90
152,80,45356,1,0,0:0:0:0:
152,168,45527,1,0,0:0:0:0:
256,192,45698,2,0,B|296:172|296:96|296:96|288:104,1,90
300,56,46039,2,0,L|184:56,1,90
168,80,46464,1,0,0:0:0:0:
88,168,46720,2,0,B|92:216|128:252|188:208|236:188|264:188|336:304,1,314.999990386963
384,244,47914,2,0,B|320:164|272:128|220:128|156:152|140:156|188:72,1,314.999990386963
268,72,48936,1,0,0:0:0:0:
312,152,49107,5,0,0:0:0:0:
228,264,49277,1,0,0:0:0:0:
104,152,49448,1,0,0:0:0:0:
260,192,49618,1,0,0:0:0:0:
156,156,49789,1,0,0:0:0:0:
168,92,49959,2,0,L|348:44,1,180
344,116,50471,1,0,0:0:0:0:
356,180,50641,2,0,P|368:236|208:276,1,270
128,208,51322,1,0,0:0:0:0:
72,120,51493,5,0,0:0:0:0:
240,84,51663,1,0,0:0:0:0:
388,68,51834,1,0,0:0:0:0:
292,192,52004,1,0,0:0:0:0:
408,200,52175,1,0,0:0:0:0:
224,176,52346,1,0,0:0:0:0:
276,68,52516,1,0,0:0:0:0:
328,264,52686,1,0,0:0:0:0:
272,244,52857,2,0,L|216:128,1,90
288,72,53197,1,0,0:0:0:0:
404,96,53368,1,0,0:0:0:0:
448,228,53538,5,0,0:0:0:0:
344,192,53709,1,0,0:0:0:0:
256,304,53879,2,0,L|256:204,1,90
168,192,54221,1,0,0:0:0:0:
208,84,54391,1,0,0:0:0:0:
96,104,54561,1,0,0:0:0:0:
160,192,54731,2,0,L|232:280,1,90
272,168,55072,1,0,0:0:0:0:
380,232,55200,1,0,0:0:0:0:
392,48,55413,6,0,L|312:44,1,60
368,192,55754,1,0,0:0:0:0:
432,296,55925,1,0,0:0:0:0:
292,304,56095,2,0,B|204:248|192:188|184:128,1,180
304,200,56606,1,0,0:0:0:0:
356,60,56777,1,0,0:0:0:0:
252,136,56948,1,0,0:0:0:0:
236,72,57118,2,0,P|144:92|76:196,1,180
192,208,57630,6,0,L|192:96,2,90
280,212,58141,2,0,L|276:312,2,90
360,220,58652,1,0,0:0:0:0:
344,144,58822,1,0,0:0:0:0:
252,100,58950,1,0,0:0:0:0:
324,48,59078,1,0,0:0:0:0:
344,68,59163,1,0,0:0:0:0:
356,104,59248,1,0,0:0:0:0:
384,136,59334,6,0,P|312:172|128:140,1,270
148,124,59930,1,0,0:0:0:0:
176,112,60015,1,0,0:0:0:0:
208,104,60101,1,0,0:0:0:0:
232,96,60186,1,0,0:0:0:0:
264,88,60271,1,0,0:0:0:0:
312,88,60357,6,0,B|332:136|236:256|236:256|236:252,1,180
160,300,60868,1,0,0:0:0:0:
108,248,61038,1,0,0:0:0:0:
56,152,61209,1,0,0:0:0:0:
128,80,61379,2,0,L|160:172,1,90
292,120,61720,1,0,0:0:0:0:
240,208,61891,2,0,B|188:264|188:264|172:272,1,90
64,92,62231,1,0,0:0:0:0:
180,100,62402,5,0,0:0:0:0:
264,124,62572,2,0,L|336:200,1,90
348,232,62914,2,0,L|180:148,1,180
224,104,63425,2,0,B|136:104|96:128|60:168,1,180
0,192,63936,1,0,0:0:0:0:
76,256,64106,1,0,0:0:0:0:
136,288,64277,2,0,P|192:276|256:176,1,180
176,120,64788,1,0,0:0:0:0:
84,112,64959,6,0,L|64:224,1,90
220,100,65300,2,0,L|312:172,1,90
412,108,65640,1,0,0:0:0:0:
392,208,65811,2,0,L|120:204,1,270
172,168,66493,2,0,L|192:128,1,45
228,96,66664,2,0,P|288:80|328:104,2,90
200,112,67175,6,0,P|184:176|308:128,1,270
292,128,67857,2,0,L|216:304,1,180
176,292,68368,2,0,L|96:120,1,180
132,112,68880,2,0,L|240:112,1,90
252,84,69221,2,0,L|392:72,2,135
132,84,69902,1,0,0:0:0:0:
144,176,70243,5,0,0:0:0:0:
216,144,70413,1,0,0:0:0:0:
176,80,70583,1,0,0:0:0:0:
268,84,70754,1,0,0:0:0:0:
332,128,70925,2,0,L|300:232,1,90
240,288,71266,2,0,L|140:88,1,180
184,56,71777,1,0,0:0:0:0:
320,192,71947,1,0,0:0:0:0:
384,88,72118,6,0,L|196:88,1,180
216,296,72630,2,0,L|412:296,1,180
408,224,73141,2,0,L|324:176,1,90
440,136,73482,2,0,L|240:132,1,180
176,152,73993,2,0,L|268:288,2,135
336,240,74674,5,0,0:0:0:0:
336,32,74845,2,0,B|140:104|140:104|152:108,1,180
157,120,75356,2,0,L|380:260,1,225
404,60,76039,6,0,L|128:56,1,270
140,96,76720,2,0,P|132:140|344:144,1,360
420,224,77573,1,0,0:0:0:0:
324,296,77743,1,0,0:0:0:0:
220,280,77914,1,0,0:0:0:0:
296,172,78084,1,0,0:0:0:0:
408,176,78254,1,0,0:0:0:0:
340,272,78424,1,0,0:0:0:0:
232,272,78595,2,0,P|144:272|120:256,1,90
68,212,78936,1,0,0:0:0:0:
160,72,79106,5,0,0:0:0:0:
176,72,79191,1,0,0:0:0:0:
200,72,79277,1,0,0:0:0:0:
256,80,79447,2,0,L|316:80,1,45
384,80,79789,2,0,L|380:184,1,90
104,288,80300,2,0,P|88:216|132:120,1,180
196,192,81152,1,0,0:0:0:0:
72,56,81323,1,0,0:0:0:0:
156,64,81492,1,0,0:0:0:0:
178,62,81578,1,0,0:0:0:0:
200,65,81663,1,0,0:0:0:0:
221,73,81748,1,0,0:0:0:0:
240,86,81833,1,0,0:0:0:0:
255,102,81919,1,0,0:0:0:0:
266,122,82004,5,0,0:0:0:0:
273,143,82089,1,0,0:0:0:0:
275,165,82174,1,0,0:0:0:0:
272,188,82259,1,0,0:0:0:0:
256,192,82346,12,0,87800,0:0:0:0:
