osu file format v14

[General]
AudioFilename: Eir_Aoi-Sirius_TV_size_ver_OP_1_Opening_1__1_Kill_la_Kill.mp3
AudioLeadIn: 0
PreviewTime: 60357
Countdown: 0
SampleSet: Soft
StackLeniency: 0.7
Mode: 0
LetterboxInBreaks: 0
WidescreenStoryboard: 1

[Editor]
DistanceSpacing: 0.8
BeatDivisor: 4
GridSize: 4
TimelineZoom: 1

[Metadata]
Title:Sirius (TV size ver.)
TitleUnicode:Sirius (TV size ver.)
Artist:Eir Aoi
ArtistUnicode:Eir Aoi
Creator:kricher
Version:Hard
Source:kill la kill
Tags:kill la kill
BeatmapID:900867
BeatmapSetID:415763

[Difficulty]
HPDrainRate:4
CircleSize:3
OverallDifficulty:7
ApproachRate:8
SliderMultiplier:1.8
SliderTickRate:1

[Events]
//Background and Video events
0,0,"sirius osu.jpg",0,0
//Break Periods
//Storyboard Layer 0 (Background)
//Storyboard Layer 1 (Fail)
//Storyboard Layer 2 (Pass)
//Storyboard Layer 3 (Foreground)
//Storyboard Sound Samples

[TimingPoints]
357.168091623047,340.91,4,1,0,45,1,0
23539,-133.333333333333,4,2,0,45,0,0
28911,-100,4,2,0,45,0,0
31174,-133.333333333333,4,2,0,45,0,0
31593,-100,4,2,0,45,0,0
36323,-100,4,3,0,45,0,0
38539,-100,4,2,0,45,0,0
46174,-142.857142857143,4,2,0,45,0,0
60272,-100,4,1,0,45,0,1
68297,-200,4,1,0,45,0,1
69386,-100,4,1,0,45,0,1
79363,-200,4,2,0,45,0,0
80615,-200,4,2,0,45,0,0
81872,-200,4,2,0,45,0,0

[Colours]
Combo1 : 255,255,255
Combo2 : 0,255,168

[HitObjects]
260,188,357,6,0,L|304:152,14,45
348,112,1720,2,0,B|244:92|204:88,1,135
108,64,2232,1,0,0:0:0:0:
80,168,2572,1,0,0:0:0:0:
192,192,2913,1,0,0:0:0:0:
256,128,3254,1,0,0:0:0:0:
176,64,3595,2,0,B|160:192|160:184,2,90
104,48,4448,6,0,P|116:160|252:160,1,270
220,56,5129,2,0,B|324:48|376:192|376:188,1,180
352,248,5811,2,0,P|216:272|100:176,2,270
144,72,7175,5,0,0:0:0:0:
144,72,7261,1,0,0:0:0:0:
144,72,7346,1,0,0:0:0:0:
144,72,7431,1,0,0:0:0:0:
144,72,7516,2,0,L|356:76,1,180
360,208,8198,1,0,0:0:0:0:
232,232,8539,1,0,0:0:0:0:
152,200,8879,6,0,B|96:156|68:144|16:36,2,180
284,156,9903,1,0,0:0:0:0:
284,156,9988,1,0,0:0:0:0:
284,156,10073,1,0,0:0:0:0:
284,156,10158,1,0,0:0:0:0:
284,156,10244,1,0,0:0:0:0:
284,156,10328,1,0,0:0:0:0:
284,156,10414,2,0,L|324:136,6,45
352,128,11095,2,0,B|416:92|484:204|364:264,1,225
116,112,12629,6,0,P|88:176|164:264,1,180
264,232,13311,1,0,0:0:0:0:
240,104,13652,1,0,0:0:0:0:
132,108,13823,6,0,B|224:112|304:192|300:192,1,180
244,272,14334,1,0,0:0:0:0:
88,276,14675,1,0,0:0:0:0:
96,168,15016,1,0,0:0:0:0:
88,108,15357,2,0,B|148:156|260:156|260:152,1,180
344,152,15868,2,0,P|304:216|180:208,1,180
80,204,16379,1,0,0:0:0:0:
188,252,16720,1,0,0:0:0:0:
136,136,17061,2,0,P|180:196|296:224,2,180
72,96,18084,6,0,P|112:164|232:172,1,180
328,112,18766,1,0,0:0:0:0:
212,72,19107,1,0,0:0:0:0:
256,188,19448,1,0,0:0:0:0:
392,192,19789,1,0,0:0:0:0:
352,96,20129,6,0,P|288:128|204:236,1,180
280,308,20811,1,0,0:0:0:0:
188,248,21152,1,0,0:0:0:0:
140,152,21493,1,0,0:0:0:0:
176,64,21834,2,0,P|228:124|332:152,1,180
416,196,22345,1,0,0:0:0:0:
416,196,22516,1,0,0:0:0:0:
276,208,22857,2,0,P|212:188|176:124,2,135
280,132,23539,6,0,P|300:184|136:280,1,270.000010299683
32,260,24561,1,0,0:0:0:0:
168,236,24902,2,0,P|148:144|308:184,1,337.500012874604
288,244,26095,2,0,P|320:284|440:168,1,270.000010299683
312,200,27118,1,0,0:0:0:0:
216,220,27459,1,0,0:0:0:0:
200,224,27629,2,0,P|176:164|284:144,2,202.500007724762
248,192,28993,6,0,P|332:180|376:96,1,180
268,120,29675,1,0,0:0:0:0:
148,132,30016,1,0,0:0:0:0:
92,236,30357,1,0,0:0:0:0:
208,296,30698,1,0,0:0:0:0:
208,288,31039,6,0,P|272:280|372:192,1,180
364,120,31720,2,0,P|304:112|84:292,1,360
96,312,32743,1,0,0:0:0:0:
236,296,33084,1,0,0:0:0:0:
312,288,33425,6,0,P|328:232|296:176,2,90
144,224,34022,5,0,0:0:0:0:
144,224,34107,1,0,0:0:0:0:
160,244,34192,1,0,0:0:0:0:
160,244,34277,1,0,0:0:0:0:
160,244,34363,1,0,0:0:0:0:
160,244,34448,1,0,0:0:0:0:
164,144,34618,2,0,P|204:120|224:96,14,45
160,244,35982,1,0,0:0:0:0:
160,244,36067,1,0,0:0:0:0:
160,244,36152,1,0,0:0:0:0:
160,244,36237,2,0,P|200:260|212:264,11,45
292,232,37345,5,0,0:0:0:0:
396,188,37516,1,0,0:0:0:0:
220,68,37686,1,0,0:0:0:0:
212,164,37857,5,0,0:0:0:0:
300,128,38027,1,0,0:0:0:0:
300,128,38112,1,0,0:0:0:0:
300,128,38198,1,0,0:0:0:0:
264,120,38539,2,0,P|256:184|352:256,1,180
412,160,39220,2,0,P|380:128|228:120,1,180
96,168,39902,1,0,0:0:0:0:
108,260,40158,1,0,0:0:0:0:
152,244,40243,1,0,0:0:0:0:
192,228,40328,1,0,0:0:0:0:
232,216,40414,1,0,0:0:0:0:
128,124,40925,6,0,P|160:168|200:168,1,90
220,160,41266,2,0,P|284:136|396:216,1,180
380,220,41777,2,0,L|292:272,1,90
248,264,42118,2,0,L|160:236,1,90
112,256,42459,2,0,L|24:296,1,90
16,244,42800,6,0,P|32:168|44:152,1,90
72,144,43141,2,0,P|148:144|180:124,1,90
200,128,43482,2,0,P|244:96|296:88,1,90
320,92,43823,2,0,P|368:120|284:280,2,270
300,72,45357,6,0,P|256:80|168:176,3,180
188,200,46550,2,0,P|220:228|368:72,2,314.999990386963
96,236,48766,1,0,0:0:0:0:
240,120,49107,5,0,0:0:0:0:
180,132,49448,2,0,P|192:200|296:252,2,188.999994232178
352,92,50811,2,0,P|376:152|340:284,2,188.999994232178
136,176,52175,1,0,0:0:0:0:
384,100,52516,1,0,0:0:0:0:
384,256,52857,1,0,0:0:0:0:
252,240,53198,1,0,0:0:0:0:
140,236,53539,2,0,P|152:176|276:112,2,188.999994232178
120,96,54902,5,0,0:0:0:0:
156,212,55243,1,0,0:0:0:0:
280,96,55584,1,0,0:0:0:0:
340,256,55925,1,0,0:0:0:0:
376,136,56266,2,0,B|184:152|184:152,2,188.999994232178
176,84,57630,2,0,P|152:108|172:212,2,125.999996154785
264,80,58482,5,0,0:0:0:0:
264,80,58567,1,0,0:0:0:0:
264,80,58652,1,0,0:0:0:0:
264,80,58738,1,0,0:0:0:0:
264,80,58823,1,0,0:0:0:0:
264,80,58908,1,0,0:0:0:0:
264,80,58993,1,0,0:0:0:0:
264,80,59078,1,0,0:0:0:0:
264,80,59164,2,0,L|312:88,12,31.4999990386963
120,88,60357,5,0,0:0:0:0:
188,240,60698,1,0,0:0:0:0:
332,112,61039,1,0,0:0:0:0:
196,160,61380,1,0,0:0:0:0:
360,216,61720,1,0,0:0:0:0:
324,72,62061,1,0,0:0:0:0:
280,92,62232,1,0,0:0:0:0:
120,68,62743,5,0,0:0:0:0:
120,260,63084,1,0,0:0:0:0:
288,124,63425,1,0,0:0:0:0:
288,300,63766,1,0,0:0:0:0:
120,108,64107,1,0,0:0:0:0:
156,84,64277,1,0,0:0:0:0:
100,72,64789,5,0,0:0:0:0:
216,92,65130,1,0,0:0:0:0:
172,224,65470,1,0,0:0:0:0:
224,288,65811,2,0,P|304:264|240:52,1,360
136,240,67175,5,0,0:0:0:0:
256,160,67516,1,0,0:0:0:0:
312,272,67857,1,0,0:0:0:0:
352,260,68198,2,0,P|340:160|88:108,3,360
72,64,71266,5,0,0:0:0:0:
112,164,71607,1,0,0:0:0:0:
224,176,71948,1,0,0:0:0:0:
312,236,72289,1,0,0:0:0:0:
384,152,72630,1,0,0:0:0:0:
376,52,72970,2,0,P|216:88|60:236,1,360
84,304,73993,6,0,P|168:304|348:92,1,360
232,96,75016,1,0,0:0:0:0:
96,112,75357,2,0,P|96:184|340:272,1,360
144,192,76721,5,0,0:0:0:0:
268,128,77062,1,0,0:0:0:0:
272,228,77403,1,0,0:0:0:0:
120,144,77744,1,0,0:0:0:0:
168,132,77914,1,0,0:0:0:0:
68,72,78425,5,0,0:0:0:0:
88,208,78766,1,0,0:0:0:0:
160,96,79107,1,0,0:0:0:0:
172,184,79448,2,0,P|268:208|392:160,1,225
328,92,80471,1,0,0:0:0:0:
224,104,80641,1,0,0:0:0:0:
140,156,80812,1,0,0:0:0:0:
64,184,81323,2,0,P|100:228|176:224,1,135
280,236,82175,1,0,0:0:0:0:
256,192,82346,12,0,87630,0:0:0:0:
