osu file format v14

[General]
AudioFilename: audio.mp3
AudioLeadIn: 0
PreviewTime: 81688
Countdown: 1
SampleSet: Normal
StackLeniency: 0.7
Mode: 0
LetterboxInBreaks: 0
WidescreenStoryboard: 0

[Editor]
DistanceSpacing: 0.5
BeatDivisor: 4
GridSize: 32
TimelineZoom: 1.8

[Metadata]
Title:Shoegazer
TitleUnicode:シューゲイザー
Artist:Eir Aoi
ArtistUnicode:藍井エイル
Creator:Fuseka
Version:Insane
Source:
Tags:
BeatmapID:940558
BeatmapSetID:436707

[Difficulty]
HPDrainRate:7
CircleSize:5
OverallDifficulty:8
ApproachRate:9.5
SliderMultiplier:1.4
SliderTickRate:1

[Events]
//Background and Video events
0,0,"Konachan.com - 185308 sample.jpg",0,0
//Break Periods
2,164559,174743
//Storyboard Layer 0 (Background)
//Storyboard Layer 1 (Fail)
//Storyboard Layer 2 (Pass)
//Storyboard Layer 3 (Foreground)
//Storyboard Sound Samples

[TimingPoints]
6007,340.909090909091,4,1,0,60,1,0
22713,-100,4,1,0,20,0,0
38401,-76.9230769230769,4,1,0,40,0,0
41467,-76.9230769230769,4,1,0,60,0,0
53740,-200,4,1,0,10,0,0
54592,-100,4,1,0,40,0,0
71638,-76.9230769230769,4,1,0,60,0,0
82547,-66.6666666666667,4,1,0,60,0,1
98740,-66.6666666666667,4,1,0,60,0,0
109813,-200,4,1,0,20,0,0
112541,-66.6666666666667,4,1,0,60,0,0
131632,-125,4,1,0,30,0,0
153462,-142.857142857143,4,1,0,60,0,0
158575,-90.9090909090909,4,1,0,60,0,0
164371,-200,4,1,0,20,0,0
175280,-200,4,1,0,20,0,0
183450,-71.4285714285714,4,1,0,70,0,1
210041,-200,4,1,0,70,0,1
213291,-71.4285714285714,4,1,0,70,0,0

[HitObjects]
128,191,6007,6,0,P|160:159|256:160,1,140
282,176,6518,1,0,0:0:0:0:
282,176,6859,1,0,0:0:0:0:
352,96,7029,1,0,0:0:0:0:
433,238,7200,1,0,0:0:0:0:
433,238,7370,1,0,0:0:0:0:
439,241,7711,6,0,L|343:241,1,70
251,242,8052,1,0,0:0:0:0:
64,130,8222,1,0,0:0:0:0:
132,314,8393,1,0,0:0:0:0:
215,140,8563,1,0,0:0:0:0:
39,243,8734,2,0,L|91:168,1,70
184,64,9075,6,0,L|248:96,1,70
409,180,9416,1,0,0:0:0:0:
290,94,9586,1,0,0:0:0:0:
336,270,9757,1,0,0:0:0:0:
482,127,9927,1,0,0:0:0:0:
302,223,10097,2,0,P|238:191|174:223,1,140
96,320,10609,6,0,L|160:288,1,70
288,224,10950,1,0,0:0:0:0:
156,191,11120,1,0,0:0:0:0:
242,320,11291,1,0,0:0:0:0:
365,184,11461,6,0,P|301:152|205:152,1,140
64,160,11972,2,0,L|96:224,1,70
159,334,12313,1,0,0:0:0:0:
331,233,12484,1,0,0:0:0:0:
159,156,12654,1,0,0:0:0:0:
347,91,12825,6,0,P|384:103|414:135,1,70
448,288,13166,1,0,0:0:0:0:
448,288,13251,1,0,0:0:0:0:
448,288,13336,2,0,P|410:318|376:326,1,70
293,325,13677,1,0,0:0:0:0:
225,166,13847,1,0,0:0:0:0:
110,317,14018,1,0,0:0:0:0:
110,317,14188,2,0,L|143:249,1,70
74,148,14529,6,0,L|88:197,1,35
241,158,14700,2,0,L|177:126,1,70
58,86,15041,1,0,0:0:0:0:
227,60,15211,1,0,0:0:0:0:
160,224,15382,1,0,0:0:0:0:
160,224,15552,6,0,P|256:256|320:256,1,140
352,96,16063,2,0,L|288:160,1,70
224,224,16404,1,0,0:0:0:0:
159,122,16575,1,0,0:0:0:0:
45,279,16745,1,0,0:0:0:0:
269,313,16916,6,0,P|290:281|288:224,1,70
288,128,17257,1,0,0:0:0:0:
288,128,17342,1,0,0:0:0:0:
288,128,17427,2,0,P|342:128|377:145,1,70
474,216,17768,1,0,0:0:0:0:
292,292,17938,1,0,0:0:0:0:
320,128,18109,1,0,0:0:0:0:
441,286,18279,6,0,P|387:297|283:288,1,140
267,286,18705,1,0,0:0:0:0:
232,279,18791,1,0,0:0:0:0:
75,241,18961,1,0,0:0:0:0:
162,132,19132,1,0,0:0:0:0:
230,272,19302,1,0,0:0:0:0:
266,76,19472,1,0,0:0:0:0:
350,259,19643,6,0,P|398:229|395:149,1,140
251,60,20069,1,0,0:0:0:0:
251,60,20154,2,0,L|248:150,1,70
242,261,20495,1,0,0:0:0:0:
87,160,20666,1,0,0:0:0:0:
251,60,20836,1,0,0:0:0:0:
316,251,21007,6,0,P|364:248|447:185,1,140
323,55,21518,2,0,L|390:113,1,70
290,65,21859,1,0,0:0:0:0:
276,75,21944,1,0,0:0:0:0:
262,85,22029,1,0,0:0:0:0:
252,99,22114,1,0,0:0:0:0:
244,115,22200,1,0,0:0:0:0:
239,131,22285,1,0,0:0:0:0:
235,148,22370,1,0,0:0:0:0:
232,165,22455,1,0,0:0:0:0:
230,182,22541,6,0,L|217:255,2,70
359,289,23052,2,0,L|306:227,1,70
289,100,23393,1,0,0:0:0:0:
309,236,23563,1,0,0:0:0:0:
289,100,23734,2,0,L|241:42,1,70
141,169,24075,1,0,0:0:0:0:
244,46,24245,1,0,0:0:0:0:
141,169,24416,2,0,L|93:111,1,70
226,279,24757,1,0,0:0:0:0:
373,202,24927,1,0,0:0:0:0:
258,99,25097,5,0,0:0:0:0:
258,99,25183,1,0,0:0:0:0:
258,99,25268,2,0,P|233:138|222:168,1,70
114,263,25609,1,0,0:0:0:0:
57,116,25779,2,0,P|103:107|154:108,1,70
293,98,26120,1,0,0:0:0:0:
293,98,26291,2,0,P|301:138|294:175,1,70
436,303,26632,6,0,P|410:257|401:167,1,140
400,55,27143,2,0,P|367:76|330:86,1,70
201,122,27484,1,0,0:0:0:0:
76,156,27654,6,0,L|41:213,1,35
194,261,27824,2,0,L|239:280,1,35
71,317,27995,2,0,B|81:263|92:259|92:259|93:232,1,70
162,140,28336,1,0,0:0:0:0:
243,246,28507,2,0,P|287:288|318:310,1,70
294,109,28847,1,0,0:0:0:0:
407,254,29018,1,0,0:0:0:0:
451,126,29188,6,0,P|401:147|365:157,1,70
203,214,29529,1,0,0:0:0:0:
297,99,29700,1,0,0:0:0:0:
345,257,29870,1,0,0:0:0:0:
112,227,30041,1,0,0:0:0:0:
246,109,30211,1,0,0:0:0:0:
264,294,30382,1,0,0:0:0:0:
67,286,30552,6,0,P|96:241|135:219,1,70
93,56,30893,2,0,P|106:104|111:150,1,70
129,227,31234,1,0,0:0:0:0:
208,282,31404,1,0,0:0:0:0:
316,282,31575,1,0,0:0:0:0:
394,194,31745,1,0,0:0:0:0:
416,64,31916,5,0,0:0:0:0:
416,64,32001,1,0,0:0:0:0:
416,64,32086,2,0,L|349:84,1,70
204,130,32427,2,0,L|242:147,1,35
365,222,32597,2,0,P|319:257|281:260,1,70
141,313,32938,2,0,P|151:265|167:237,1,70
109,132,33279,2,0,P|157:128|195:130,1,70
369,172,33620,5,0,0:0:0:0:
234,62,33791,1,0,0:0:0:0:
254,229,33961,1,0,0:0:0:0:
396,101,34132,1,0,0:0:0:0:
228,103,34302,1,0,0:0:0:0:
228,103,34387,1,0,0:0:0:0:
228,103,34472,6,0,P|253:151|263:242,1,140
262,335,34984,1,0,0:0:0:0:
383,160,35154,1,0,0:0:0:0:
466,295,35325,1,0,0:0:0:0:
228,226,35495,1,0,0:0:0:0:
470,153,35666,1,0,0:0:0:0:
312,303,35836,5,0,0:0:0:0:
312,303,35921,1,0,0:0:0:0:
306,303,36007,2,0,P|271:277|251:241,1,70
140,176,36347,2,0,L|91:182,1,35
237,81,36518,2,0,P|252:130|230:226,1,140
90,263,37029,1,0,0:0:0:0:
90,263,37200,2,0,P|120:216|144:197,1,70
345,294,37541,2,0,P|286:284|238:222,1,140
298,78,38052,2,0,L|333:141,1,70
430,287,38393,5,0,0:0:0:0:
324,101,38564,1,0,0:0:0:0:
181,290,38734,2,0,P|150:254|144:200,1,90.9999958343508
190,62,39074,5,0,0:0:0:0:
105,297,39245,1,0,0:0:0:0:
366,287,39415,2,0,P|392:222|360:188,1,90.9999958343508
212,76,39757,5,0,0:0:0:0:
410,205,39927,1,0,0:0:0:0:
136,301,40097,2,0,P|182:260|223:215,1,90.9999958343508
336,98,40438,5,0,0:0:0:0:
140,200,40609,1,0,0:0:0:0:
367,273,40779,1,0,0:0:0:0:
157,92,40950,1,0,0:0:0:0:
246,293,41120,1,0,0:0:0:0:
246,293,41205,1,0,0:0:0:0:
246,293,41291,1,0,0:0:0:0:
431,103,41461,6,0,L|332:107,1,90.9999958343508
107,163,41802,1,0,0:0:0:0:
225,69,41972,1,0,0:0:0:0:
160,269,42143,1,0,0:0:0:0:
309,141,42313,6,0,P|368:176|407:216,1,90.9999958343508
429,318,42654,1,0,0:0:0:0:
427,321,42825,6,0,P|362:309|324:292,1,90.9999958343508
111,232,43166,1,0,0:0:0:0:
255,142,43336,1,0,0:0:0:0:
247,315,43507,1,0,0:0:0:0:
377,158,43677,2,0,P|322:134|264:124,1,90.9999958343508
96,154,44018,1,0,0:0:0:0:
64,303,44188,6,0,P|123:304|160:289,1,90.9999958343508
338,207,44529,1,0,0:0:0:0:
157,117,44700,1,0,0:0:0:0:
180,293,44870,1,0,0:0:0:0:
307,96,45041,1,0,0:0:0:0:
106,197,45211,1,0,0:0:0:0:
284,337,45382,1,0,0:0:0:0:
296,192,45552,6,0,P|282:147|253:109,1,90.9999958343508
89,62,45893,2,0,P|91:118|112:150,1,90.9999958343508
201,325,46234,1,0,0:0:0:0:
201,325,46319,1,0,0:0:0:0:
201,325,46404,2,0,P|210:271|208:218,1,90.9999958343508
257,92,46745,1,0,0:0:0:0:
257,92,46916,6,0,L|335:154,1,90.9999958343508
462,249,47257,1,0,0:0:0:0:
295,187,47427,1,0,0:0:0:0:
482,179,47597,1,0,0:0:0:0:
246,240,47768,1,0,0:0:0:0:
474,242,47938,1,0,0:0:0:0:
222,155,48109,1,0,0:0:0:0:
458,202,48279,6,0,P|410:239|363:261,1,90.9999958343508
169,301,48620,1,0,0:0:0:0:
252,127,48791,1,0,0:0:0:0:
342,310,48961,1,0,0:0:0:0:
106,184,49132,1,0,0:0:0:0:
400,193,49302,1,0,0:0:0:0:
170,323,49472,1,0,0:0:0:0:
180,111,49643,6,0,P|205:167|216:201,1,90.9999958343508
266,339,49984,1,0,0:0:0:0:
328,151,50154,1,0,0:0:0:0:
98,240,50325,1,0,0:0:0:0:
180,77,50495,1,0,0:0:0:0:
264,279,50666,1,0,0:0:0:0:
94,186,50836,1,0,0:0:0:0:
284,104,51007,6,0,P|274:178|257:232,1,90.9999958343508
209,317,51347,2,0,L|130:273,1,90.9999958343508
46,233,51688,1,0,0:0:0:0:
201,98,51859,1,0,0:0:0:0:
190,216,52029,1,0,0:0:0:0:
126,167,52200,1,0,0:0:0:0:
194,138,52370,6,0,L|292:150,1,90.9999958343508
286,157,53904,6,0,P|322:152|288:200,1,122.5
265,206,54586,1,0,0:0:0:0:
230,203,54671,1,0,0:0:0:0:
195,194,54757,1,0,0:0:0:0:
160,193,54842,1,0,0:0:0:0:
126,204,54927,1,0,0:0:0:0:
99,226,55012,1,0,0:0:0:0:
75,251,55097,1,0,0:0:0:0:
252,303,55268,6,0,P|254:242|251:217,1,70
245,88,55609,1,0,0:0:0:0:
245,88,55694,1,0,0:0:0:0:
245,88,55779,2,0,P|200:107|182:130,1,70
86,278,56120,1,0,0:0:0:0:
94,140,56291,1,0,0:0:0:0:
204,229,56461,6,0,P|253:215|298:203,1,70
423,176,56802,1,0,0:0:0:0:
323,112,56972,1,0,0:0:0:0:
376,290,57143,2,0,L|294:296,1,70
140,306,57484,1,0,0:0:0:0:
246,188,57654,1,0,0:0:0:0:
85,100,57825,5,0,0:0:0:0:
85,100,57910,1,0,0:0:0:0:
85,100,57995,2,0,P|110:142|122:170,1,70
156,288,58336,1,0,0:0:0:0:
218,106,58507,1,0,0:0:0:0:
336,211,58677,1,0,0:0:0:0:
225,195,58847,1,0,0:0:0:0:
347,68,59018,6,0,P|403:86|437:110,1,70
420,233,59359,1,0,0:0:0:0:
420,233,59529,2,0,L|365:263,1,35
267,313,59700,1,0,0:0:0:0:
224,189,59870,2,0,L|186:217,1,35
70,276,60041,1,0,0:0:0:0:
70,276,60211,2,0,P|58:220|62:195,1,70
110,110,60552,5,0,0:0:0:0:
110,110,60722,2,0,P|167:110|191:113,1,70
321,159,61063,1,0,0:0:0:0:
186,253,61234,2,0,P|232:250|259:257,1,70
385,309,61575,1,0,0:0:0:0:
329,163,61745,6,0,L|274:231,1,70
204,293,62086,1,0,0:0:0:0:
82,210,62257,1,0,0:0:0:0:
155,93,62427,1,0,0:0:0:0:
306,91,62597,2,0,P|336:139|342:172,1,70
391,321,62938,2,0,P|427:276|437:234,1,70
460,149,63279,6,0,P|406:155|375:174,1,70
251,231,63620,1,0,0:0:0:0:
251,231,63705,1,0,0:0:0:0:
251,231,63791,1,0,0:0:0:0:
88,168,63961,1,0,0:0:0:0:
147,279,64132,1,0,0:0:0:0:
137,59,64302,2,0,P|193:71|224:86,1,70
318,126,64643,6,0,L|296:226,1,70
267,314,64984,1,0,0:0:0:0:
227,195,65154,1,0,0:0:0:0:
168,297,65325,1,0,0:0:0:0:
316,235,65495,1,0,0:0:0:0:
148,223,65666,1,0,0:0:0:0:
300,142,65836,1,0,0:0:0:0:
227,273,66007,1,0,0:0:0:0:
169,110,66177,6,0,P|128:123|95:151,1,70
51,309,66518,1,0,0:0:0:0:
51,309,66688,2,0,P|101:294|121:284,1,70
215,189,67029,1,0,0:0:0:0:
215,189,67200,2,0,P|268:193|298:210,1,70
403,303,67541,2,0,P|410:248|394:155,1,140
260,66,68052,2,0,P|235:113|207:129,1,70
81,228,68393,5,0,0:0:0:0:
319,316,68563,1,0,0:0:0:0:
228,54,68734,2,0,L|206:149,1,70
151,292,69075,1,0,0:0:0:0:
403,131,69245,1,0,0:0:0:0:
365,323,69416,6,0,L|296:267,1,70
138,88,69757,1,0,0:0:0:0:
397,178,69927,1,0,0:0:0:0:
179,308,70097,2,0,L|227:224,1,70
340,62,70438,1,0,0:0:0:0:
127,173,70609,1,0,0:0:0:0:
388,254,70779,1,0,0:0:0:0:
181,62,70950,1,0,0:0:0:0:
221,324,71120,1,0,0:0:0:0:
329,100,71291,1,0,0:0:0:0:
65,194,71461,5,0,0:0:0:0:
445,251,71632,1,0,0:0:0:0:
171,128,71972,6,0,L|214:242,1,90.9999958343508
345,280,72313,2,0,L|310:88,1,181.999991668702
118,212,72825,6,0,L|299:217,1,181.999991668702
390,133,73336,6,0,L|282:143,1,90.9999958343508
164,299,73677,2,0,L|360:278,1,181.999991668702
322,77,74188,5,0,0:0:0:0:
322,77,74274,1,0,0:0:0:0:
322,77,74359,2,0,P|282:127|277:177,1,90.9999958343508
251,312,74700,1,0,0:0:0:0:
251,312,74870,2,0,P|192:268|166:259,1,90.9999958343508
312,71,75212,1,0,0:0:0:0:
312,71,75382,2,0,L|306:165,1,90.9999958343508
295,322,75722,1,0,0:0:0:0:
295,322,75893,5,0,0:0:0:0:
405,206,76063,1,0,0:0:0:0:
220,156,76234,1,0,0:0:0:0:
285,254,76404,1,0,0:0:0:0:
263,49,76575,1,0,0:0:0:0:
70,133,76745,1,0,0:0:0:0:
185,314,76916,1,0,0:0:0:0:
185,314,77086,6,0,L|218:210,1,90.9999958343508
262,123,77427,1,0,0:0:0:0:
382,256,77597,2,0,L|444:173,1,90.9999958343508
260,268,77938,5,0,0:0:0:0:
146,108,78109,1,0,0:0:0:0:
373,142,78279,1,0,0:0:0:0:
125,219,78450,1,0,0:0:0:0:
406,261,78620,1,0,0:0:0:0:
240,66,78791,1,0,0:0:0:0:
134,309,78961,2,0,L|102:206,1,90.9999958343508
66,82,79302,5,0,0:0:0:0:
431,197,79472,1,0,0:0:0:0:
134,309,79643,1,0,0:0:0:0:
264,66,79813,5,0,0:0:0:0:
256,308,79984,1,0,0:0:0:0:
119,124,80325,5,0,0:0:0:0:
392,269,80666,1,0,0:0:0:0:
423,232,81007,5,0,0:0:0:0:
70,254,81177,1,0,0:0:0:0:
265,82,82541,6,0,L|216:183,1,105.000004005432
155,315,82882,1,0,0:0:0:0:
341,313,83052,2,0,P|352:248|342:207,1,105.000004005432
283,98,83393,1,0,0:0:0:0:
122,187,83563,1,0,0:0:0:0:
216,46,83734,2,0,P|233:105|236:153,1,105.000004005432
191,339,84075,6,0,P|265:298|299:300,1,105.000004005432
445,318,84416,1,0,0:0:0:0:
291,255,84586,1,0,0:0:0:0:
452,216,84757,1,0,0:0:0:0:
217,174,84927,1,0,0:0:0:0:
452,61,85097,1,0,0:0:0:0:
452,61,85183,1,0,0:0:0:0:
452,61,85268,2,0,P|418:115|405:184,1,105.000004005432
341,318,85609,2,0,L|294:273,1,52.5000020027161
150,285,85779,6,0,P|193:237|246:212,1,105.000004005432
330,149,86120,1,0,0:0:0:0:
127,60,86291,2,0,P|198:64|231:92,1,105.000004005432
437,281,86632,2,0,P|392:232|368:182,1,105.000004005432
335,67,86972,1,0,0:0:0:0:
291,269,87143,1,0,0:0:0:0:
128,224,87313,6,0,L|78:192,1,52.5000020027161
251,120,87484,2,0,L|314:100,1,52.5000020027161
117,78,87654,1,0,0:0:0:0:
117,78,87825,2,0,L|173:179,1,105.000004005432
276,319,88166,2,0,L|303:250,1,52.5000020027161
331,167,88336,1,0,0:0:0:0:
331,167,88507,5,0,0:0:0:0:
177,228,88677,2,0,L|162:124,1,105.000004005432
265,79,89018,1,0,0:0:0:0:
262,84,89188,2,0,P|316:154|323:196,1,105.000004005432
375,308,89529,5,0,0:0:0:0:
178,300,89700,1,0,0:0:0:0:
269,142,89870,1,0,0:0:0:0:
291,321,90041,2,0,P|232:281|198:243,1,105.000004005432
85,158,90382,2,0,L|50:217,1,52.5000020027161
197,52,90552,2,0,L|119:39,1,52.5000020027161
213,167,90722,6,0,P|222:236|200:291,1,105.000004005432
341,108,91063,1,0,0:0:0:0:
359,247,91234,2,0,P|432:224|459:207,1,105.000004005432
455,209,91575,5,0,0:0:0:0:
206,95,91745,1,0,0:0:0:0:
275,318,91916,1,0,0:0:0:0:
275,318,92001,1,0,0:0:0:0:
275,318,92086,2,0,P|325:258|332:230,1,105.000004005432
330,66,92427,2,0,P|275:87|213:129,1,105.000004005432
97,253,92768,5,0,0:0:0:0:
235,110,92938,1,0,0:0:0:0:
326,279,93109,1,0,0:0:0:0:
460,82,93279,1,0,0:0:0:0:
460,82,93364,1,0,0:0:0:0:
460,82,93450,2,0,P|409:121|358:147,1,105.000004005432
222,218,93791,1,0,0:0:0:0:
69,312,93961,6,0,P|89:246|126:207,1,105.000004005432
256,102,94302,1,0,0:0:0:0:
130,197,94472,1,0,0:0:0:0:
349,212,94643,1,0,0:0:0:0:
89,304,94813,1,0,0:0:0:0:
374,308,94984,6,0,P|329:235|302:209,1,105.000004005432
135,94,95325,1,0,0:0:0:0:
138,98,95495,2,0,P|131:158|143:210,1,105.000004005432
357,303,95836,2,0,L|320:244,1,52.5000020027161
245,108,96007,1,0,0:0:0:0:
248,112,96177,6,0,P|312:90|351:86,1,105.000004005432
280,252,96518,1,0,0:0:0:0:
135,120,96688,2,0,P|165:186|288:253,1,210.000008010865
412,301,97200,2,0,P|358:257|307:252,1,105.000004005432
138,317,97541,6,0,P|101:264|129:215,1,105.000004005432
303,119,97882,1,0,0:0:0:0:
104,144,98052,1,0,0:0:0:0:
356,207,98222,1,0,0:0:0:0:
186,89,98393,1,0,0:0:0:0:
196,335,98563,1,0,0:0:0:0:
376,113,98734,1,0,0:0:0:0:
63,236,98904,5,0,0:0:0:0:
70,243,99245,1,0,0:0:0:0:
70,243,99586,1,0,0:0:0:0:
70,243,99927,5,0,0:0:0:0:
70,243,100097,1,0,0:0:0:0:
211,253,100268,1,0,0:0:0:0:
127,161,100438,1,0,0:0:0:0:
51,260,100609,1,0,0:0:0:0:
70,277,100694,1,0,0:0:0:0:
94,285,100779,1,0,0:0:0:0:
120,285,100864,1,0,0:0:0:0:
146,281,100950,1,0,0:0:0:0:
170,270,101035,1,0,0:0:0:0:
190,253,101120,6,0,L|278:160,1,105.000004005432
349,74,101461,5,0,0:0:0:0:
136,140,101632,1,0,0:0:0:0:
241,93,101972,1,0,0:0:0:0:
241,93,102313,1,0,0:0:0:0:
241,93,102654,1,0,0:0:0:0:
241,93,102825,5,0,0:0:0:0:
170,205,102995,1,0,0:0:0:0:
314,203,103166,1,0,0:0:0:0:
244,91,103336,1,0,0:0:0:0:
181,178,103507,1,0,0:0:0:0:
181,178,103847,6,0,L|297:246,1,105.000004005432
397,294,104188,1,0,0:0:0:0:
274,75,104359,1,0,0:0:0:0:
274,75,104700,1,0,0:0:0:0:
272,71,105041,1,0,0:0:0:0:
273,75,105211,6,0,L|248:187,1,105.000004005432
212,305,105552,5,0,0:0:0:0:
412,163,105722,1,0,0:0:0:0:
275,184,105893,1,0,0:0:0:0:
372,286,106063,1,0,0:0:0:0:
372,286,106404,1,0,0:0:0:0:
372,286,106575,6,0,L|261:235,1,105.000004005432
231,87,106916,1,0,0:0:0:0:
164,293,107086,1,0,0:0:0:0:
174,295,107427,1,0,0:0:0:0:
174,295,107768,1,0,0:0:0:0:
174,295,107938,6,0,L|211:180,1,105.000004005432
141,70,108279,1,0,0:0:0:0:
365,277,108450,1,0,0:0:0:0:
299,225,109813,6,0,P|314:179|307:269,1,542.5,0|0,0:0|0:0,0:0:0:0:
311,277,112541,6,0,L|191:252,1,105.000004005432
42,234,112882,1,0,0:0:0:0:
181,125,113052,1,0,0:0:0:0:
178,289,113222,1,0,0:0:0:0:
32,90,113393,2,0,P|53:163|90:193,1,105.000004005432
218,302,113734,5,0,0:0:0:0:
392,205,113904,1,0,0:0:0:0:
236,89,114075,1,0,0:0:0:0:
392,174,114245,1,0,0:0:0:0:
216,187,114416,6,0,L|106:207,1,105.000004005432
134,87,114757,1,0,0:0:0:0:
134,87,114927,1,0,0:0:0:0:
203,285,115097,5,0,0:0:0:0:
256,148,115268,1,0,0:0:0:0:
380,259,115438,1,0,0:0:0:0:
426,114,115609,1,0,0:0:0:0:
336,244,115779,2,0,P|264:284|231:297,1,105.000004005432
59,322,116120,2,0,P|56:237|69:200,1,105.000004005432
126,100,116461,5,0,0:0:0:0:
338,142,116632,1,0,0:0:0:0:
213,273,116802,1,0,0:0:0:0:
208,81,116972,1,0,0:0:0:0:
313,206,117143,2,0,P|361:255|401:279,1,105.000004005432
439,141,117484,1,0,0:0:0:0:
292,83,117654,2,0,P|272:172|268:202,1,105.000004005432
186,312,117995,5,0,0:0:0:0:
106,187,118166,1,0,0:0:0:0:
257,255,118336,1,0,0:0:0:0:
177,85,118507,2,0,P|176:144|169:215,1,105.000004005432
340,318,118847,6,0,P|327:238|319:180,1,105.000004005432
300,88,119188,1,0,0:0:0:0:
251,249,119359,1,0,0:0:0:0:
222,88,119529,1,0,0:0:0:0:
336,231,119700,1,0,0:0:0:0:
301,85,119870,6,0,P|277:147|245:191,1,105.000004005432
126,316,120211,2,0,P|94:243|95:208,1,105.000004005432
95,82,120552,5,0,0:0:0:0:
192,230,120722,1,0,0:0:0:0:
233,76,120893,1,0,0:0:0:0:
93,167,121063,1,0,0:0:0:0:
278,165,121234,2,0,P|330:203|386:243,1,105.000004005432
460,294,121575,5,0,0:0:0:0:
356,326,121745,1,0,0:0:0:0:
255,324,121916,1,0,0:0:0:0:
161,295,122086,1,0,0:0:0:0:
284,137,122257,1,0,0:0:0:0:
71,227,122427,1,0,0:0:0:0:
311,239,122597,2,0,P|331:183|325:129,1,105.000004005432
252,45,122938,5,0,0:0:0:0:
106,137,123109,2,0,P|103:192|139:241,1,105.000004005432
323,319,123450,6,0,P|301:258|270:215,1,105.000004005432
157,127,123791,1,0,0:0:0:0:
93,225,123961,1,0,0:0:0:0:
248,57,124132,2,0,P|259:126|244:179,1,105.000004005432
202,306,124472,1,0,0:0:0:0:
249,166,124643,1,0,0:0:0:0:
360,249,124813,1,0,0:0:0:0:
164,235,124984,1,0,0:0:0:0:
421,147,125154,6,0,P|357:110|321:103,1,105.000004005432
131,113,125495,1,0,0:0:0:0:
245,181,125666,2,0,P|261:253|285:310,1,105.000004005432
88,313,126007,1,0,0:0:0:0:
258,231,126177,1,0,0:0:0:0:
97,88,126347,5,0,0:0:0:0:
258,231,126518,1,0,0:0:0:0:
220,74,126688,2,0,P|179:141|174:177,1,105.000004005432
247,326,127029,2,0,P|291:296|346:274,1,105.000004005432
473,263,127370,1,0,0:0:0:0:
358,127,127541,1,0,0:0:0:0:
329,285,127711,1,0,0:0:0:0:
462,157,127882,1,0,0:0:0:0:
276,186,128052,2,0,P|228:230|186:281,1,105.000004005432
70,348,128393,6,0,L|91:223,1,105.000004005432
94,83,128734,1,0,0:0:0:0:
286,131,128904,1,0,0:0:0:0:
142,190,129075,1,0,0:0:0:0:
385,240,129245,1,0,0:0:0:0:
254,67,129416,2,0,P|272:131|262:211,1,105.000004005432
281,292,129757,1,0,0:0:0:0:
187,199,129927,1,0,0:0:0:0:
386,137,130097,5,0,0:0:0:0:
384,96,131632,6,0,L|295:193,1,112
210,237,132142,1,0,0:0:0:0:
182,230,132313,2,0,P|136:194|113:134,1,112
161,319,132825,1,0,0:0:0:0:
161,319,132995,2,0,L|265:237,1,112
319,130,133506,1,0,0:0:0:0:
319,130,133677,2,0,P|353:186|326:240,1,112
103,302,134188,1,0,0:0:0:0:
103,302,134359,6,0,P|124:266|147:238,1,56
226,152,134700,1,0,0:0:0:0:
226,152,134871,2,0,P|225:189|216:217,1,56
253,299,135211,2,0,P|282:283|309:257,1,56
421,242,135552,2,0,P|393:212|369:194,1,56
218,117,135893,5,0,0:0:0:0:
108,243,136063,1,0,0:0:0:0:
277,252,136234,1,0,0:0:0:0:
130,147,136404,1,0,0:0:0:0:
193,289,136575,1,0,0:0:0:0:
241,143,136745,1,0,0:0:0:0:
72,126,136916,1,0,0:0:0:0:
68,122,137086,6,0,P|62:187|100:232,1,112
249,275,137597,2,0,P|219:225|152:199,1,112
226,66,138109,2,0,P|236:111|246:130,1,56
351,114,138450,2,0,P|362:166|362:193,1,56
272,214,138791,2,0,P|281:252|297:273,1,56
421,322,139132,2,0,P|378:312|344:309,1,56
124,308,139472,2,0,B|157:288|160:287|163:248|163:248|212:228,1,112
290,222,139984,5,0,0:0:0:0:
376,195,140154,1,0,0:0:0:0:
414,101,140325,2,0,P|376:93|299:92,1,112
175,99,140836,5,0,0:0:0:0:
120,180,141007,1,0,0:0:0:0:
184,273,141177,2,0,P|243:278|246:277,1,56
328,205,141518,1,0,0:0:0:0:
328,205,141688,2,0,P|341:255|303:302,1,112
148,318,142200,2,0,P|159:278|182:257,1,56
255,206,142541,6,0,L|163:132,1,112
94,98,143052,1,0,0:0:0:0:
226,60,143222,2,0,P|248:117|250:179,1,112
251,167,143734,1,0,0:0:0:0:
155,326,143904,6,0,P|196:288|261:288,1,112
355,317,144416,1,0,0:0:0:0:
252,222,144586,2,0,P|188:207|121:207,1,112
41,238,145097,1,0,0:0:0:0:
144,317,145268,6,0,L|153:253,1,56
169,148,145609,1,0,0:0:0:0:
254,84,145779,2,0,L|308:120,1,56
394,160,146120,2,0,L|348:204,1,56
243,232,146461,2,0,P|272:272|335:303,1,112
437,284,146972,1,0,0:0:0:0:
477,179,147143,1,0,0:0:0:0:
392,105,147313,1,0,0:0:0:0:
280,118,147484,1,0,0:0:0:0:
169,104,147654,1,0,0:0:0:0:
57,93,147825,5,0,0:0:0:0:
57,93,147910,1,0,0:0:0:0:
57,93,147995,2,0,P|45:164|66:205,1,112
128,318,148506,2,0,P|167:298|201:237,1,112
290,108,149018,1,0,0:0:0:0:
422,197,149188,2,0,P|400:245|332:270,1,112
236,285,149700,6,0,L|215:227,1,56
96,256,150041,2,0,L|127:201,1,56
226,171,150382,2,0,L|183:123,1,56
62,113,150722,2,0,L|115:68,1,56
214,52,151063,1,0,0:0:0:0:
303,128,151234,2,0,P|282:190|238:234,1,112
145,303,151745,5,0,0:0:0:0:
208,107,151916,1,0,0:0:0:0:
346,310,152086,2,0,L|350:247,1,56
330,68,152427,2,0,L|296:127,1,56
227,246,152768,5,0,0:0:0:0:
217,235,152853,1,0,0:0:0:0:
207,225,152938,1,0,0:0:0:0:
198,213,153024,1,0,0:0:0:0:
190,201,153109,1,0,0:0:0:0:
183,188,153194,1,0,0:0:0:0:
175,176,153279,1,0,0:0:0:0:
168,163,153364,1,0,0:0:0:0:
161,152,153450,6,0,L|103:122,1,48.9999985046387
253,197,153791,1,0,0:0:0:0:
131,254,153961,2,0,L|188:257,1,48.9999985046387
309,270,154302,1,0,0:0:0:0:
225,177,154472,1,0,0:0:0:0:
199,320,154643,2,0,L|261:315,1,48.9999985046387
368,232,154984,1,0,0:0:0:0:
236,195,155154,1,0,0:0:0:0:
334,309,155325,2,0,L|345:255,1,48.9999985046387
401,146,155666,5,0,0:0:0:0:
271,227,155836,1,0,0:0:0:0:
271,77,156007,2,0,L|219:113,1,48.9999985046387
89,150,156347,2,0,L|136:172,1,48.9999985046387
246,208,156688,2,0,L|194:239,1,48.9999985046387
78,308,157029,2,0,L|88:249,1,48.9999985046387
121,132,157370,6,0,L|160:168,1,48.9999985046387
256,292,157711,2,0,L|264:229,1,48.9999985046387
318,103,158052,2,0,L|320:168,1,48.9999985046387
356,317,158393,2,0,L|386:272,1,48.9999985046387
390,266,158649,1,0,0:0:0:0:
395,255,158734,1,0,0:0:0:0:
397,243,158819,1,0,0:0:0:0:
400,224,158904,6,0,P|393:177|306:118,1,154.000004699707
56,184,159416,2,0,P|117:196|148:187,1,77.0000023498536
203,98,159757,1,0,0:0:0:0:
203,98,159842,1,0,0:0:0:0:
203,98,159927,2,0,P|226:143|231:250,1,154.000004699707
192,333,160438,5,0,0:0:0:0:
87,268,160609,1,0,0:0:0:0:
147,143,160779,2,0,P|203:160|236:182,1,77.0000023498536
332,252,161120,1,0,0:0:0:0:
439,179,161291,1,0,0:0:0:0:
319,74,161461,6,0,L|272:142,1,77.0000023498536
169,280,161802,1,0,0:0:0:0:
338,226,161972,1,0,0:0:0:0:
116,147,162143,1,0,0:0:0:0:
401,271,162484,1,0,0:0:0:0:
72,93,162825,1,0,0:0:0:0:
200,42,162995,5,0,0:0:0:0:
211,56,163080,1,0,0:0:0:0:
216,74,163166,1,0,0:0:0:0:
213,92,163251,1,0,0:0:0:0:
204,109,163336,1,0,0:0:0:0:
195,126,163421,1,0,0:0:0:0:
188,144,163507,1,0,0:0:0:0:
188,163,163592,1,0,0:0:0:0:
192,181,163677,1,0,0:0:0:0:
197,199,163762,1,0,0:0:0:0:
193,217,163847,1,0,0:0:0:0:
187,235,163933,2,0,P|186:282|300:248,1,192.500005874634
396,163,175268,6,0,P|358:193|324:202,2,70
342,292,176120,2,0,P|305:283|266:262,1,70
202,341,176632,2,0,P|172:307|165:278,1,70
163,212,177143,1,0,0:0:0:0:
204,151,177313,1,0,0:0:0:0:
179,76,177484,1,0,0:0:0:0:
97,52,177654,1,0,0:0:0:0:
37,138,177825,1,0,0:0:0:0:
37,138,177910,1,0,0:0:0:0:
37,138,177995,6,0,P|54:161|90:192,1,70
195,141,178507,2,0,P|198:180|197:218,1,70
138,319,179018,2,0,P|184:308|216:303,1,70
315,297,179529,1,0,0:0:0:0:
315,297,179700,1,0,0:0:0:0:
315,297,179870,2,0,P|361:296|306:240,1,175
139,261,183450,6,0,L|247:209,1,97.9999970092774
388,148,183791,1,0,0:0:0:0:
215,78,183961,2,0,P|209:137|241:202,1,97.9999970092774
303,298,184302,1,0,0:0:0:0:
385,137,184472,1,0,0:0:0:0:
474,288,184643,2,0,P|410:247|362:225,1,97.9999970092774
209,152,184984,6,0,P|207:211|236:262,1,97.9999970092774
331,326,185325,1,0,0:0:0:0:
75,160,185495,1,0,0:0:0:0:
316,236,185666,1,0,0:0:0:0:
195,66,185836,1,0,0:0:0:0:
90,301,186007,1,0,0:0:0:0:
348,74,186177,2,0,P|346:138|338:197,1,97.9999970092774
317,333,186518,1,0,0:0:0:0:
100,255,186688,6,0,P|146:224|197:212,1,97.9999970092774
430,211,187029,1,0,0:0:0:0:
285,68,187200,2,0,P|262:128|278:167,1,97.9999970092774
181,324,187541,2,0,P|199:273|175:204,1,97.9999970092774
66,96,187882,2,0,P|52:157|65:207,1,97.9999970092774
162,303,188222,5,0,0:0:0:0:
355,175,188393,1,0,0:0:0:0:
138,108,188563,1,0,0:0:0:0:
326,283,188734,2,0,P|390:282|422:249,1,97.9999970092774
469,119,189075,2,0,L|376:132,1,48.9999985046387
289,138,189245,2,0,P|225:177|202:217,1,97.9999970092774
114,288,189586,1,0,0:0:0:0:
114,288,189757,2,0,P|139:232|135:164,1,97.9999970092774
180,50,190097,2,0,L|264:122,1,97.9999970092774
441,230,190438,6,0,L|392:258,1,48.9999985046387
235,301,190609,2,0,L|251:247,1,48.9999985046387
268,96,190779,2,0,L|311:131,1,48.9999985046387
441,230,190950,2,0,P|397:273|346:283,1,97.9999970092774
152,303,191291,1,0,0:0:0:0:
124,103,191461,1,0,0:0:0:0:
124,103,191546,1,0,0:0:0:0:
124,103,191632,6,0,P|148:153|146:205,1,97.9999970092774
52,319,191972,1,0,0:0:0:0:
233,318,192143,2,0,P|293:323|341:311,1,97.9999970092774
472,258,192484,5,0,0:0:0:0:
219,185,192654,1,0,0:0:0:0:
358,76,192825,1,0,0:0:0:0:
358,76,192910,1,0,0:0:0:0:
358,76,192995,2,0,P|349:129|337:183,1,97.9999970092774
196,332,193336,2,0,P|172:265|171:215,1,97.9999970092774
216,50,193677,5,0,0:0:0:0:
348,322,193847,1,0,0:0:0:0:
81,200,194018,1,0,0:0:0:0:
408,167,194188,2,0,P|345:145|305:109,1,97.9999970092774
160,54,194529,1,0,0:0:0:0:
316,281,194700,1,0,0:0:0:0:
69,312,194870,6,0,P|89:246|126:207,1,105.000004005432
252,98,195211,1,0,0:0:0:0:
360,294,195381,1,0,0:0:0:0:
424,84,195552,1,0,0:0:0:0:
163,199,195722,1,0,0:0:0:0:
472,263,195893,6,0,L|365:278,1,97.9999970092774
158,307,196234,1,0,0:0:0:0:
158,307,196404,2,0,P|124:241|123:206,1,97.9999970092774
268,48,196745,2,0,L|264:106,1,48.9999985046387
245,196,196916,1,0,0:0:0:0:
245,196,197086,2,0,P|316:199|342:190,1,97.9999970092774
129,226,197427,1,0,0:0:0:0:
249,328,197597,2,0,P|278:273|218:148,1,195.999994018555
467,205,198109,2,0,P|421:180|367:183,1,97.9999970092774
111,226,198450,6,0,P|177:236|228:230,1,97.9999970092774
395,240,198791,1,0,0:0:0:0:
278,124,198961,1,0,0:0:0:0:
226,330,199132,2,0,P|164:299|131:259,1,97.9999970092774
62,172,199472,1,0,0:0:0:0:
263,83,199643,2,0,L|267:184,1,97.9999970092774
259,253,201518,6,0,L|258:294,8,32.6666656697591
259,253,202029,2,0,L|257:149,1,97.9999970092774
256,55,202370,5,0,0:0:0:0:
259,327,202540,1,0,0:0:0:0:
172,222,204757,6,0,L|271:178,1,97.9999970092774
93,255,205097,1,0,0:0:0:0:
376,135,205268,1,0,0:0:0:0:
311,275,206120,5,0,0:0:0:0:
195,132,206461,2,0,L|268:209,1,97.9999970092774
338,247,207484,1,0,0:0:0:0:
335,243,207825,1,0,0:0:0:0:
153,139,207995,1,0,0:0:0:0:
138,201,208847,6,0,L|241:194,1,97.9999970092774
177,100,209188,1,0,0:0:0:0:
234,302,209359,1,0,0:0:0:0:
332,233,209700,1,0,0:0:0:0:
163,183,210041,2,0,P|136:134|198:152,1,140
256,192,212427,12,0,213279,0:0:0:0:
