osu file format v14

[General]
AudioFilename: audio.mp3
AudioLeadIn: 0
PreviewTime: -1
Countdown: 1
SampleSet: Normal
StackLeniency: 0.7
Mode: 0
LetterboxInBreaks: 0
WidescreenStoryboard: 0

[Editor]
DistanceSpacing: 2
BeatDivisor: 8
GridSize: 4
TimelineZoom: 3.699998

[Metadata]
Title:KASUMI
TitleUnicode:KASUMI
Artist:Eir Aoi
ArtistUnicode:Eir Aoi
Creator:Fuseka
Version:Insane
Source:
Tags:
BeatmapID:914163
BeatmapSetID:422960

[Difficulty]
HPDrainRate:8
CircleSize:4
OverallDifficulty:8
ApproachRate:9.4
SliderMultiplier:2.79999990463257
SliderTickRate:1

[Events]
//Background and Video events
0,0,"Konachan.com - 215306 sample.jpg",0,0
//Break Periods
2,60951,62195
//Storyboard Layer 0 (Background)
//Storyboard Layer 1 (Fail)
//Storyboard Layer 2 (Pass)
//Storyboard Layer 3 (Foreground)
//Storyboard Sound Samples

[TimingPoints]
3231,495.867768595041,4,1,0,100,1,0
10647,-153.846153846153,4,1,0,50,0,0
25027,-100,4,1,0,50,0,0
42878,-100,4,1,0,50,0,0
44985,-100,4,1,0,50,0,0
45977,-100,4,1,0,20,0,0
46101,-100,4,1,0,50,0,0
62713,-100,4,1,0,50,0,1
78580,-100,4,1,0,50,0,1
96432,-142.857142857143,4,1,0,20,0,0
105875,-142.857142857143,4,1,0,60,0,0
106867,-142.857142857143,4,1,0,40,0,0
114283,-100,4,1,0,50,0,0
134118,-100,4,1,0,50,0,1
168828,-166.666666666667,4,1,0,50,0,0
176762,-133.333333333333,4,1,0,20,0,0
200564,-133.333333333333,4,1,0,40,0,0
216432,-181.818181818181,4,1,0,20,0,0
217423,-111.111111111111,4,1,0,50,0,0
225371,-166.666666666666,4,1,0,50,0,0
229338,-111.111111111111,4,1,0,50,0,0
241225,-90.9090909090909,4,1,0,50,0,1
272961,-90.9090909090909,4,1,0,50,0,0

[HitObjects]
160,152,10669,5,0,0:0:0:0:
160,152,11164,6,0,P|220:108|292:104,1,136.499989102364
440,96,11660,2,0,P|432:144|424:196,1,90.9999927349095
400,256,11970,1,0,0:0:0:0:
368,280,12032,2,0,P|336:288|288:288,1,74.9999952316284
100,296,12404,6,0,L|128:240,1,45.4999963674547
176,140,12652,2,0,L|216:180,1,45.4999963674547
272,300,12900,2,0,L|324:276,1,45.4999963674547
364,176,13148,2,0,P|312:112|280:88,1,90.9999927349094
140,88,13520,1,0,0:0:0:0:
140,88,13582,1,0,0:0:0:0:
140,88,13644,6,0,P|120:144|120:184,1,90.9999927349094
139,331,14016,2,0,L|176:291,1,45.4999963674547
368,220,14264,2,0,L|336:272,1,45.4999963674547
224,220,14511,2,0,L|256:176,1,45.4999963674547
408,80,14759,2,0,L|380:128,1,45.4999963674547
300,240,15007,2,0,L|268:204,1,45.4999963674547
152,100,15255,1,0,0:0:0:0:
152,100,15317,1,0,0:0:0:0:
148,104,15379,6,0,L|165:196,1,90.9999927349095
216,304,15751,2,0,L|268:280,1,45.4999963674547
400,232,15999,1,0,0:0:0:0:
400,232,16123,2,0,P|352:192|304:176,1,90.9999927349095
144,184,16495,2,0,L|196:160,1,45.4999963674547
320,76,16867,1,0,0:0:0:0:
288,304,17115,6,0,P|296:244|284:208,1,90.9999927349095
208,116,17487,2,0,L|172:72,2,45.4999963674547
312,272,17859,1,0,0:0:0:0:
328,164,17983,1,0,0:0:0:0:
136,268,18107,2,0,L|232:228,1,90.9999927349095
176,64,18478,5,0,0:0:0:0:
92,172,18602,2,0,P|120:208|216:232,1,136.499989102364
416,156,19098,5,0,0:0:0:0:
412,152,19160,1,0,0:0:0:0:
416,156,19222,1,0,0:0:0:0:
412,152,19284,1,0,0:0:0:0:
416,156,19346,2,0,P|356:148|308:140,1,90.9999927349095
148,120,19718,2,0,L|160:196,1,45.4999963674547
160,260,19966,2,0,P|216:256|272:264,1,90.9999927349095
400,284,20338,6,0,L|356:236,1,45.4999963674547
224,128,20586,2,0,L|264:180,1,45.4999963674547
188,292,20834,2,0,L|144:248,1,45.4999963674547
72,104,21082,6,0,P|140:100|204:148,1,136.499989102364
292,268,21578,2,0,L|284:216,1,45.4999963674547
364,104,21826,2,0,L|376:164,1,45.4999963674547
168,296,22073,2,0,L|168:236,1,45.4999963674547
128,144,22321,2,0,L|192:140,1,45.4999963674547
352,128,22569,2,0,L|344:184,1,45.4999963674547
252,284,22817,2,0,L|252:236,1,45.4999963674547
232,76,23065,6,0,P|276:108|316:168,1,90.9999927349095
344,280,23561,2,0,P|280:280|272:280,1,45.4999963674547
160,288,23809,1,0,0:0:0:0:
160,288,23933,1,0,0:0:0:0:
160,288,24057,2,0,L|136:180,1,90.9999927349095
120,80,24429,1,0,0:0:0:0:
116,72,24553,2,0,L|220:104,1,90.9999927349095
400,204,25049,5,0,0:0:0:0:
168,244,25297,1,0,0:0:0:0:
312,104,25545,1,0,0:0:0:0:
196,208,25916,5,0,0:0:0:0:
216,224,25978,1,0,0:0:0:0:
240,240,26040,1,0,0:0:0:0:
328,316,26164,1,0,0:0:0:0:
120,256,26288,1,0,0:0:0:0:
120,256,26536,1,0,0:0:0:0:
340,208,26660,1,0,0:0:0:0:
224,80,26784,1,0,0:0:0:0:
228,84,27032,6,0,P|204:156|200:232,1,139.999995231629
300,312,27528,2,0,L|236:260,1,69.9999976158143
116,168,27776,1,0,0:0:0:0:
328,216,27900,1,0,0:0:0:0:
256,80,28024,6,0,L|208:212,1,139.999995231629
180,324,28396,1,0,0:0:0:0:
180,324,28520,2,0,L|260:284,1,69.9999976158143
288,200,28768,1,0,0:0:0:0:
388,256,28892,1,0,0:0:0:0:
360,132,29016,2,0,L|400:64,1,69.9999976158143
404,56,29264,5,0,0:0:0:0:
116,152,29511,1,0,0:0:0:0:
424,208,29759,2,0,P|368:228|340:232,1,69.9999976158143
132,176,30007,2,0,P|180:168|260:228,1,139.999995231629
304,296,30503,1,0,0:0:0:0:
304,296,30999,6,0,L|228:248,1,69.9999976158143
156,184,31247,1,0,0:0:0:0:
160,184,31495,6,0,L|248:148,1,69.9999976158143
320,116,31743,1,0,0:0:0:0:
176,64,31867,1,0,0:0:0:0:
112,228,31991,6,0,P|144:272|228:268,1,139.999995231629
352,236,32487,2,0,L|288:168,1,69.9999976158143
200,72,32735,5,0,0:0:0:0:
124,256,32859,1,0,0:0:0:0:
48,120,32983,2,0,P|112:136|192:168,1,139.999995231629
320,260,33354,1,0,0:0:0:0:
320,260,33478,2,0,L|320:176,1,69.9999976158143
444,104,33726,2,0,L|416:188,1,69.9999976158143
216,216,33974,2,0,L|260:148,1,69.9999976158143
424,236,34222,2,0,L|332:244,1,69.9999976158143
256,88,34470,2,0,L|256:168,1,69.9999976158143
256,328,34718,1,0,0:0:0:0:
152,184,34966,5,0,0:0:0:0:
180,188,35214,1,0,0:0:0:0:
208,196,35462,2,0,P|248:208|300:216,1,69.9999976158143
384,228,35710,1,0,0:0:0:0:
304,152,35834,1,0,0:0:0:0:
272,276,35958,6,0,P|224:296|124:304,1,139.999995231629
76,212,36330,2,0,P|108:164|132:140,1,69.9999976158143
356,292,36578,2,0,P|320:268|224:240,1,139.999995231629
92,160,36950,2,0,L|172:144,1,69.9999976158143
312,124,37197,1,0,0:0:0:0:
412,276,37321,2,0,L|372:212,1,69.9999976158143
312,124,37569,1,0,0:0:0:0:
312,124,37693,2,0,L|216:112,1,69.9999976158143
108,56,37941,6,0,B|104:116|132:180|132:180|132:220,1,139.999995231629
116,308,38437,6,0,P|164:264|192:252,1,69.9999976158143
344,228,38685,2,0,L|296:192,1,34.9999988079071
219,138,38809,2,0,L|220:187,1,34.9999988079071
224,260,38933,1,0,0:0:0:0:
456,100,39181,1,0,0:0:0:0:
448,232,39429,2,0,P|416:252|316:272,1,139.999995231629
208,288,39801,1,0,0:0:0:0:
208,288,39925,6,0,P|208:232|228:160,1,69.9999976158143
220,108,40173,1,0,0:0:0:0:
220,100,40545,5,0,0:0:0:0:
128,140,40669,1,0,0:0:0:0:
92,236,40792,1,0,0:0:0:0:
144,320,40916,2,0,L|236:304,1,69.9999976158143
196,200,41164,2,0,L|292:248,1,69.9999976158143
280,324,41412,2,0,L|352:292,1,69.9999976158143
332,192,41660,2,0,L|416:220,1,69.9999976158143
484,272,41908,1,0,0:0:0:0:
300,136,42156,2,0,P|316:176|304:280,1,139.999995231629
312,288,42466,1,0,0:0:0:0:
312,288,42528,1,0,0:0:0:0:
112,148,42652,1,0,0:0:0:0:
112,148,42900,6,0,L|226:207,1,104.999996423721
245,224,43148,1,0,0:0:0:0:
350,304,43272,1,0,0:0:0:0:
384,112,43396,1,0,0:0:0:0:
384,112,43644,1,0,0:0:0:0:
260,164,43768,1,0,0:0:0:0:
416,232,43892,1,0,0:0:0:0:
412,224,44140,5,0,0:0:0:0:
416,216,44388,1,0,0:0:0:0:
416,216,44511,1,0,0:0:0:0:
372,236,44573,1,0,0:0:0:0:
320,248,44635,2,0,L|232:236,1,69.9999976158143
64,216,44883,6,0,P|96:152|160:112,1,139.999995231629
336,108,45255,1,0,0:0:0:0:
172,204,45379,1,0,0:0:0:0:
220,56,45503,1,0,0:0:0:0:
220,56,45627,2,0,P|244:96|232:264,1,209.999992847443
343,307,46123,2,0,P|313:267|236:213,2,139.999995231629
421,221,46867,6,0,L|353:209,1,69.9999976158142
224,188,47115,1,0,0:0:0:0:
312,300,47239,1,0,0:0:0:0:
340,84,47363,1,0,0:0:0:0:
348,80,47611,1,0,0:0:0:0:
184,112,47735,1,0,0:0:0:0:
356,220,47859,1,0,0:0:0:0:
332,224,48107,6,0,P|296:232|252:236,1,74.9999952316284
84,240,48354,1,0,0:0:0:0:
136,132,48478,1,0,0:0:0:0:
256,108,48602,1,0,0:0:0:0:
344,168,48726,1,0,0:0:0:0:
380,268,48850,6,0,P|308:276|228:264,1,139.999995231629
92,248,49222,1,0,0:0:0:0:
260,140,49346,1,0,0:0:0:0:
112,120,49470,1,0,0:0:0:0:
180,288,49594,2,0,P|232:268|216:128,1,209.999992847443
100,188,50090,2,0,B|108:48|247:57,1,209.999992847443
352,108,50586,5,0,0:0:0:0:
356,112,50834,2,0,L|248:228,1,139.999995231628
88,284,51206,2,0,L|116:180,1,69.9999976158143
152,76,51454,2,0,L|192:152,1,69.9999976158143
232,208,51702,1,0,0:0:0:0:
296,104,51826,1,0,0:0:0:0:
340,256,51950,1,0,0:0:0:0:
444,168,52073,2,0,L|324:160,1,69.9999976158143
192,272,52321,2,0,L|264:284,1,69.9999976158143
392,260,52569,2,0,P|324:220|312:216,1,69.9999976158143
216,140,52817,6,0,P|168:204|160:268,1,139.999995231629
68,132,53189,2,0,L|148:120,1,69.9999976158143
308,92,53437,1,0,0:0:0:0:
400,212,53561,1,0,0:0:0:0:
308,92,53685,1,0,0:0:0:0:
204,220,53809,1,0,0:0:0:0:
308,92,53933,1,0,0:0:0:0:
340,240,54057,2,0,L|272:308,1,69.9999976158143
116,312,54305,2,0,L|88:224,1,69.9999976158143
164,92,54553,2,0,L|200:164,1,69.9999976158143
320,272,54801,6,0,L|228:268,1,69.9999976158143
72,288,55049,1,0,0:0:0:0:
116,88,55173,1,0,0:0:0:0:
216,188,55297,2,0,L|320:192,1,69.9999976158143
448,216,55545,1,0,0:0:0:0:
336,96,55669,1,0,0:0:0:0:
292,252,55792,2,0,L|224:296,1,69.9999976158143
40,248,56040,2,0,L|112:220,1,69.9999976158143
232,72,56288,2,0,L|216:148,1,69.9999976158143
300,288,56536,6,0,P|332:216|332:152,1,139.999995231629
312,60,56908,1,0,0:0:0:0:
412,180,57032,1,0,0:0:0:0:
348,296,57156,1,0,0:0:0:0:
208,312,57280,2,0,L|176:240,1,69.9999976158143
132,136,57528,1,0,0:0:0:0:
336,160,57652,2,0,L|252:180,1,69.9999976158143
64,220,57900,1,0,0:0:0:0:
184,296,58024,1,0,0:0:0:0:
212,168,58148,6,0,L|292:152,1,69.9999976158143
420,128,58396,1,0,0:0:0:0:
268,36,58520,1,0,0:0:0:0:
260,48,58582,1,0,0:0:0:0:
252,60,58644,1,0,0:0:0:0:
248,68,58706,1,0,0:0:0:0:
240,80,58768,6,0,P|232:172|236:184,1,69.9999976158143
256,260,59016,1,0,0:0:0:0:
356,136,59140,2,0,P|376:164|408:192,1,69.9999976158143
402,187,59388,1,0,0:0:0:0:
288,260,59511,1,0,0:0:0:0:
280,120,59635,2,0,P|236:144|212:168,1,69.9999976158143
221,157,60007,5,0,0:0:0:0:
204,312,60131,1,0,0:0:0:0:
328,212,60255,1,0,0:0:0:0:
148,204,60379,1,0,0:0:0:0:
316,300,60503,1,0,0:0:0:0:
256,140,60627,1,0,0:0:0:0:
216,300,60751,1,0,0:0:0:0:
160,192,62735,6,0,L|240:172,1,69.9999976158143
340,132,62983,1,0,0:0:0:0:
296,256,63107,1,0,0:0:0:0:
176,92,63230,2,0,L|180:192,1,69.9999976158143
184,332,63478,1,0,0:0:0:0:
356,236,63602,2,0,L|200:228,1,139.999995231629
64,232,63974,2,0,L|116:176,1,69.9999976158143
272,64,64222,2,0,P|288:112|288:224,1,139.999995231629
264,304,64718,5,0,0:0:0:0:
212,192,64842,1,0,0:0:0:0:
352,228,64966,1,0,0:0:0:0:
196,80,65090,1,0,0:0:0:0:
392,104,65214,2,0,P|400:168|384:248,1,139.999995231629
328,296,65524,5,0,0:0:0:0:
284,308,65586,2,0,P|244:308|176:232,1,139.999995231629
236,52,65958,2,0,P|224:96|204:116,1,69.9999976158143
72,192,66206,1,0,0:0:0:0:
248,232,66330,1,0,0:0:0:0:
144,296,66454,1,0,0:0:0:0:
200,144,66578,1,0,0:0:0:0:
320,76,66702,6,0,L|352:224,1,139.999995231629
416,296,67197,6,0,P|360:256|288:220,1,139.999995231629
116,184,67569,1,0,0:0:0:0:
212,72,67693,2,0,P|236:112|240:144,1,69.9999976158143
148,324,67941,2,0,P|140:280|136:240,1,69.9999976158143
172,100,68189,1,0,0:0:0:0:
256,240,68313,1,0,0:0:0:0:
288,96,68437,1,0,0:0:0:0:
376,228,68561,1,0,0:0:0:0:
416,116,68685,6,0,P|352:144|304:204,1,139.999995231629
376,300,69057,1,0,0:0:0:0:
376,296,69181,2,0,P|392:240|284:132,1,209.999992847443
96,132,69677,2,0,P|140:156|300:240,1,209.999992847443
288,100,70173,2,0,L|184:284,1,209.999992847443
176,320,70669,6,0,L|152:252,1,69.9999976158143
116,96,70916,2,0,L|96:136,1,34.9999988079071
48,244,71040,2,0,L|100:200,1,34.9999988079071
184,176,71164,1,0,0:0:0:0:
184,176,71288,2,0,P|248:160|300:156,1,69.9999976158143
420,124,71536,2,0,P|408:196|344:264,1,139.999995231629
184,304,71908,2,0,L|224:232,1,69.9999976158143
336,188,72156,2,0,P|300:152|208:132,1,139.999995231629
72,212,72652,5,0,0:0:0:0:
224,240,72776,1,0,0:0:0:0:
216,104,72900,1,0,0:0:0:0:
212,104,73024,1,0,0:0:0:0:
312,224,73148,1,0,0:0:0:0:
376,100,73272,1,0,0:0:0:0:
452,208,73396,1,0,0:0:0:0:
312,224,73520,6,0,P|268:236|168:216,1,139.999995231629
108,96,73892,2,0,P|148:140|152:160,1,69.9999976158143
164,284,74140,2,0,P|208:236|232:220,1,69.9999976158143
312,96,74388,2,0,P|320:144|316:176,1,69.9999976158143
324,316,74635,6,0,P|272:288|192:280,1,139.999995231629
192,279,75131,6,0,L|164:199,1,69.9999976158143
112,108,75379,1,0,0:0:0:0:
280,72,75503,2,0,P|264:120|204:200,1,139.999995231629
96,288,75875,2,0,L|180:312,1,69.9999976158143
152,60,76123,2,0,L|236:108,1,69.9999976158143
380,220,76371,2,0,L|304:276,1,69.9999976158143
104,216,76619,6,0,P|144:184|248:188,1,139.999995231629
344,228,76991,1,0,0:0:0:0:
300,104,77115,1,0,0:0:0:0:
248,232,77239,1,0,0:0:0:0:
384,160,77363,1,0,0:0:0:0:
216,104,77487,1,0,0:0:0:0:
216,104,77611,2,0,L|192:184,1,69.9999976158143
168,268,77859,1,0,0:0:0:0:
208,288,77921,1,0,0:0:0:0:
256,288,77983,1,0,0:0:0:0:
300,280,78045,1,0,0:0:0:0:
344,252,78107,6,0,P|384:220|484:192,1,139.999995231629
364,288,78478,1,0,0:0:0:0:
364,288,78602,6,0,P|312:236|392:160,1,209.999992847443
396,164,79098,2,0,L|256:144,1,139.999995231629
120,264,79470,2,0,P|176:268|248:208,1,139.999995231629
272,112,79842,1,0,0:0:0:0:
272,112,79966,2,0,L|312:188,1,69.9999976158143
352,304,80214,1,0,0:0:0:0:
444,196,80338,2,0,L|356:180,1,69.9999976158143
224,104,80586,6,0,P|232:160|184:236,1,139.999995231629
100,312,80958,1,0,0:0:0:0:
240,312,81082,2,0,P|304:300|400:324,1,139.999995231629
324,168,81454,1,0,0:0:0:0:
420,88,81578,2,0,P|460:196|392:216,1,209.999992847443
397,217,82073,2,0,L|269:349,1,139.999995231629
116,244,82445,1,0,0:0:0:0:
144,232,82507,1,0,0:0:0:0:
184,216,82569,6,0,L|324:256,1,139.999995231629
200,320,82941,1,0,0:0:0:0:
200,320,83065,2,0,L|248:164,1,139.999995231629
148,68,83437,2,0,L|120:252,1,139.999995231629
104,304,83809,1,0,0:0:0:0:
344,192,83933,1,0,0:0:0:0:
316,324,84057,2,0,L|252:268,1,69.9999976158143
132,188,84305,6,0,L|200:128,1,69.9999976158143
296,80,84553,1,0,0:0:0:0:
392,164,84677,1,0,0:0:0:0:
332,280,84801,2,0,L|236:280,1,69.9999976158143
116,296,85049,2,0,L|168:216,1,69.9999976158143
208,144,85297,1,0,0:0:0:0:
244,292,85421,5,0,0:0:0:0:
84,228,85545,2,0,L|36:152,1,69.9999976158143
164,48,85792,2,0,L|232:92,1,69.9999976158143
408,196,86040,6,0,P|340:192|248:228,1,139.999995231629
256,320,86412,1,0,0:0:0:0:
396,272,86536,2,0,P|400:204|276:116,1,209.999992847443
108,140,87032,2,0,L|228:240,1,139.999995231629
380,220,87404,2,0,P|324:200|168:216,1,209.999992847443
84,312,87900,6,0,P|128:304|152:296,1,69.9999976158143
280,220,88148,1,0,0:0:0:0:
168,104,88272,1,0,0:0:0:0:
124,272,88396,1,0,0:0:0:0:
320,284,88520,2,0,P|344:224|292:152,1,139.999995231629
128,88,88892,1,0,0:0:0:0:
128,88,89016,2,0,L|152:168,1,69.9999976158143
264,52,89264,2,0,L|248:136,1,69.9999976158143
432,136,89512,2,0,P|372:176|304:300,1,209.999992847443
228,320,90007,6,0,P|224:276|260:180,1,139.999995231629
424,92,90379,1,0,0:0:0:0:
424,92,90503,2,0,P|396:168|296:184,1,139.999995231629
164,112,90875,1,0,0:0:0:0:
116,256,90999,6,0,P|176:220|248:224,1,139.999995231629
248,68,91371,2,0,P|320:108|376:172,1,139.999995231629
428,264,91743,1,0,0:0:0:0:
320,288,91867,1,0,0:0:0:0:
224,296,91991,1,0,0:0:0:0:
120,276,92115,1,0,0:0:0:0:
40,212,92239,6,0,L|36:128,1,69.9999976158143
324,96,92487,2,0,L|296:172,1,69.9999976158143
116,280,92735,2,0,L|144:208,1,69.9999976158143
176,104,92983,1,0,0:0:0:0:
272,200,93107,1,0,0:0:0:0:
304,88,93230,1,0,0:0:0:0:
164,224,93354,1,0,0:0:0:0:
392,180,93478,1,0,0:0:0:0:
264,296,93602,1,0,0:0:0:0:
152,128,93726,1,0,0:0:0:0:
152,128,93974,5,0,0:0:0:0:
132,264,94098,1,0,0:0:0:0:
252,192,94222,1,0,0:0:0:0:
244,196,94470,6,0,L|320:244,1,69.9999976158143
264,200,96454,5,0,0:0:0:0:
224,208,96826,1,0,0:0:0:0:
252,152,97197,1,0,0:0:0:0:
256,192,97693,1,0,0:0:0:0:
224,212,97941,5,0,0:0:0:0:
328,104,98065,1,0,0:0:0:0:
388,248,98189,1,0,0:0:0:0:
256,340,98437,6,0,L|204:232,1,97.9999936714175
102,114,98933,2,0,L|70:183,2,48.9999968357087
172,48,99305,1,0,0:0:0:0:
205,131,99429,1,0,0:0:0:0:
271,54,99553,2,0,L|370:98,1,97.9999936714175
370,218,99925,1,0,0:0:0:0:
366,212,100049,2,0,L|266:157,1,97.9999936714175
94,117,100421,6,0,L|145:232,1,97.9999936714175
168,288,100916,1,0,0:0:0:0:
248,200,101164,1,0,0:0:0:0:
336,284,101412,2,2,L|384:288,2,48.9999968357087
332,116,101908,2,0,L|284:224,1,97.9999936714175
159,288,102404,6,0,L|103:180,1,97.9999936714175
80,96,102900,1,0,0:0:0:0:
72,180,103024,1,0,0:0:0:0:
64,268,103148,1,0,0:0:0:0:
144,316,103272,1,0,0:0:0:0:
144,316,103396,2,0,L|252:244,1,97.9999936714175
328,200,103768,1,0,0:0:0:0:
328,200,103892,2,0,L|272:96,1,97.9999936714175
229,35,104264,1,0,0:0:0:0:
126,62,104388,6,0,L|170:135,1,48.9999968357087
211,207,104635,2,0,L|262:258,1,48.9999968357087
406,236,104883,2,0,L|345:207,1,48.9999968357087
105,286,105131,2,0,L|171:280,1,48.9999968357087
326,272,105379,1,0,0:0:0:0:
152,194,105627,1,0,0:0:0:0:
332,203,105875,6,0,L|414:247,1,48.9999968357087
272,96,106123,1,0,0:0:0:0:
212,280,106247,1,0,0:0:0:0:
88,212,106371,6,0,L|128:108,1,97.9999936714175
144,72,106867,5,0,0:0:0:0:
236,92,106991,1,0,0:0:0:0:
184,152,107115,1,0,0:0:0:0:
308,144,107239,1,0,0:0:0:0:
260,220,107363,2,0,L|280:304,1,48.9999968357087
274,288,107735,1,0,0:0:0:0:
284,296,107983,5,0,0:0:0:0:
192,200,108107,1,0,0:0:0:0:
188,304,108230,1,0,0:0:0:0:
276,216,108354,2,0,P|344:200|380:196,1,97.9999936714175
380,312,108726,1,0,0:0:0:0:
232,316,108850,2,0,L|176:236,1,97.9999936714175
116,132,109222,1,0,0:0:0:0:
116,132,109346,2,0,L|240:92,1,97.9999936714175
368,92,109842,6,0,P|344:184|312:212,1,97.9999936714175
208,252,110214,1,0,0:0:0:0:
168,88,110338,2,0,L|200:224,1,97.9999936714175
264,300,110710,1,0,0:0:0:0:
388,288,110834,2,0,L|328:192,1,97.9999936714175
256,80,111206,1,0,0:0:0:0:
256,80,111330,2,0,P|200:68|240:176,1,244.999984178544
356,124,112073,2,0,L|324:168,1,48.9999968357087
192,304,112321,2,0,L|160:256,1,48.9999968357087
108,156,112569,5,0,0:0:0:0:
292,128,112817,1,0,0:0:0:0:
336,196,112941,1,0,0:0:0:0:
272,264,113065,1,0,0:0:0:0:
192,212,113189,1,0,0:0:0:0:
244,128,113313,2,0,L|292:92,1,48.9999968357087
364,88,113561,5,0,0:0:0:0:
364,112,113623,1,0,0:0:0:0:
364,136,113685,1,0,0:0:0:0:
368,156,113747,1,0,0:0:0:0:
368,184,113809,2,0,P|368:240|360:276,1,48.9999968357087
256,328,114057,1,0,0:0:0:0:
96,208,114181,1,0,0:0:0:0:
96,208,114305,6,0,L|184:168,1,69.9999976158143
304,124,114553,1,0,0:0:0:0:
184,76,114677,1,0,0:0:0:0:
256,216,114801,2,0,L|304:276,1,69.9999976158143
348,344,115049,1,0,0:0:0:0:
192,312,115173,1,0,0:0:0:0:
344,220,115297,2,0,L|368:128,1,69.9999976158143
376,56,115545,1,0,0:0:0:0:
368,56,115792,1,0,0:0:0:0:
360,48,116040,6,0,P|356:112|320:188,1,139.999995231629
228,268,116412,1,0,0:0:0:0:
228,268,116536,2,0,P|204:232|188:108,1,139.999995231629
304,180,116908,1,0,0:0:0:0:
304,180,117032,2,0,P|232:204|156:212,1,139.999995231629
36,176,117404,1,0,0:0:0:0:
104,328,117528,2,0,P|136:260|156:184,2,139.999995231629
156,112,118272,6,0,L|232:176,1,69.9999976158143
356,272,118520,1,0,0:0:0:0:
212,168,118644,1,0,0:0:0:0:
352,272,118768,1,0,0:0:0:0:
328,260,119016,1,0,0:0:0:0:
196,152,119140,1,0,0:0:0:0:
328,264,119264,1,0,0:0:0:0:
316,104,119388,2,0,L|208:216,1,139.999995231629
128,292,119759,1,0,0:0:0:0:
128,292,120007,6,0,P|108:192|128:144,1,139.999995231629
308,68,120379,1,0,0:0:0:0:
372,172,120503,2,0,P|304:192|224:192,1,139.999995231629
104,192,120875,1,0,0:0:0:0:
240,96,120999,2,0,L|240:244,1,139.999995231629
240,320,121371,1,0,0:0:0:0:
392,260,121495,6,0,P|352:192|276:160,1,139.999995231629
132,160,121867,1,0,0:0:0:0:
224,304,121991,2,0,L|220:180,1,69.9999976158143
204,80,122239,6,0,P|296:80|376:96,1,139.999995231629
448,176,122611,2,0,L|372:204,1,69.9999976158143
288,324,122859,2,0,L|260:240,1,69.9999976158143
212,120,123107,1,0,0:0:0:0:
212,120,123230,2,0,L|192:208,1,69.9999976158143
176,296,123478,1,0,0:0:0:0:
88,152,123602,1,0,0:0:0:0:
64,288,123726,2,0,L|148:244,1,69.9999976158143
272,176,123974,2,0,L|272:248,1,69.9999976158143
412,316,124222,6,0,P|420:224|396:144,1,139.999995231629
316,80,124594,2,0,L|292:160,1,69.9999976158143
272,264,124842,1,0,0:0:0:0:
196,140,124966,1,0,0:0:0:0:
140,280,125090,1,0,0:0:0:0:
92,160,125214,1,0,0:0:0:0:
92,160,125338,2,0,L|176:144,1,69.9999976158143
320,100,125586,2,0,L|288:184,1,69.9999976158143
204,304,125834,2,0,P|184:216|200:152,1,139.999995231629
72,76,126206,6,0,L|68:168,1,69.9999976158143
60,264,126454,1,0,0:0:0:0:
188,164,126578,1,0,0:0:0:0:
200,320,126702,2,0,L|276:300,1,69.9999976158143
440,272,126950,5,0,0:0:0:0:
292,176,127073,1,0,0:0:0:0:
324,320,127197,2,0,L|364:248,1,69.9999976158143
404,76,127445,2,0,L|320:104,1,69.9999976158143
188,160,127693,1,0,0:0:0:0:
184,164,127941,2,0,P|260:192|312:248,1,139.999995231629
412,332,128313,1,0,0:0:0:0:
412,332,128437,2,0,L|396:196,1,69.9999976158143
332,72,128685,2,0,L|248:140,1,69.9999976158143
76,244,128933,2,0,L|204:244,1,69.9999976158143
376,252,129181,1,0,0:0:0:0:
376,252,129429,6,0,P|320:200|300:156,1,69.9999976158143
268,136,129677,1,0,0:0:0:0:
184,112,129801,1,0,0:0:0:0:
108,140,129925,1,0,0:0:0:0:
72,216,130049,1,0,0:0:0:0:
96,316,130173,6,0,P|168:268|184:248,1,69.9999976158143
244,172,130421,1,0,0:0:0:0:
272,296,130545,1,0,0:0:0:0:
424,112,130669,2,0,P|384:180|384:208,1,69.9999976158143
376,300,130916,1,0,0:0:0:0:
264,192,131040,1,0,0:0:0:0:
124,88,131164,6,0,P|220:80|232:88,1,69.9999976158143
324,84,131412,1,0,0:0:0:0:
376,200,131536,1,0,0:0:0:0:
188,196,131660,1,0,0:0:0:0:
324,136,131784,1,0,0:0:0:0:
248,276,131908,1,0,0:0:0:0:
212,108,132032,1,0,0:0:0:0:
384,288,132156,5,0,0:0:0:0:
392,284,134140,6,0,L|304:224,1,69.9999976158143
216,148,134388,1,0,0:0:0:0:
104,284,134511,1,0,0:0:0:0:
252,316,134635,2,0,L|204:228,1,69.9999976158143
120,120,134883,1,0,0:0:0:0:
120,120,135007,2,0,P|208:92|272:104,1,139.999995231629
384,140,135379,2,0,L|432:76,1,69.9999976158143
432,304,135627,2,0,P|352:244|288:224,1,139.999995231629
160,164,136123,5,0,0:0:0:0:
312,224,136247,1,0,0:0:0:0:
128,252,136371,1,0,0:0:0:0:
308,152,136495,1,0,0:0:0:0:
200,76,136619,2,0,P|208:140|192:220,1,139.999995231629
132,312,136991,1,0,0:0:0:0:
132,312,137115,2,0,L|228:296,1,69.9999976158143
368,288,137363,5,0,0:0:0:0:
296,156,137487,1,0,0:0:0:0:
468,208,137611,2,0,L|380:236,1,69.9999976158143
188,264,137859,2,0,L|232:192,1,69.9999976158143
316,80,138107,2,0,L|316:248,1,139.999995231629
128,320,138602,6,0,P|160:252|168:172,1,139.999995231629
180,68,138974,1,0,0:0:0:0:
96,152,139098,1,0,0:0:0:0:
232,152,139222,1,0,0:0:0:0:
368,92,139346,2,0,L|380:184,1,69.9999976158143
280,304,139594,2,0,L|272:208,1,69.9999976158143
176,104,139842,2,0,L|176:200,1,69.9999976158143
100,328,140090,2,0,P|176:280|248:264,1,139.999995231629
392,260,140586,6,0,P|352:196|248:252,1,209.999992847443
244,256,141082,2,0,P|176:224|248:140,1,209.999992847443
236,137,141578,2,0,P|356:225|368:301,1,209.999992847443
176,320,142074,6,0,L|152:252,1,69.9999976158143
104,124,142321,1,0,0:0:0:0:
104,124,142445,1,0,0:0:0:0:
52,248,142569,1,0,0:0:0:0:
52,248,142693,2,0,L|40:328,1,69.9999976158143
200,224,142941,2,0,P|284:212|368:168,1,139.999995231629
456,120,143313,2,0,L|420:196,1,69.9999976158143
376,292,143561,6,0,P|296:292|232:260,1,139.999995231629
128,180,144057,1,0,0:0:0:0:
268,120,144181,1,0,0:0:0:0:
272,268,144305,1,0,0:0:0:0:
196,128,144429,1,0,0:0:0:0:
376,136,144553,1,0,0:0:0:0:
380,284,144677,1,0,0:0:0:0:
208,272,144801,1,0,0:0:0:0:
208,272,144925,2,0,L|256:132,1,139.999995231629,0|0,0:0|0:0,0:0:0:0:
320,40,145297,6,0,P|356:112|352:128,1,69.9999976158143
320,264,145545,2,0,P|272:200|276:180,1,69.9999976158143
156,60,145792,2,0,P|148:140|136:144,1,69.9999976158143
64,220,146040,1,0,0:0:0:0:
84,212,146536,6,0,L|184:252,1,69.9999976158143
284,280,146784,1,0,0:0:0:0:
252,88,146908,2,0,P|224:176|248:216,1,139.999995231629
352,312,147280,2,0,L|416:272,1,69.9999976158143
332,116,147528,2,0,L|400:164,1,69.9999976158143
204,248,147776,2,0,L|284:224,1,69.9999976158143
96,88,148024,2,0,P|80:184|76:244,1,139.999995231629
420,284,148396,2,0,P|432:208|424:132,1,139.999995231629
280,100,148768,2,0,L|344:64,1,69.9999976158143
260,200,149016,2,0,L|176:244,1,69.9999976158143
72,272,149264,5,0,0:0:0:0:
72,216,149326,1,0,0:0:0:0:
84,160,149388,1,0,0:0:0:0:
112,112,149450,1,0,0:0:0:0:
160,76,149511,2,0,P|216:64|308:80,1,139.999995231629
408,200,149883,1,0,0:0:0:0:
408,200,150007,2,0,P|372:248|376:152,1,209.999992847443
400,136,150503,6,0,L|264:80,1,139.999995231629
132,156,150875,2,0,L|284:204,1,139.999995231629
360,292,151247,1,0,0:0:0:0:
360,292,151371,2,0,L|216:292,1,139.999995231629
288,100,151743,2,0,L|224:168,1,69.9999976158143
96,300,151991,2,0,P|112:220|156:148,1,139.999995231629
328,104,152363,1,0,0:0:0:0:
188,68,152487,2,0,P|216:152|220:216,1,139.999995231629
440,296,152859,1,0,0:0:0:0:
292,300,152983,2,0,P|312:216|344:144,1,139.999995231629
412,64,153354,1,0,0:0:0:0:
456,184,153478,6,0,L|304:188,1,139.999995231629
104,204,153850,1,0,0:0:0:0:
104,204,153912,1,0,0:0:0:0:
104,204,153974,2,0,P|120:152|196:108,1,139.999995231629
352,104,154346,1,0,0:0:0:0:
424,244,154470,2,0,P|348:260|264:248,1,139.999995231629
176,340,154842,2,0,P|176:260|216:188,1,139.999995231629
312,104,155214,1,0,0:0:0:0:
344,224,155338,1,0,0:0:0:0:
456,128,155462,6,0,L|376:120,1,69.9999976158143
256,96,155710,1,0,0:0:0:0:
184,212,155834,1,0,0:0:0:0:
88,96,155958,6,0,L|156:160,1,69.9999976158143
336,292,156206,2,0,L|248:292,1,69.9999976158143
128,296,156454,1,0,0:0:0:0:
276,172,156578,1,0,0:0:0:0:
140,168,156702,1,0,0:0:0:0:
280,300,156826,1,0,0:0:0:0:
432,300,156950,6,0,L|412:212,1,69.9999976158143
264,64,157197,1,0,0:0:0:0:
272,172,157321,1,0,0:0:0:0:
408,196,157445,6,0,P|340:192|248:228,1,139.999995231629
352,304,157817,2,0,P|400:204|276:116,1,279.999990463257
112,160,158437,2,0,L|228:256,1,139.999995231629
112,304,158809,2,0,P|168:220|248:128,1,209.999992847443
361,67,159305,6,0,P|369:123|365:147,1,69.9999976158143
344,264,159553,1,0,0:0:0:0:
212,172,159677,1,0,0:0:0:0:
368,136,159801,1,0,0:0:0:0:
224,280,159925,2,0,P|156:272|112:216,1,139.999995231629
164,72,160297,1,0,0:0:0:0:
164,72,160421,2,0,L|188:152,1,69.9999976158143
308,228,160669,2,0,L|288:148,1,69.9999976158143
388,88,160916,2,0,P|416:160|388:300,1,209.999992847443
228,320,161412,6,0,P|224:276|260:180,1,139.999995231629
100,120,161784,1,0,0:0:0:0:
100,120,161908,2,0,P|108:156|88:296,1,139.999995231629
94,264,162280,1,0,0:0:0:0:
244,256,162404,6,0,P|304:220|376:224,1,139.999995231629
472,316,162776,2,0,P|372:312|336:288,1,139.999995231629
296,208,163148,1,0,0:0:0:0:
248,120,163272,1,0,0:0:0:0:
160,96,163396,1,0,0:0:0:0:
80,144,163520,1,0,0:0:0:0:
68,240,163644,1,0,0:0:0:0:
156,292,163768,1,0,0:0:0:0:
264,240,163892,6,0,L|208:160,1,69.9999976158143
144,96,164140,1,0,0:0:0:0:
296,184,164264,1,0,0:0:0:0:
136,188,164388,1,0,0:0:0:0:
336,120,164511,1,0,0:0:0:0:
96,124,164635,1,0,0:0:0:0:
352,208,164759,1,0,0:0:0:0:
224,316,164883,2,0,P|192:272|192:172,1,139.999995231629
232,68,165255,1,0,0:0:0:0:
232,68,165379,2,0,L|268:144,1,69.9999976158143
220,288,165627,1,0,0:0:0:0:
132,136,165751,1,0,0:0:0:0:
400,208,165875,5,0,0:0:0:0:
124,208,168850,6,0,L|236:168,1,83.9999945755007
328,132,169346,1,0,0:0:0:0:
324,128,169594,2,0,L|280:304,1,167.999989151001
283,290,170338,1,0,0:0:0:0:
224,248,170586,1,0,0:0:0:0:
160,176,170834,5,0,0:0:0:0:
248,116,171082,1,0,0:0:0:0:
256,228,171330,1,0,0:0:0:0:
256,232,171578,2,0,L|400:140,1,167.999989151001
304,76,172321,2,0,L|260:56,2,41.9999972877504
308,180,172817,5,0,0:0:0:0:
208,116,173065,1,0,0:0:0:0:
216,208,173313,1,0,0:0:0:0:
216,200,173561,2,0,L|344:316,1,167.999989151001
328,304,174305,1,0,0:0:0:0:
324,192,174553,1,0,0:0:0:0:
220,192,174801,5,0,0:0:0:0:
136,264,175049,1,0,0:0:0:0:
112,156,175297,1,0,0:0:0:0:
136,264,175545,2,0,L|224:232,1,83.9999945755007
344,200,176040,2,0,L|300:168,1,41.9999972877504
232,64,176288,2,0,L|220:160,1,83.9999945755007
120,128,176784,6,0,P|128:188|160:240,1,105.000000429154
280,280,177156,2,0,L|348:288,3,52.5000002145768
432,296,177652,1,0,0:0:0:0:
384,208,177776,2,0,L|328:132,1,52.5000002145768
256,100,178024,2,0,L|248:172,1,52.5000002145768
240,256,178272,2,0,L|176:212,1,52.5000002145768
168,116,178520,2,0,L|104:144,1,52.5000002145768
72,224,178768,5,0,0:0:0:0:
164,208,178892,1,0,0:0:0:0:
124,296,179016,1,0,0:0:0:0:
208,276,179140,1,0,0:0:0:0:
216,272,179264,2,0,L|216:160,1,105.000000429154
228,84,179635,1,0,0:0:0:0:
312,164,179759,2,0,L|336:220,1,52.5000002145768
364,284,180007,1,0,0:0:0:0:
416,148,180255,1,0,0:0:0:0:
256,192,180503,1,0,0:0:0:0:
260,192,180751,6,0,L|288:256,2,52.5000002145768
228,108,181123,1,0,0:0:0:0:
228,108,181247,2,0,L|160:108,1,52.5000002145768
88,184,181495,1,0,0:0:0:0:
88,184,181619,1,0,0:0:0:0:
88,184,181743,2,0,L|128:240,1,52.5000002145768
212,312,181991,2,0,L|200:232,1,52.5000002145768
224,184,182239,2,0,L|288:176,1,52.5000002145768
304,264,182487,6,0,L|380:260,1,52.5000002145768
412,192,182735,2,0,L|416:136,1,52.5000002145768
304,72,182983,2,0,L|304:132,1,52.5000002145768
308,252,183230,2,0,P|248:288|208:304,1,105.000000429154
88,284,183726,1,0,0:0:0:0:
88,284,183850,1,0,0:0:0:0:
88,276,183974,2,0,L|140:132,1,105.000000429154
192,92,184470,2,0,L|276:144,1,52.5000002145768
412,180,184718,5,0,0:0:0:0:
412,180,184842,2,0,P|352:212|260:240,1,157.50000064373
252,244,185338,1,0,0:0:0:0:
244,248,185462,1,0,0:0:0:0:
112,280,185710,1,0,0:0:0:0:
112,288,185958,2,0,L|88:168,2,105.000000429154
152,100,186702,5,0,0:0:0:0:
248,96,186826,1,0,0:0:0:0:
200,168,186950,1,0,0:0:0:0:
308,148,187073,1,0,0:0:0:0:
264,236,187197,2,0,L|344:312,1,105.000000429154
408,204,187569,1,0,0:0:0:0:
404,196,187693,2,0,L|340:152,1,52.5000002145768
176,76,187941,1,0,0:0:0:0:
176,76,188189,2,0,L|168:204,1,105.000000429154
64,316,188685,6,0,P|128:244|164:224,1,105.000000429154
248,160,189181,1,0,0:0:0:0:
248,152,189429,2,0,P|200:116|144:100,1,105.000000429154
220,260,189925,2,0,P|296:256|332:232,1,105.000000429154
408,104,190421,2,0,P|424:176|416:224,1,105.000000429154
360,280,190792,1,0,0:0:0:0:
360,280,190916,2,0,P|296:248|228:236,1,105.000000429154
168,236,191288,1,0,0:0:0:0:
168,236,191412,2,0,L|172:132,1,105.000000429154
280,88,191908,2,0,L|280:200,1,105.000000429154
168,284,192652,5,0,0:0:0:0:
104,228,192776,1,0,0:0:0:0:
180,196,192900,1,0,0:0:0:0:
108,136,193024,2,0,L|28:72,1,52.5000002145768
184,60,193272,1,0,0:0:0:0:
248,128,193396,1,0,0:0:0:0:
280,56,193520,6,0,P|336:88|360:144,1,105.000000429154
360,236,193892,1,0,0:0:0:0:
340,248,194140,2,0,P|248:220|212:200,1,105.000000429154
104,164,194635,5,0,0:0:0:0:
232,168,194759,1,0,0:0:0:0:
116,224,194883,1,0,0:0:0:0:
188,108,195007,1,0,0:0:0:0:
188,216,195131,2,0,L|240:320,1,105.000000429154
348,304,195503,2,0,L|324:248,1,52.5000002145768
272,160,195751,1,0,0:0:0:0:
272,160,195875,2,0,L|368:160,1,52.5000002145768
440,164,196123,1,0,0:0:0:0:
388,271,196619,6,0,P|334:229|284:225,1,105.000000429154
167,276,197115,2,0,L|128:163,2,105.000000429154
261,83,197859,2,0,P|244:162|244:199,1,105.000000429154
345,268,198230,1,0,0:0:0:0:
345,268,198354,2,0,P|359:207|354:150,1,105.000000429154
429,93,198726,1,0,0:0:0:0:
429,93,198850,2,0,P|433:171|431:212,1,105.000000429154
294,282,199222,1,0,0:0:0:0:
294,282,199346,2,0,P|285:217|294:166,1,105.000000429154
232,80,199842,6,0,L|166:121,1,52.5000002145768
96,128,200090,2,0,L|116:184,1,52.5000002145768
72,264,200338,2,0,L|136:268,1,52.5000002145768
224,208,200586,5,0,0:0:0:0:
223,202,200710,1,0,0:0:0:0:
223,202,200834,2,0,P|278:194|372:199,1,105.000000429154
426,207,201330,1,0,0:0:0:0:
344,283,201578,1,0,0:0:0:0:
233,283,201826,2,0,P|145:256|132:236,1,105.000000429154
199,93,202321,6,0,P|221:169|231:230,1,105.000000429154
236,224,202693,1,0,0:0:0:0:
248,260,202817,1,0,0:0:0:0:
416,232,203065,2,0,P|360:196|332:161,1,105.000000429154
248,98,203561,5,0,0:0:0:0:
240,88,203809,2,0,P|172:118|136:121,1,105.000000429154
76,221,204305,2,0,P|160:245|203:275,1,105.000000429154
237,288,204677,1,0,0:0:0:0:
284,312,204801,1,0,0:0:0:0:
304,180,205049,1,0,0:0:0:0:
415,284,205297,1,0,0:0:0:0:
394,289,205545,1,0,0:0:0:0:
400,284,205792,6,0,L|352:212,1,52.5000002145768
328,124,206040,2,0,L|272:184,1,52.5000002145768
264,256,206288,2,0,P|208:196|168:172,1,105.000000429154
72,132,206660,1,0,0:0:0:0:
72,124,206784,2,0,P|136:108|184:88,1,105.000000429154
256,72,207156,2,0,P|288:124|296:184,1,105.000000429154
252,284,207528,2,0,L|168:304,2,52.5000002145768
368,272,208024,6,0,P|321:223|297:165,1,105.000000429154
277,94,208520,1,0,0:0:0:0:
277,94,208644,2,0,L|344:62,2,52.5000002145768
96,214,209016,6,0,P|185:229|233:240,1,105.000000429154
294,284,209511,1,0,0:0:0:0:
288,288,209759,2,0,P|323:246|354:195,1,105.000000429154
400,96,210255,1,0,0:0:0:0:
258,121,210503,1,0,0:0:0:0:
258,121,210627,1,0,0:0:0:0:
258,121,210751,1,0,0:0:0:0:
160,64,210999,6,0,P|98:98|26:120,1,105.000000429154
140,196,211495,1,0,0:0:0:0:
140,196,211743,2,0,P|232:225|269:248,1,105.000000429154
332,296,212239,1,0,0:0:0:0:
327,146,212487,2,0,L|335:86,2,52.5000002145768
423,242,212983,2,0,P|337:211|293:199,1,105.000000429154
57,202,213478,1,0,0:0:0:0:
181,147,213726,2,0,L|186:265,1,105.000000429154
112,281,214222,1,0,0:0:0:0:
112,281,214470,6,0,P|114:188|123:140,1,105.000000429154
130,95,214842,1,0,0:0:0:0:
305,215,214966,1,0,0:0:0:0:
372,92,215462,6,0,L|276:190,1,105.000000429154
165,248,215958,1,0,0:0:0:0:
405,224,216206,1,0,0:0:0:0:
113,147,216454,2,0,L|45:99,3,76.9999997272492
116,148,217445,6,0,L|192:208,1,62.9999959316255
272,288,217693,1,0,0:0:0:0:
292,120,217817,1,0,0:0:0:0:
144,192,217941,2,0,L|240:260,1,62.9999959316255
424,280,218189,1,0,0:0:0:0:
364,116,218313,1,0,0:0:0:0:
184,248,218437,2,0,L|240:292,1,62.9999959316255
376,336,218685,2,0,P|396:304|396:264,1,62.9999959316255
400,260,218871,1,0,0:0:0:0:
400,240,218933,1,0,0:0:0:0:
328,80,219057,5,0,0:0:0:0:
312,104,219119,1,0,0:0:0:0:
296,132,219181,2,0,L|260:188,1,62.9999959316255
116,224,219429,6,0,P|160:260|240:276,1,125.999991863251
412,272,219801,2,0,L|352:216,1,62.9999959316255
204,116,220049,1,0,0:0:0:0:
360,124,220173,2,0,P|328:168|288:252,1,125.999991863251
80,272,220545,1,0,0:0:0:0:
200,304,220669,2,0,P|180:224|176:156,2,125.999991863251
96,304,221412,6,0,L|160:268,1,62.9999959316255
312,176,221660,1,0,0:0:0:0:
156,268,221784,1,0,0:0:0:0:
376,296,221908,1,0,0:0:0:0:
376,296,222157,5,0,0:0:0:0:
200,232,222281,1,0,0:0:0:0:
332,92,222405,1,0,0:0:0:0:
332,92,222529,2,0,L|276:160,1,62.9999959316255
336,244,222776,2,0,L|268:244,1,62.9999959316255
128,264,223024,1,0,0:0:0:0:
128,264,223086,1,0,0:0:0:0:
128,264,223148,2,0,P|116:208|116:160,1,62.9999959316255
108,68,223396,6,0,P|168:96|188:112,1,62.9999959316255
276,48,223644,2,0,P|272:132|252:184,1,125.999991863251
220,268,224016,1,0,0:0:0:0:
296,328,224140,1,0,0:0:0:0:
384,328,224264,1,0,0:0:0:0:
464,268,224388,1,0,0:0:0:0:
456,172,224511,1,0,0:0:0:0:
452,168,224635,2,0,P|384:128|316:120,1,125.999991863251
212,116,225007,1,0,0:0:0:0:
104,204,225131,2,0,P|128:244|144:256,1,62.9999959316255
300,292,225379,6,0,P|280:240|263:209,1,83.9999945755007
176,128,225751,2,0,L|236:122,1,41.9999972877504
388,104,225999,1,0,0:0:0:0:
388,104,226123,2,0,L|388:160,1,41.9999972877504
400,284,226371,6,0,P|340:264|268:264,1,125.999991863251
148,296,226867,2,0,L|144:248,1,41.9999972877504
96,144,227115,2,0,L|144:152,1,41.9999972877504
232,204,227363,2,0,L|324:164,1,83.9999945755007
456,224,227735,2,0,L|368:192,1,83.9999945755007
280,96,228107,2,0,L|264:148,1,41.9999972877504
240,220,228292,1,0,0:0:0:0:
232,224,228354,2,0,P|256:272|288:296,1,83.9999945755007
412,268,228850,5,0,0:0:0:0:
380,176,228974,1,0,0:0:0:0:
272,152,229098,1,0,0:0:0:0:
168,172,229222,1,0,0:0:0:0:
100,260,229346,6,0,L|184:280,1,62.9999959316255
280,300,229594,1,0,0:0:0:0:
256,176,229718,1,0,0:0:0:0:
396,208,229842,2,0,L|384:120,1,62.9999959316255
360,40,230090,1,0,0:0:0:0:
220,104,230214,1,0,0:0:0:0:
372,152,230338,2,0,L|312:212,1,62.9999959316255
248,304,230586,2,0,L|180:256,1,62.9999959316255
40,176,230834,2,0,L|128:152,1,62.9999959316255
224,80,231082,6,0,L|248:232,1,125.999991863251
256,312,231454,1,0,0:0:0:0:
256,312,231578,2,0,L|316:268,1,62.9999959316255
392,216,231825,1,0,0:0:0:0:
248,188,231950,1,0,0:0:0:0:
72,172,232073,2,0,L|136:144,1,62.9999959316255
264,92,232321,1,0,0:0:0:0:
328,276,232445,1,0,0:0:0:0:
328,276,232569,5,0,0:0:0:0:
164,252,232693,1,0,0:0:0:0:
280,184,232817,2,0,L|332:128,2,62.9999959316255
256,208,233127,1,0,0:0:0:0:
224,224,233189,1,0,0:0:0:0:
188,228,233251,1,0,0:0:0:0:
148,228,233313,2,0,L|88:276,1,62.9999959316255
232,312,233561,5,0,0:0:0:0:
252,172,233685,1,0,0:0:0:0:
396,284,233809,1,0,0:0:0:0:
292,248,234057,1,0,0:0:0:0:
316,96,234181,1,0,0:0:0:0:
156,144,234305,1,0,0:0:0:0:
172,160,234553,5,0,0:0:0:0:
308,140,234677,1,0,0:0:0:0:
252,244,234801,1,0,0:0:0:0:
224,92,234925,1,0,0:0:0:0:
144,246,235049,1,0,0:0:0:0:
108,124,235173,1,0,0:0:0:0:
84,264,235297,6,0,L|168:240,1,62.9999959316255
312,216,235545,1,0,0:0:0:0:
188,160,235669,1,0,0:0:0:0:
412,272,235792,1,0,0:0:0:0:
376,272,236040,5,0,0:0:0:0:
280,120,236164,1,0,0:0:0:0:
236,312,236288,1,0,0:0:0:0:
324,216,236412,1,0,0:0:0:0:
296,196,236474,1,0,0:0:0:0:
260,188,236536,1,0,0:0:0:0:
224,200,236598,1,0,0:0:0:0:
192,224,236660,1,0,0:0:0:0:
164,244,236722,1,0,0:0:0:0:
116,240,236784,6,0,L|88:196,3,31.4999979658128
96,168,237032,5,0,0:0:0:0:
124,140,237094,1,0,0:0:0:0:
172,128,237156,1,0,0:0:0:0:
216,136,237218,1,0,0:0:0:0:
252,148,237280,6,0,P|300:176|328:188,1,62.9999959316255
456,232,237528,1,0,0:0:0:0:
344,128,237652,1,0,0:0:0:0:
288,304,237776,1,0,0:0:0:0:
288,288,238024,5,0,0:0:0:0:
228,128,238148,1,0,0:0:0:0:
184,292,238272,1,0,0:0:0:0:
96,136,238396,1,0,0:0:0:0:
116,160,238458,1,0,0:0:0:0:
140,180,238520,1,0,0:0:0:0:
168,196,238582,1,0,0:0:0:0:
196,208,238644,1,0,0:0:0:0:
228,216,238706,1,0,0:0:0:0:
264,224,238768,6,0,L|300:224,3,31.4999979658128
340,220,239016,1,0,0:0:0:0:
372,228,239078,1,0,0:0:0:0:
396,248,239140,1,0,0:0:0:0:
400,280,239202,1,0,0:0:0:0:
384,308,239264,6,0,P|301:311|235:296,1,125.999991863251
200,296,241247,6,0,L|184:208,1,76.9999997272492
128,72,241495,1,0,0:0:0:0:
192,216,241619,1,0,0:0:0:0:
308,76,241743,2,0,L|312:152,1,76.9999997272492
304,304,241990,1,0,0:0:0:0:
112,284,242115,2,0,P|184:232|256:200,1,153.999999454498
452,180,242487,2,0,L|340:160,1,76.9999997272492
272,68,242735,2,0,P|248:100|264:212,1,153.999999454498
332,304,243230,5,0,0:0:0:0:
272,144,243354,1,0,0:0:0:0:
168,248,243478,1,0,0:0:0:0:
332,212,243602,1,0,0:0:0:0:
164,104,243726,2,0,P|116:136|92:232,1,153.999999454498
216,300,244036,5,0,0:0:0:0:
216,292,244098,2,0,P|200:232|136:156,1,153.999999454498
56,96,244470,5,0,0:0:0:0:
176,44,244594,1,0,0:0:0:0:
312,52,244718,2,0,P|312:112|308:140,1,76.9999997272492
216,216,244966,2,0,P|272:196|320:208,1,76.9999997272492
452,244,245214,2,0,P|432:280|320:320,1,153.999999454498
144,320,245710,6,0,P|152:272|224:192,1,153.999999454498
344,180,246082,1,0,0:0:0:0:
256,272,246206,1,0,0:0:0:0:
136,224,246330,1,0,0:0:0:0:
72,108,246454,2,0,P|120:88|152:88,1,76.9999997272492
272,80,246702,2,0,P|244:128|212:160,1,76.9999997272492
128,232,246950,2,0,P|168:220|220:216,1,76.9999997272492
348,328,247197,2,0,L|272:192,1,153.999999454498
248,184,247693,6,0,P|272:128|152:120,1,230.999999181748
136,256,248189,2,0,P|184:288|336:232,1,230.999999181748
468,280,248685,2,0,P|460:224|336:136,1,192.499999318123
192,128,249181,6,0,L|212:220,1,76.9999997272492
232,328,249429,1,0,0:0:0:0:
212,208,249553,1,0,0:0:0:0:
112,292,249677,1,0,0:0:0:0:
92,152,249801,2,0,P|132:104|156:96,1,76.9999997272492
276,64,250049,2,0,P|268:120|208:204,1,153.999999454498
204,304,250421,2,0,P|248:292|280:280,1,76.9999997272492
432,304,250669,2,0,P|420:240|448:140,1,153.999999454498
328,80,251164,5,0,0:0:0:0:
196,164,251288,1,0,0:0:0:0:
312,200,251412,1,0,0:0:0:0:
204,64,251536,1,0,0:0:0:0:
96,164,251660,1,0,0:0:0:0:
204,256,251784,1,0,0:0:0:0:
304,164,251908,1,0,0:0:0:0:
312,164,252032,2,0,L|232:296,1,153.999999454498
364,304,252404,6,0,L|304:248,1,76.9999997272492
176,128,252652,1,0,0:0:0:0:
344,160,252776,1,0,0:0:0:0:
196,236,252900,1,0,0:0:0:0:
312,72,253024,1,0,0:0:0:0:
96,104,253148,2,0,P|104:168|80:280,1,153.999999454498
100,276,253644,6,0,L|180:244,1,76.9999997272492
316,196,253892,1,0,0:0:0:0:
216,72,254016,2,0,P|212:124|244:236,1,153.999999454498
391,272,254388,2,0,L|335:200,1,76.9999997272492
272,88,254635,1,0,0:0:0:0:
344,212,254759,1,0,0:0:0:0:
172,284,254883,2,0,L|228:200,1,76.9999997272492
96,112,255131,6,0,P|148:84|248:88,1,153.999999454498
340,328,255503,2,0,P|292:312|208:244,1,153.999999454498
104,164,255875,2,0,L|108:256,1,76.9999997272492
272,132,256123,6,0,L|368:152,1,76.9999997272492
364,292,256371,5,0,0:0:0:0:
316,300,256433,1,0,0:0:0:0:
264,308,256495,1,0,0:0:0:0:
220,296,256557,1,0,0:0:0:0:
172,268,256619,2,0,P|144:208|180:120,1,153.999999454498
360,96,256991,1,0,0:0:0:0:
360,96,257115,2,0,P|412:72|392:188,1,230.999999181748
376,176,257611,6,0,L|212:116,1,153.999999454498
112,200,257983,2,0,L|280:260,1,153.999999454498
428,320,258355,1,0,0:0:0:0:
428,320,258479,2,0,L|284:320,1,139.999995231629
128,300,258850,6,0,L|180:224,1,76.9999997272492
216,164,259098,2,0,P|260:164|372:212,1,153.999999454498
260,296,259470,1,0,0:0:0:0:
72,280,259594,2,0,P|116:208|184:156,1,153.999999454498
344,128,259966,1,0,0:0:0:0:
204,72,260090,2,0,P|192:136|224:228,1,153.999999454498
324,312,260462,1,0,0:0:0:0:
448,216,260586,6,0,P|392:176|312:144,1,153.999999454498
132,140,260958,1,0,0:0:0:0:
132,140,261020,1,0,0:0:0:0:
132,140,261082,2,0,P|124:200|176:280,1,153.999999454498
308,320,261454,1,0,0:0:0:0:
440,260,261578,2,0,P|388:212|300:172,1,153.999999454498
252,60,261950,6,0,P|204:116|192:216,1,153.999999454498
192,312,262321,1,0,0:0:0:0:
328,224,262445,1,0,0:0:0:0:
440,140,262569,2,0,L|352:104,1,76.9999997272492
200,88,262817,1,0,0:0:0:0:
320,220,262941,1,0,0:0:0:0:
140,220,263065,6,0,L|244:216,1,76.9999997272492
392,216,263313,1,0,0:0:0:0:
224,332,263437,1,0,0:0:0:0:
424,328,263561,2,0,L|316:332,1,76.9999997272492
200,320,263809,1,0,0:0:0:0:
360,224,263933,1,0,0:0:0:0:
252,100,264057,6,0,L|252:196,1,76.9999997272492
256,324,264305,1,0,0:0:0:0:
256,180,264429,1,0,0:0:0:0:
180,260,264553,1,0,0:0:0:0:
268,280,264677,1,0,0:0:0:0:
352,248,264801,1,0,0:0:0:0:
392,172,264925,1,0,0:0:0:0:
364,100,265049,2,0,P|328:56|172:112,1,230.999999181748
76,212,265545,2,0,P|132:240|220:212,1,153.999999454498
368,156,265916,2,0,P|388:240|272:316,1,230.999999181748
116,280,266412,6,0,L|180:220,1,76.9999997272492
264,128,266660,1,0,0:0:0:0:
144,68,266784,1,0,0:0:0:0:
56,184,266908,1,0,0:0:0:0:
184,272,267032,2,0,P|256:272|332:240,1,153.999999454498
200,112,267404,1,0,0:0:0:0:
200,112,267528,2,0,L|224:192,1,69.9999976158143
368,308,267776,2,0,L|336:216,1,76.9999997272492
104,260,268024,2,0,P|144:192|288:144,1,230.999999181748
424,228,268520,2,0,P|372:256|260:268,1,153.999999454498
104,232,268892,5,0,0:0:0:0:
108,224,269016,2,0,P|148:168|248:136,1,153.999999454498
392,104,269388,1,0,0:0:0:0:
440,236,269511,2,0,P|368:244|280:216,1,153.999999454498
136,184,269883,2,0,P|132:240|216:280,1,153.999999454498
296,212,270255,1,0,0:0:0:0:
248,124,270379,1,0,0:0:0:0:
160,100,270503,1,0,0:0:0:0:
80,148,270627,1,0,0:0:0:0:
68,244,270751,1,0,0:0:0:0:
156,296,270875,1,0,0:0:0:0:
264,244,270999,6,0,L|208:164,1,69.9999976158143
152,96,271247,1,0,0:0:0:0:
204,256,271371,1,0,0:0:0:0:
316,152,271495,1,0,0:0:0:0:
144,172,271619,1,0,0:0:0:0:
320,256,271743,1,0,0:0:0:0:
268,72,271867,1,0,0:0:0:0:
444,140,271991,6,0,P|388:164|336:176,1,76.9999997272492
240,204,272239,1,0,0:0:0:0:
240,204,272487,5,0,0:0:0:0:
332,272,272611,1,0,0:0:0:0:
192,296,272735,1,0,0:0:0:0:
184,288,272983,1,0,0:0:0:0:
176,252,275958,5,0,0:0:0:0:
176,236,276330,1,0,0:0:0:0:
184,248,276702,1,0,0:0:0:0:
256,196,277197,5,0,0:0:0:0:
