osu file format v14

[General]
AudioFilename: audio.mp3
AudioLeadIn: 0
PreviewTime: 65933
Countdown: 0
SampleSet: Normal
StackLeniency: 0.7
Mode: 0
LetterboxInBreaks: 0
WidescreenStoryboard: 0

[Editor]
DistanceSpacing: 1.4
BeatDivisor: 4
GridSize: 4
TimelineZoom: 1.8

[Metadata]
Title:Innocence (TV Size)
TitleUnicode:Innocence (TV Size)
Artist:Eir Aoi
ArtistUnicode:Eir Aoi
Creator:MeSandwitches
Version:Insane
Source:Sword Art Online
Tags:Eir Aoi soa Innocence
BeatmapID:1909594
BeatmapSetID:914259

[Difficulty]
HPDrainRate:6
CircleSize:4
OverallDifficulty:6
ApproachRate:7
SliderMultiplier:1
SliderTickRate:1

[Events]
//Background and Video events
Video,0,"Sword Art Online Opening 2 - Innocence (AmaLee).mp4"
0,0,"innocenceBackground.jpg",0,0
//Break Periods
2,90419,92105
//Storyboard Layer 0 (Background)
//Storyboard Layer 1 (Fail)
//Storyboard Layer 2 (Pass)
//Storyboard Layer 3 (Foreground)
//Storyboard Sound Samples

[TimingPoints]
15465,327.868852459016,4,1,0,76,1,0
22022,-83.3333333333333,4,1,0,100,0,0
27244,-66.6666666666667,4,1,0,100,0,0
37760,-200,4,2,0,100,0,0
38743,-100,4,2,0,100,0,0
40383,-200,4,2,0,100,0,0
43005,-100,4,1,0,100,0,0
48251,-200,4,2,0,100,0,0
53497,-100,4,1,0,100,0,0
69235,-66.6666666666667,4,1,0,100,0,1
90219,-66.6666666666667,4,1,0,100,0,0
94153,-50,4,1,0,100,0,0
94481,-40,4,1,0,100,0,0
94809,-33.3333333333333,4,1,0,100,0,0
95464,-100,4,1,0,100,0,0
100710,-100,4,1,0,20,0,0

[Colours]
Combo1 : 26,116,242
Combo2 : 64,128,128
Combo3 : 0,0,128
Combo4 : 0,0,255
Combo5 : 255,0,0

[HitObjects]
103,124,16612,5,0,0:0:0:0:
85,234,16776,2,0,L|79:295,2,50
186,198,17268,1,0,0:0:0:0:
415,50,17596,1,0,0:0:0:0:
301,192,17924,1,0,0:0:0:0:
301,192,18087,2,0,P|252:259|172:282,1,150
120,239,18907,1,0,0:0:0:0:
105,202,19071,1,0,0:0:0:0:
93,163,19235,1,0,0:0:0:0:
152,80,19399,6,0,L|213:85,1,50
287,88,19727,1,0,0:0:0:0:
353,137,19891,2,0,P|381:187|443:193,1,116.666666666667
442,324,20628,1,0,0:0:0:0:
442,324,20710,2,0,P|430:279|421:265,1,50
360,183,21038,1,0,0:0:0:0:
279,326,21202,1,0,0:0:0:0:
331,39,22022,6,0,P|330:73|298:97,1,59.9999981689454,4|0,0:0|0:0,0:0:0:0:
204,156,22514,1,0,0:0:0:0:
197,253,23005,2,0,L|191:312,1,59.9999981689454
95,112,23333,2,0,B|161:184|209:53|282:118,1,199.999993896485,4|0,0:0|0:0,0:0:0:0:
307,100,23989,1,0,0:0:0:0:
404,202,24153,1,0,0:0:0:0:
441,67,24317,2,0,L|435:130,2,59.9999981689454,0|0|4,0:0|0:0|0:0,0:0:0:0:
199,47,24973,1,0,0:0:0:0:
297,269,25301,1,0,0:0:0:0:
191,138,25464,1,0,0:0:0:0:
361,172,25628,1,0,0:0:0:0:
205,234,25792,1,0,0:0:0:0:
301,88,25956,6,0,L|324:107,3,19.9999993896485,4|0|0|0,0:0|0:0|0:0|0:0,0:0:0:0:
201,150,26284,2,0,L|224:152,3,19.9999993896485,4|0|0|0,0:0|0:0|0:0|0:0,0:0:0:0:
306,327,26612,6,0,L|273:308,3,19.9999993896485,4|0|0|0,0:0|0:0|0:0|0:0,0:0:0:0:
406,265,26940,2,0,L|375:265,3,19.9999993896485,4|0|0|0,0:0|0:0|0:0|0:0,0:0:0:0:
455,342,27268,6,0,P|469:296|423:338,1,150.000005722046,4|0,0:0|0:0,0:0:0:0:
288,189,27760,2,0,P|248:232|247:173,1,150.000005722046
140,206,28251,1,0,0:0:0:0:
54,334,28579,6,0,B|110:334|110:334|150:317|150:317|210:318,1,150.000005722046,4|0,0:0|0:0,0:0:0:0:
236,310,29071,2,0,L|249:154,1,150.000005722046
316,43,29563,1,0,0:0:0:0:
398,178,29891,6,0,L|408:97,2,75.0000028610231,4|0|0,0:0|0:0|0:0,0:0:0:0:
431,258,30383,1,0,0:0:0:0:
353,244,30546,2,0,P|324:288|285:296,1,75.0000028610231
309,172,30874,1,0,0:0:0:0:
396,67,31038,1,0,0:0:0:0:
396,67,31120,1,0,0:0:0:0:
396,67,31202,6,0,L|405:162,2,75.0000028610231,4|0|0,0:0|0:0|0:0,0:0:0:0:
500,15,31694,1,0,0:0:0:0:
454,167,31858,2,0,P|432:203|400:221,2,75.0000028610231
256,192,32514,12,0,35137,0:0:0:0:
176,95,37760,6,0,P|161:149|227:209,1,150,4|0,0:0|0:0,0:0:0:0:
324,89,39071,2,0,P|324:126|317:144,2,50
371,200,39563,2,0,P|342:227|281:233,1,100
308,162,40055,1,0,0:0:0:0:
280,276,40219,1,0,0:0:0:0:
280,276,40383,6,0,P|233:300|183:295,1,100,4|0,0:0|0:0,0:0:0:0:
197,76,41366,1,0,0:0:0:0:
245,157,41694,2,0,P|258:211|297:232,1,100
347,156,42514,1,0,0:0:0:0:
402,301,42678,1,0,0:0:0:0:
407,104,42842,1,0,0:0:0:0:
311,48,43005,6,0,P|275:55|256:69,1,50,4|0,0:0|0:0,0:0:0:0:
282,179,43333,1,0,0:0:0:0:
170,230,43497,1,0,0:0:0:0:
190,127,43661,2,0,P|187:98|175:79,2,50
170,230,44153,1,0,0:0:0:0:
217,353,44317,6,0,L|277:347,1,50
356,342,44645,1,0,0:0:0:0:
405,255,44809,1,0,0:0:0:0:
394,176,44973,2,0,P|391:141|403:122,1,50
457,55,45301,1,0,0:0:0:0:
341,17,45383,1,0,0:0:0:0:
264,86,45628,6,0,P|232:93|224:118,2,50
318,159,46120,2,0,L|312:218,1,50
279,349,46612,1,0,0:0:0:0:
214,295,46776,2,0,L|210:271,3,16.6666666666667
224,149,47104,5,0,0:0:0:0:
224,149,47268,2,0,P|232:178|225:210,1,50
175,251,47596,2,0,P|145:244|120:223,1,50
155,132,47924,1,0,0:0:0:0:
283,126,48087,1,0,0:0:0:0:
283,126,48169,1,0,0:0:0:0:
283,126,48251,6,0,P|258:187|181:188,1,150,2|0,0:0|0:0,0:0:0:0:
213,90,49563,2,0,L|222:117,2,25
159,36,50055,1,0,0:0:0:0:
86,88,50219,6,0,L|81:117,1,25
65,186,50546,1,0,0:0:0:0:
153,168,50710,1,0,0:0:0:0:
153,168,50874,6,0,P|159:208|210:238,1,100
317,189,51858,1,0,0:0:0:0:
194,112,52186,2,0,P|198:127|194:140,2,25
269,62,52678,1,0,0:0:0:0:
250,247,52842,1,4,0:0:0:0:
366,133,53005,1,0,0:0:0:0:
265,292,53169,1,4,0:0:0:0:
366,133,53333,1,0,0:0:0:0:
408,53,53497,5,0,0:0:0:0:
447,132,53743,1,0,0:0:0:0:
447,132,53825,2,0,P|443:179|397:213,1,100
310,234,54317,1,0,0:0:0:0:
220,137,54481,1,0,0:0:0:0:
206,275,54645,1,0,0:0:0:0:
297,333,54809,6,0,P|329:346|353:348,1,50
432,332,55137,1,0,0:0:0:0:
460,210,55301,1,0,0:0:0:0:
460,210,55383,2,0,P|454:143|480:87,1,125
508,7,55956,1,0,0:0:0:0:
456,43,56120,6,0,P|437:68|418:80,2,50
373,0,56612,2,0,P|327:29|320:80,1,100
296,213,57104,1,0,0:0:0:0:
223,329,57268,2,0,P|188:326|166:313,1,50,4|0,0:0|0:0,0:0:0:0:
116,254,57596,1,0,0:0:0:0:
105,158,57760,2,0,B|152:132|152:132|198:153,1,100
216,157,58169,1,0,0:0:0:0:
219,181,58251,1,0,0:0:0:0:
230,204,58333,1,0,0:0:0:0:
247,221,58415,1,0,0:0:0:0:
269,233,58497,1,0,0:0:0:0:
294,237,58579,1,0,0:0:0:0:
318,234,58661,1,0,0:0:0:0:
342,225,58743,5,0,0:0:0:0:
452,318,58907,2,0,L|397:322,1,50
314,354,59235,1,0,0:0:0:0:
342,275,59399,2,0,P|345:244|340:217,1,50
320,154,59727,1,0,0:0:0:0:
417,73,59891,1,0,0:0:0:0:
435,207,60055,5,0,0:0:0:0:
476,352,60219,1,0,0:0:0:0:
355,308,60383,2,0,P|320:292|294:293,1,50
192,343,60710,5,4,0:0:0:0:
308,41,61038,1,4,0:0:0:0:
393,257,61366,5,0,0:0:0:0:
393,257,61530,2,0,P|380:281|355:299,1,50
257,258,61858,1,0,0:0:0:0:
271,115,62022,2,0,P|300:112|326:122,1,50
403,140,62350,1,0,0:0:0:0:
377,294,62514,1,0,0:0:0:0:
244,199,62678,1,0,0:0:0:0:
171,106,62842,2,0,P|176:137|164:160,2,50
312,76,63333,6,0,L|315:101,3,25,4|0|0|0,0:0|0:0|0:0|0:0,0:0:0:0:
364,137,63661,2,0,L|355:171,3,25,4|0|0|0,0:0|0:0|0:0|0:0,0:0:0:0:
341,219,63989,6,0,P|344:248|334:274,1,50
296,353,64317,1,0,0:0:0:0:
192,282,64481,1,0,0:0:0:0:
226,164,64645,2,0,P|246:142|248:110,2,50
106,77,65137,1,0,0:0:0:0:
106,77,65219,1,0,0:0:0:0:
106,77,65301,6,0,B|116:110|101:137,1,50
21,21,65628,1,0,0:0:0:0:
44,103,65792,1,0,0:0:0:0:
75,180,65956,2,0,L|68:236,2,50
172,137,66448,1,0,0:0:0:0:
172,137,66612,6,0,B|268:113|268:113|368:142,1,200
272,246,67432,1,0,0:0:0:0:
207,351,67596,1,0,0:0:0:0:
122,250,67760,1,0,0:0:0:0:
134,163,67924,6,0,P|124:134|131:107,1,50,2|0,0:0|0:0,0:0:0:0:
378,221,68579,6,0,P|388:250|381:277,1,50,2|0,0:0|0:0,0:0:0:0:
68,126,69071,5,0,0:0:0:0:
193,41,69235,2,0,P|234:45|281:75,2,75.0000028610231,4|0|0,0:0|0:0|0:0,0:0:0:0:
326,133,69727,2,0,P|331:91|369:53,1,75.0000028610231
447,140,70137,2,0,P|452:162|446:184,1,37.5000014305115
411,252,70383,1,0,0:0:0:0:
378,278,70464,1,0,0:0:0:0:
343,292,70546,1,0,0:0:0:0:
260,261,70710,1,0,0:0:0:0:
172,319,70874,6,0,P|137:293|134:259,2,75.0000028610231
243,346,71366,1,0,0:0:0:0:
274,168,71530,1,0,0:0:0:0:
112,210,71694,1,0,0:0:0:0:
69,104,71858,6,0,P|93:75|126:59,1,75.0000028610231
259,47,72186,1,0,0:0:0:0:
370,195,72350,2,0,P|378:159|364:126,1,75.0000028610231
441,46,72678,2,0,P|454:80|446:116,1,75.0000028610231
409,273,73005,1,0,0:0:0:0:
379,299,73087,1,0,0:0:0:0:
353,325,73169,6,0,P|305:322|272:315,1,75.0000028610231
263,239,73497,1,0,0:0:0:0:
188,276,73661,2,0,P|195:294|196:313,2,37.5000014305115
121,199,73989,1,0,0:0:0:0:
61,82,74153,1,0,0:0:0:0:
175,50,74317,1,0,0:0:0:0:
310,71,74481,6,0,P|309:105|277:129,1,59.9999981689454,4|0,0:0|0:0,0:0:0:0:
147,104,74809,1,0,0:0:0:0:
58,118,74973,2,0,P|47:153|54:190,2,75.0000028610231
192,292,75464,2,0,L|186:351,1,59.9999981689454
112,162,75792,2,0,B|143:127|143:127|185:129,1,75.0000028610231
246,189,76120,2,0,P|262:231|248:266,1,75.0000028610231
306,100,76448,1,0,0:0:0:0:
404,202,76612,1,0,0:0:0:0:
434,35,76776,2,0,P|451:78|446:121,1,75.0000028610231
395,237,77104,5,0,0:0:0:0:
465,379,77268,1,0,0:0:0:0:
338,335,77432,2,0,B|291:341|265:296,1,75.0000028610231
314,246,77760,1,0,0:0:0:0:
191,138,77924,1,0,0:0:0:0:
361,172,78087,1,0,0:0:0:0:
205,234,78251,1,0,0:0:0:0:
291,88,78415,5,0,0:0:0:0:
325,72,78497,1,0,0:0:0:0:
359,57,78579,1,0,0:0:0:0:
384,72,78661,1,0,0:0:0:0:
391,108,78743,1,0,0:0:0:0:
376,143,78825,1,0,0:0:0:0:
351,170,78907,1,0,0:0:0:0:
321,193,78989,1,0,0:0:0:0:
344,208,79071,1,0,0:0:0:0:
373,231,79153,1,0,0:0:0:0:
382,267,79235,1,0,0:0:0:0:
369,302,79317,1,0,0:0:0:0:
343,326,79399,2,0,L|294:345,2,37.5000014305115
451,293,79727,5,4,0:0:0:0:
343,181,79891,1,0,0:0:0:0:
434,108,80055,2,0,P|421:59|387:38,1,75.0000028610231
332,96,80383,1,0,0:0:0:0:
272,167,80546,2,0,P|266:216|245:240,2,75.0000028610231
222,57,81038,6,0,B|182:65|182:65|155:104,1,75.0000028610231
110,193,81366,1,0,0:0:0:0:
71,305,81530,2,0,L|66:347,2,37.5000014305115
186,267,81858,2,0,P|180:227|204:173,2,75.0000028610231
206,380,82350,5,0,0:0:0:0:
195,268,82514,2,0,L|188:189,2,75.0000028610231
276,337,83005,2,0,P|344:304|363:219,1,150.000005722046
323,115,83497,5,0,0:0:0:0:
323,115,83579,1,0,0:0:0:0:
323,115,83661,2,0,L|337:76,2,37.5000014305115
196,117,83989,2,0,P|172:149|176:207,1,75.0000028610231
146,287,84317,1,0,0:0:0:0:
248,316,84481,1,0,0:0:0:0:
354,288,84645,1,0,0:0:0:0:
443,323,84809,1,0,0:0:0:0:
385,215,84973,5,0,0:0:0:0:
330,127,85137,1,0,0:0:0:0:
330,127,85219,1,0,0:0:0:0:
330,127,85301,2,0,P|365:115|389:85,2,75.0000028610231
46,43,85956,1,0,0:0:0:0:
121,109,86120,1,0,0:0:0:0:
65,192,86284,6,0,L|72:309,1,112.500004291535
69,323,86612,1,0,0:0:0:0:
159,277,86776,2,0,P|180:256|239:248,1,75.0000028610231
306,224,87104,2,0,P|295:170|283:144,2,75.0000028610231
297,308,87596,5,0,0:0:0:0:
256,192,88907,12,0,90219,0:0:0:0:
86,145,93005,6,0,P|74:108|53:78,2,75.0000028610231
57,228,93497,1,0,0:0:0:0:
74,351,93825,1,0,0:0:0:0:
147,287,93989,2,0,P|169:323|168:364,1,75.0000028610231
246,346,94317,2,0,P|242:293|201:225,1,100
294,219,94645,2,0,P|322:280|313:383,1,125
396,341,94973,2,0,P|388:256|337:153,1,150.000005722046
353,112,95301,1,0,0:0:0:0:
353,112,95464,6,0,P|308:182|294:105,1,200
271,37,96284,1,0,0:0:0:0:
180,109,96448,1,0,0:0:0:0:
168,217,96612,1,0,0:0:0:0:
219,317,96776,1,0,0:0:0:0:
256,192,100710,12,0,103333,0:0:0:0:
