osu file format v14

[General]
AudioFilename: INNOCENCE.mp3
AudioLeadIn: 0
PreviewTime: 249569
Countdown: 0
SampleSet: Soft
StackLeniency: 0.7
Mode: 3
LetterboxInBreaks: 0
SpecialStyle: 0
WidescreenStoryboard: 0

[Editor]
DistanceSpacing: 1
BeatDivisor: 12
GridSize: 8
TimelineZoom: 3.299999

[Metadata]
Title:INNOCENCE
TitleUnicode:INNOCENCE
Artist:Eir Aoi
ArtistUnicode:藍井エイル
Creator:AWMRone
Version:Wolf's 6K Liberator
Source:ソードアート・オンライン
Tags:japanese anime sword art online sao alfheim online アルヴヘイム・オンライン alo op2 2nd second opening Fairy Dance Arc フェアリィ・ダンス kirito キリト asuna アスナ j-pop jpop japanese pop Ryosuke Shigenaga 重永亮介 Kayo Shimokawa 下川佳代 Blau BEST -E- SECL-1267 SECL-1216 SECL-2005 SME Records collaboration wilben_chan alipay sk_la wjh123 imperial wolf misterluka ruka [ Reversal ] la
BeatmapID:1836861
BeatmapSetID:875519

[Difficulty]
HPDrainRate:8
CircleSize:6
OverallDifficulty:7
ApproachRate:5
SliderMultiplier:1.4
SliderTickRate:1

[Events]
//Background and Video events
0,0,"BG.jpg",0,0
//Break Periods
//Storyboard Layer 0 (Background)
//Storyboard Layer 1 (Fail)
//Storyboard Layer 2 (Pass)
//Storyboard Layer 3 (Foreground)
//Storyboard Layer 4 (Overlay)
//Storyboard Sound Samples

[TimingPoints]
389,327.868852459016,4,2,0,5,1,0

[HitObjects]
42,192,334,5,0,0:0:0:1:
213,192,361,1,0,0:0:0:1:
469,192,389,1,0,0:0:0:1:
384,192,552,1,0,0:0:0:1:
298,192,716,1,0,0:0:0:1:
128,192,880,1,0,0:0:0:1:
384,192,1208,1,0,0:0:0:1:
213,192,1372,1,0,0:0:0:1:
298,192,1481,1,0,0:0:0:1:
384,192,1591,1,0,0:0:0:1:
469,192,1700,1,0,0:0:0:1:
42,192,1700,1,0,0:0:0:1:
128,192,1755,1,0,0:0:0:1:
213,192,1809,1,0,0:0:0:1:
298,192,1864,128,0,2684:0:0:0:1:
384,192,2848,1,0,0:0:0:0:
42,192,3011,128,0,4323:0:0:0:1:
213,192,3175,128,0,4241:0:0:0:1:
384,192,3339,128,0,3995:0:0:0:1:
469,192,3503,128,0,4241:0:0:0:1:
213,192,4323,1,0,0:0:0:1:
469,192,4323,1,0,0:0:0:1:
469,192,5634,128,0,6864:0:0:0:1:
298,192,5798,128,0,6864:0:0:0:1:
213,192,5962,128,0,6618:0:0:0:1:
42,192,6126,128,0,6946:0:0:0:1:
298,192,6946,1,0,0:0:0:1:
469,192,6946,1,0,0:0:0:1:
128,192,7438,1,0,0:0:0:1:
213,192,7520,1,0,0:0:0:1:
298,192,7602,1,0,0:0:0:1:
384,192,7684,1,0,0:0:0:1:
213,192,8257,1,0,0:0:0:1:
384,192,8257,1,0,0:0:0:1:
469,192,8257,1,0,0:0:0:1:
42,192,8257,128,0,9487:0:0:0:1:
128,192,9569,1,0,0:0:0:1:
298,192,9569,1,0,0:0:0:1:
42,192,9569,1,0,0:0:0:1:
469,192,9569,128,0,10798:0:0:0:1:
128,192,10061,1,0,0:0:0:1:
298,192,10061,1,0,0:0:0:1:
42,192,10061,1,0,0:0:0:1:
128,192,10388,1,0,0:0:0:1:
213,192,10552,1,0,0:0:0:1:
384,192,10552,1,0,0:0:0:1:
42,192,10552,1,0,0:0:0:1:
128,192,10880,1,0,0:0:0:1:
469,192,10880,1,0,0:0:0:1:
298,192,10880,128,0,11126:0:0:0:1:
384,192,11208,1,0,0:0:0:1:
469,192,11208,1,0,0:0:0:1:
298,192,11208,128,0,11536:0:0:0:1:
42,192,11208,128,0,11536:0:0:0:1:
384,192,11372,1,0,0:0:0:1:
469,192,11372,1,0,0:0:0:1:
128,192,11372,128,0,11536:0:0:0:1:
384,192,11536,1,0,0:0:0:1:
469,192,11536,1,0,0:0:0:1:
213,192,11536,128,0,12028:0:0:0:1:
128,192,11700,1,0,0:0:0:1:
42,192,11700,1,0,0:0:0:1:
469,192,11700,128,0,12028:0:0:0:1:
128,192,11864,1,0,0:0:0:1:
42,192,11864,1,0,0:0:0:1:
384,192,11864,128,0,12028:0:0:0:1:
128,192,12028,1,0,0:0:0:1:
298,192,12028,1,0,0:0:0:1:
42,192,12028,1,0,0:0:0:1:
128,192,12192,1,0,0:0:0:1:
42,192,12192,1,0,0:0:0:1:
384,192,12192,128,0,12356:0:0:0:1:
469,192,12192,128,0,12356:0:0:0:1:
213,192,12356,1,0,0:0:0:1:
298,192,12356,128,0,12520:0:0:0:1:
128,192,12520,1,0,0:0:0:1:
42,192,12520,1,0,0:0:0:1:
384,192,12520,128,0,12684:0:0:0:1:
469,192,12520,128,0,12684:0:0:0:1:
213,192,12684,1,0,0:0:0:1:
298,192,12684,128,0,12848:0:0:0:1:
128,192,12848,1,0,0:0:0:1:
42,192,12848,128,0,13011:0:0:0:1:
298,192,12929,1,0,0:0:0:1:
213,192,12929,128,0,13093:0:0:0:1:
384,192,13011,1,0,0:0:0:1:
469,192,13011,1,0,0:0:0:1:
128,192,13093,128,0,13175:0:0:0:1:
298,192,13093,128,0,13257:0:0:0:1:
42,192,13093,128,0,13175:0:0:0:1:
213,192,13175,128,0,13257:0:0:0:1:
384,192,13175,128,0,13339:0:0:0:1:
469,192,13175,128,0,13339:0:0:0:1:
42,192,13257,1,0,0:0:0:1:
128,192,13339,1,0,0:0:0:1:
298,192,13339,128,0,13421:0:0:0:1:
213,192,13421,1,0,0:0:0:1:
384,192,13421,1,0,0:0:0:1:
469,192,13421,1,0,0:0:0:1:
298,192,13503,1,0,0:0:0:1:
42,192,13503,128,0,14405:0:0:0:1:
128,192,13503,1,0,0:0:0:0:
298,192,13667,1,0,0:0:0:1:
213,192,13667,1,0,0:0:0:0:
469,192,13831,1,0,0:0:0:1:
384,192,13831,1,0,0:0:0:0:
128,192,13831,1,0,0:0:0:0:
213,192,13995,1,0,0:0:0:0:
128,192,14159,1,0,0:0:0:1:
298,192,14159,1,0,0:0:0:1:
469,192,14159,1,0,0:0:0:0:
298,192,14323,1,0,0:0:0:1:
213,192,14323,1,0,0:0:0:0:
469,192,14487,1,0,0:0:0:1:
213,192,14487,128,0,14733:0:0:0:1:
384,192,14487,1,0,0:0:0:0:
42,192,14487,1,0,0:0:0:0:
298,192,14651,1,0,0:0:0:0:
213,192,14815,1,0,0:0:0:1:
469,192,14815,128,0,15225:0:0:0:1:
384,192,14815,1,0,0:0:0:0:
42,192,14815,1,0,0:0:0:0:
213,192,14979,1,0,0:0:0:1:
298,192,14979,1,0,0:0:0:0:
42,192,15143,1,0,0:0:0:1:
384,192,15143,1,0,0:0:0:0:
128,192,15143,1,0,0:0:0:0:
298,192,15307,128,0,15716:0:0:0:1:
213,192,15307,1,0,0:0:0:0:
384,192,15470,1,0,0:0:0:1:
42,192,15470,1,0,0:0:0:0:
128,192,15470,1,0,0:0:0:0:
384,192,15634,1,0,0:0:0:1:
213,192,15634,1,0,0:0:0:0:
298,192,15798,1,0,0:0:0:1:
128,192,15798,128,0,16044:0:0:0:1:
469,192,15798,1,0,0:0:0:0:
42,192,15798,1,0,0:0:0:0:
298,192,15962,1,0,0:0:0:1:
213,192,15962,1,0,0:0:0:0:
128,192,16126,1,0,0:0:0:1:
42,192,16126,128,0,16700:0:0:0:1:
469,192,16126,1,0,0:0:0:0:
384,192,16126,1,0,0:0:0:0:
128,192,16290,1,0,0:0:0:1:
298,192,16290,1,0,0:0:0:0:
384,192,16454,1,0,0:0:0:1:
469,192,16454,1,0,0:0:0:0:
213,192,16454,1,0,0:0:0:0:
128,192,16618,1,0,0:0:0:0:
298,192,16782,1,0,0:0:0:1:
213,192,16782,128,0,17356:0:0:0:1:
469,192,16782,1,0,0:0:0:0:
42,192,16782,1,0,0:0:0:0:
298,192,16946,1,0,0:0:0:1:
384,192,16946,1,0,0:0:0:0:
42,192,17110,1,0,0:0:0:1:
469,192,17110,1,0,0:0:0:0:
128,192,17110,1,0,0:0:0:0:
384,192,17274,1,0,0:0:0:0:
298,192,17438,1,0,0:0:0:1:
128,192,17438,128,0,18667:0:0:0:1:
469,192,17438,1,0,0:0:0:0:
42,192,17438,1,0,0:0:0:0:
298,192,17602,1,0,0:0:0:1:
213,192,17602,1,0,0:0:0:0:
469,192,17766,1,0,0:0:0:1:
384,192,17766,1,0,0:0:0:0:
42,192,17766,1,0,0:0:0:0:
298,192,17929,1,0,0:0:0:0:
469,192,18093,1,0,0:0:0:1:
213,192,18093,1,0,0:0:0:0:
42,192,18093,1,0,0:0:0:0:
469,192,18257,1,0,0:0:0:1:
298,192,18257,1,0,0:0:0:0:
213,192,18421,1,0,0:0:0:1:
42,192,18421,128,0,18667:0:0:0:1:
384,192,18421,1,0,0:0:0:0:
298,192,18585,1,0,0:0:0:0:
384,192,18749,1,0,0:0:0:1:
469,192,18749,128,0,19979:0:0:0:1:
42,192,18749,1,0,0:0:0:0:
128,192,18749,1,0,0:0:0:0:
384,192,18913,1,0,0:0:0:1:
213,192,18913,1,0,0:0:0:0:
298,192,19077,1,0,0:0:0:0:
42,192,19077,1,0,0:0:0:0:
128,192,19077,1,0,0:0:0:0:
213,192,19241,1,0,0:0:0:0:
128,192,19405,1,0,0:0:0:1:
42,192,19405,1,0,0:0:0:1:
298,192,19405,128,0,19651:0:0:0:1:
213,192,19569,1,0,0:0:0:1:
42,192,19569,1,0,0:0:0:1:
128,192,19733,1,0,0:0:0:1:
298,192,19733,1,0,0:0:0:1:
42,192,19733,1,0,0:0:0:1:
384,192,19733,128,0,19979:0:0:0:1:
213,192,19897,1,0,0:0:0:1:
42,192,19897,1,0,0:0:0:1:
128,192,20061,1,0,0:0:0:1:
384,192,20061,1,0,0:0:0:1:
469,192,20061,1,0,0:0:0:1:
42,192,20061,128,0,21290:0:0:0:1:
128,192,20225,1,0,0:0:0:1:
298,192,20225,1,0,0:0:0:1:
469,192,20225,1,0,0:0:0:1:
213,192,20388,1,0,0:0:0:1:
384,192,20388,1,0,0:0:0:1:
469,192,20388,1,0,0:0:0:1:
213,192,20552,1,0,0:0:0:1:
469,192,20552,1,0,0:0:0:1:
298,192,20634,1,0,0:0:0:1:
128,192,20716,1,0,0:0:0:1:
384,192,20716,1,0,0:0:0:1:
213,192,20716,128,0,20962:0:0:0:1:
384,192,20880,1,0,0:0:0:1:
128,192,21044,1,0,0:0:0:1:
469,192,21044,1,0,0:0:0:1:
298,192,21044,128,0,21290:0:0:0:1:
213,192,21208,1,0,0:0:0:1:
128,192,21372,1,0,0:0:0:1:
298,192,21372,1,0,0:0:0:1:
469,192,21372,128,0,23257:0:0:0:1:
42,192,21372,128,0,23257:0:0:0:1:
213,192,21864,128,0,22520:0:0:0:1:
298,192,21946,128,0,22602:0:0:0:1:
384,192,22028,128,0,23257:0:0:0:1:
128,192,22520,128,0,23257:0:0:0:1:
213,192,22602,128,0,23257:0:0:0:1:
298,192,22684,128,0,23257:0:0:0:1:
128,192,23339,1,0,0:0:0:1:
213,192,23339,1,0,0:0:0:1:
298,192,23339,1,0,0:0:0:1:
384,192,23339,1,0,0:0:0:1:
469,192,23339,1,0,0:0:0:1:
42,192,23339,1,0,0:0:0:1:
128,192,23503,1,0,0:0:0:1:
213,192,23503,1,0,0:0:0:1:
298,192,23503,1,0,0:0:0:1:
384,192,23503,1,0,0:0:0:1:
469,192,23503,1,0,0:0:0:1:
42,192,23503,1,0,0:0:0:1:
213,192,23995,1,0,0:0:0:1:
298,192,23995,1,0,0:0:0:1:
469,192,23995,1,0,0:0:0:1:
42,192,23995,1,0,0:0:0:1:
42,192,25307,1,0,0:0:0:1:
128,192,25798,1,0,0:0:0:1:
213,192,26290,1,0,0:0:0:1:
128,192,26618,1,0,0:0:0:1:
298,192,26618,1,0,0:0:0:1:
469,192,26618,1,0,0:0:0:1:
384,192,27929,1,0,0:0:0:1:
298,192,28421,1,0,0:0:0:1:
213,192,28749,128,0,28831:0:0:0:1:
213,192,28913,128,0,28995:0:0:0:1:
213,192,29077,128,0,29159:0:0:0:1:
128,192,29241,1,0,0:0:0:1:
298,192,29241,1,0,0:0:0:1:
42,192,29241,128,0,30470:0:0:0:1:
213,192,29405,1,0,0:0:0:1:
298,192,29405,1,0,0:0:0:1:
128,192,29569,1,0,0:0:0:1:
384,192,29569,1,0,0:0:0:1:
469,192,29569,1,0,0:0:0:1:
213,192,29733,1,0,0:0:0:1:
298,192,29897,1,0,0:0:0:1:
469,192,29897,1,0,0:0:0:1:
213,192,30061,1,0,0:0:0:1:
469,192,30061,1,0,0:0:0:1:
128,192,30225,1,0,0:0:0:1:
298,192,30225,1,0,0:0:0:1:
384,192,30225,1,0,0:0:0:1:
213,192,30388,1,0,0:0:0:1:
384,192,30388,1,0,0:0:0:1:
469,192,30552,1,0,0:0:0:1:
42,192,30552,1,0,0:0:0:1:
298,192,30552,128,0,31782:0:0:0:1:
213,192,30716,1,0,0:0:0:1:
128,192,30880,1,0,0:0:0:1:
469,192,30880,1,0,0:0:0:1:
42,192,30880,1,0,0:0:0:1:
213,192,31044,1,0,0:0:0:1:
128,192,31208,1,0,0:0:0:1:
384,192,31208,1,0,0:0:0:1:
128,192,31372,1,0,0:0:0:1:
213,192,31536,1,0,0:0:0:1:
469,192,31536,1,0,0:0:0:1:
42,192,31536,1,0,0:0:0:1:
384,192,31700,1,0,0:0:0:1:
42,192,31700,1,0,0:0:0:1:
128,192,31864,1,0,0:0:0:1:
298,192,31864,1,0,0:0:0:1:
469,192,31864,128,0,32929:0:0:0:1:
213,192,32028,1,0,0:0:0:1:
128,192,32192,1,0,0:0:0:1:
384,192,32192,1,0,0:0:0:1:
42,192,32192,1,0,0:0:0:1:
213,192,32356,1,0,0:0:0:1:
128,192,32520,1,0,0:0:0:1:
384,192,32520,1,0,0:0:0:1:
128,192,32684,1,0,0:0:0:1:
298,192,32684,1,0,0:0:0:1:
213,192,32848,1,0,0:0:0:1:
384,192,32848,1,0,0:0:0:1:
42,192,32848,1,0,0:0:0:1:
298,192,33011,1,0,0:0:0:1:
469,192,33011,1,0,0:0:0:1:
42,192,33011,128,0,33913:0:0:0:1:
298,192,33339,1,0,0:0:0:1:
128,192,33503,1,0,0:0:0:1:
384,192,33503,1,0,0:0:0:1:
469,192,33503,1,0,0:0:0:1:
213,192,33667,1,0,0:0:0:1:
298,192,33667,1,0,0:0:0:1:
128,192,33831,1,0,0:0:0:1:
384,192,33831,1,0,0:0:0:1:
469,192,33831,1,0,0:0:0:1:
298,192,33995,1,0,0:0:0:1:
42,192,33995,1,0,0:0:0:0:
128,192,34077,1,0,0:0:0:0:
384,192,34159,1,0,0:0:0:0:
469,192,34159,1,0,0:0:0:0:
213,192,34159,1,0,0:0:0:0:
42,192,34241,1,0,0:0:0:0:
128,192,34241,1,0,0:0:0:0:
298,192,34323,1,0,0:0:0:1:
469,192,34323,1,0,0:0:0:0:
384,192,34323,1,0,0:0:0:0:
213,192,34405,1,0,0:0:0:1:
42,192,34405,1,0,0:0:0:0:
128,192,34405,1,0,0:0:0:0:
298,192,34487,1,0,0:0:0:1:
384,192,34487,1,0,0:0:0:1:
469,192,34487,1,0,0:0:0:1:
298,192,34815,1,0,0:0:0:1:
298,192,35143,1,0,0:0:0:1:
298,192,35470,1,0,0:0:0:1:
298,192,35798,1,0,0:0:0:1:
469,192,35798,1,0,0:0:0:1:
298,192,36126,1,0,0:0:0:1:
213,192,36290,1,0,0:0:0:1:
298,192,36454,1,0,0:0:0:1:
298,192,36782,1,0,0:0:0:1:
298,192,37110,1,0,0:0:0:1:
42,192,37110,1,0,0:0:0:0:
298,192,37438,1,0,0:0:0:1:
298,192,37766,1,0,0:0:0:1:
298,192,38093,1,0,0:0:0:1:
128,192,38421,1,0,0:0:0:1:
298,192,38421,1,0,0:0:0:1:
298,192,38749,1,0,0:0:0:1:
213,192,38913,1,0,0:0:0:1:
128,192,39077,1,0,0:0:0:1:
298,192,39077,1,0,0:0:0:1:
384,192,39077,1,0,0:0:0:1:
469,192,39077,1,0,0:0:0:1:
42,192,39077,1,0,0:0:0:1:
213,192,39241,1,0,0:0:0:1:
298,192,39405,1,0,0:0:0:1:
384,192,39405,1,0,0:0:0:1:
469,192,39405,1,0,0:0:0:1:
128,192,39405,128,0,39651:0:0:0:1:
42,192,39405,128,0,39651:0:0:0:1:
128,192,39733,1,0,0:0:0:1:
298,192,39733,1,0,0:0:0:1:
42,192,39733,128,0,40962:0:0:0:1:
213,192,39897,1,0,0:0:0:1:
298,192,39897,1,0,0:0:0:1:
128,192,40061,1,0,0:0:0:1:
384,192,40061,1,0,0:0:0:1:
469,192,40061,1,0,0:0:0:1:
213,192,40225,1,0,0:0:0:1:
298,192,40388,1,0,0:0:0:1:
469,192,40388,1,0,0:0:0:1:
213,192,40552,1,0,0:0:0:1:
469,192,40552,1,0,0:0:0:1:
128,192,40716,1,0,0:0:0:1:
298,192,40716,1,0,0:0:0:1:
384,192,40716,1,0,0:0:0:1:
213,192,40880,1,0,0:0:0:1:
384,192,40880,1,0,0:0:0:1:
469,192,41044,1,0,0:0:0:1:
42,192,41044,1,0,0:0:0:1:
298,192,41044,128,0,42274:0:0:0:1:
213,192,41208,1,0,0:0:0:1:
128,192,41372,1,0,0:0:0:1:
469,192,41372,1,0,0:0:0:1:
42,192,41372,1,0,0:0:0:1:
213,192,41536,1,0,0:0:0:1:
128,192,41700,1,0,0:0:0:1:
384,192,41700,1,0,0:0:0:1:
128,192,41864,1,0,0:0:0:1:
213,192,42028,1,0,0:0:0:1:
469,192,42028,1,0,0:0:0:1:
42,192,42028,1,0,0:0:0:1:
384,192,42192,1,0,0:0:0:1:
42,192,42192,1,0,0:0:0:1:
128,192,42356,1,0,0:0:0:1:
298,192,42356,1,0,0:0:0:1:
469,192,42356,128,0,43421:0:0:0:1:
213,192,42520,1,0,0:0:0:1:
128,192,42684,1,0,0:0:0:1:
384,192,42684,1,0,0:0:0:1:
42,192,42684,1,0,0:0:0:1:
213,192,42848,1,0,0:0:0:1:
128,192,43011,1,0,0:0:0:1:
384,192,43011,1,0,0:0:0:1:
128,192,43175,1,0,0:0:0:1:
298,192,43175,1,0,0:0:0:1:
213,192,43339,1,0,0:0:0:1:
384,192,43339,1,0,0:0:0:1:
42,192,43339,1,0,0:0:0:1:
213,192,43503,1,0,0:0:0:1:
42,192,43503,1,0,0:0:0:1:
384,192,43503,128,0,44651:0:0:0:1:
213,192,43831,1,0,0:0:0:1:
128,192,43995,1,0,0:0:0:1:
298,192,43995,1,0,0:0:0:1:
469,192,43995,1,0,0:0:0:1:
42,192,43995,1,0,0:0:0:1:
298,192,44323,1,0,0:0:0:1:
42,192,44323,1,0,0:0:0:1:
128,192,44487,1,0,0:0:0:1:
213,192,44569,1,0,0:0:0:1:
298,192,44651,1,0,0:0:0:1:
42,192,44651,1,0,0:0:0:1:
128,192,44733,1,0,0:0:0:1:
384,192,44733,1,0,0:0:0:1:
469,192,44733,1,0,0:0:0:1:
213,192,44815,1,0,0:0:0:1:
298,192,44815,1,0,0:0:0:1:
128,192,44897,1,0,0:0:0:1:
42,192,44897,1,0,0:0:0:1:
384,192,44979,1,0,0:0:0:1:
469,192,44979,1,0,0:0:0:0:
213,192,44979,1,0,0:0:0:0:
128,192,45143,1,0,0:0:0:1:
298,192,45143,128,0,45225:0:0:0:1:
298,192,45307,1,0,0:0:0:1:
469,192,45307,128,0,45388:0:0:0:1:
42,192,45307,1,0,0:0:0:0:
128,192,45470,1,0,0:0:0:1:
213,192,45470,128,0,45552:0:0:0:1:
384,192,45634,1,0,0:0:0:1:
469,192,45634,128,0,45716:0:0:0:1:
42,192,45634,1,0,0:0:0:0:
469,192,45798,1,0,0:0:0:1:
128,192,45798,1,0,0:0:0:0:
42,192,45962,1,0,0:0:0:1:
384,192,45962,128,0,46044:0:0:0:1:
213,192,45962,1,0,0:0:0:0:
213,192,46126,1,0,0:0:0:1:
298,192,46126,128,0,46372:0:0:0:1:
42,192,46290,128,0,46536:0:0:0:1:
469,192,46290,1,0,0:0:0:0:
128,192,46290,1,0,0:0:0:0:
213,192,46454,128,0,46536:0:0:0:1:
384,192,46454,128,0,46700:0:0:0:1:
213,192,46618,128,0,46864:0:0:0:1:
42,192,46618,128,0,46700:0:0:0:1:
298,192,46618,1,0,0:0:0:0:
384,192,46782,128,0,47110:0:0:0:1:
469,192,46782,128,0,46864:0:0:0:1:
128,192,46946,128,0,47110:0:0:0:1:
213,192,46946,128,0,47110:0:0:0:1:
298,192,46946,128,0,47110:0:0:0:1:
42,192,46946,128,0,47110:0:0:0:1:
128,192,47274,128,0,47438:0:0:0:1:
213,192,47274,128,0,47438:0:0:0:1:
298,192,47274,128,0,47438:0:0:0:1:
384,192,47274,128,0,47438:0:0:0:1:
469,192,47274,128,0,47438:0:0:0:1:
128,192,47602,1,0,0:0:0:1:
298,192,47602,1,0,0:0:0:0:
42,192,47602,1,0,0:0:0:0:
384,192,47766,1,0,0:0:0:1:
213,192,47766,128,0,47848:0:0:0:1:
213,192,47929,1,0,0:0:0:1:
42,192,47929,128,0,48011:0:0:0:1:
469,192,47929,1,0,0:0:0:0:
384,192,48093,1,0,0:0:0:1:
298,192,48093,128,0,48175:0:0:0:1:
128,192,48257,1,0,0:0:0:1:
42,192,48257,128,0,48339:0:0:0:1:
469,192,48257,1,0,0:0:0:0:
42,192,48421,1,0,0:0:0:1:
384,192,48421,1,0,0:0:0:0:
469,192,48585,1,0,0:0:0:1:
128,192,48585,128,0,48667:0:0:0:1:
298,192,48585,1,0,0:0:0:0:
298,192,48749,1,0,0:0:0:1:
213,192,48749,128,0,48995:0:0:0:1:
469,192,48913,128,0,49159:0:0:0:1:
384,192,48913,1,0,0:0:0:0:
42,192,48913,1,0,0:0:0:0:
128,192,49077,128,0,49323:0:0:0:1:
298,192,49077,128,0,49159:0:0:0:1:
213,192,49241,128,0,49323:0:0:0:1:
298,192,49241,128,0,49487:0:0:0:1:
469,192,49241,1,0,0:0:0:0:
128,192,49405,128,0,49733:0:0:0:1:
42,192,49405,128,0,49487:0:0:0:1:
213,192,49569,128,0,49733:0:0:0:1:
298,192,49569,128,0,49733:0:0:0:1:
384,192,49569,128,0,49733:0:0:0:1:
469,192,49569,128,0,49733:0:0:0:1:
42,192,49733,1,0,0:0:0:1:
213,192,49815,1,0,0:0:0:1:
128,192,49897,128,0,50061:0:0:0:1:
298,192,49897,128,0,50061:0:0:0:1:
42,192,49897,128,0,50061:0:0:0:1:
469,192,49979,1,0,0:0:0:1:
384,192,50061,1,0,0:0:0:1:
298,192,50143,1,0,0:0:0:1:
128,192,50225,1,0,0:0:0:1:
384,192,50225,1,0,0:0:0:1:
469,192,50225,1,0,0:0:0:0:
213,192,50225,1,0,0:0:0:0:
42,192,50225,1,0,0:0:0:0:
213,192,50388,1,0,0:0:0:1:
298,192,50388,128,0,50470:0:0:0:1:
128,192,50552,1,0,0:0:0:1:
469,192,50552,128,0,50634:0:0:0:1:
384,192,50552,1,0,0:0:0:0:
42,192,50552,1,0,0:0:0:0:
42,192,50716,1,0,0:0:0:1:
298,192,50716,128,0,50798:0:0:0:1:
469,192,50880,1,0,0:0:0:1:
128,192,50880,128,0,50962:0:0:0:1:
384,192,50880,1,0,0:0:0:0:
213,192,50880,1,0,0:0:0:0:
384,192,51044,1,0,0:0:0:1:
42,192,51044,1,0,0:0:0:0:
213,192,51208,1,0,0:0:0:1:
469,192,51208,1,0,0:0:0:0:
128,192,51208,1,0,0:0:0:0:
298,192,51208,128,0,51290:0:0:0:0:
128,192,51372,1,0,0:0:0:1:
384,192,51372,128,0,51454:0:0:0:1:
213,192,51536,1,0,0:0:0:1:
298,192,51536,1,0,0:0:0:0:
469,192,51536,1,0,0:0:0:0:
42,192,51536,1,0,0:0:0:0:
128,192,51700,1,0,0:0:0:0:
298,192,51700,128,0,51782:0:0:0:0:
469,192,51864,1,0,0:0:0:1:
384,192,51864,128,0,51946:0:0:0:1:
213,192,51864,1,0,0:0:0:0:
42,192,51864,1,0,0:0:0:0:
42,192,52028,1,0,0:0:0:1:
298,192,52028,128,0,52110:0:0:0:1:
384,192,52192,1,0,0:0:0:1:
128,192,52192,128,0,52274:0:0:0:1:
213,192,52192,1,0,0:0:0:0:
469,192,52192,1,0,0:0:0:0:
213,192,52356,1,0,0:0:0:1:
298,192,52356,128,0,52438:0:0:0:1:
384,192,52520,1,0,0:0:0:1:
42,192,52520,128,0,52602:0:0:0:1:
469,192,52520,1,0,0:0:0:0:
128,192,52520,1,0,0:0:0:0:
469,192,52684,1,0,0:0:0:1:
213,192,52684,128,0,52766:0:0:0:1:
128,192,52848,128,0,53503:0:0:0:1:
298,192,52848,128,0,53585:0:0:0:1:
384,192,52848,128,0,53667:0:0:0:1:
42,192,52848,128,0,53421:0:0:0:1:
42,192,53503,128,0,53749:0:0:0:1:
128,192,53585,128,0,53831:0:0:0:1:
298,192,53667,128,0,53913:0:0:0:1:
384,192,53749,128,0,53995:0:0:0:1:
42,192,53831,128,0,54077:0:0:0:1:
128,192,53913,128,0,54077:0:0:0:1:
298,192,53995,128,0,54077:0:0:0:1:
384,192,54077,128,0,54159:0:0:0:1:
128,192,54159,1,0,0:0:0:1:
298,192,54159,1,0,0:0:0:1:
42,192,54159,1,0,0:0:0:1:
128,192,54323,1,0,0:0:0:1:
298,192,54323,1,0,0:0:0:1:
42,192,54323,1,0,0:0:0:1:
213,192,54815,1,0,0:0:0:1:
384,192,54815,1,0,0:0:0:1:
469,192,54815,1,0,0:0:0:1:
213,192,54979,1,0,0:0:0:1:
384,192,54979,1,0,0:0:0:1:
469,192,54979,1,0,0:0:0:1:
128,192,55470,1,0,0:0:0:1:
298,192,55470,1,0,0:0:0:1:
469,192,55470,128,0,55716:0:0:0:1:
42,192,55470,128,0,56044:0:0:0:1:
298,192,55634,1,0,0:0:0:1:
128,192,55798,1,0,0:0:0:1:
213,192,55798,1,0,0:0:0:1:
469,192,55798,128,0,55880:0:0:0:1:
384,192,55962,1,0,0:0:0:1:
298,192,55962,128,0,56044:0:0:0:1:
213,192,56126,1,0,0:0:0:1:
42,192,56126,1,0,0:0:0:1:
469,192,56126,128,0,56700:0:0:0:1:
213,192,56290,1,0,0:0:0:1:
384,192,56290,128,0,56536:0:0:0:1:
298,192,56454,1,0,0:0:0:1:
42,192,56454,1,0,0:0:0:1:
128,192,56618,1,0,0:0:0:1:
213,192,56618,128,0,56864:0:0:0:1:
298,192,56782,1,0,0:0:0:1:
469,192,56782,1,0,0:0:0:1:
42,192,56782,128,0,57192:0:0:0:1:
213,192,56946,1,0,0:0:0:1:
298,192,56946,128,0,57192:0:0:0:1:
128,192,57110,1,0,0:0:0:1:
469,192,57110,1,0,0:0:0:1:
42,192,57274,1,0,0:0:0:1:
213,192,57274,128,0,57684:0:0:0:1:
384,192,57274,128,0,57520:0:0:0:1:
128,192,57438,1,0,0:0:0:1:
469,192,57438,1,0,0:0:0:1:
384,192,57602,1,0,0:0:0:1:
42,192,57602,128,0,57848:0:0:0:1:
213,192,57766,1,0,0:0:0:1:
469,192,57766,1,0,0:0:0:1:
298,192,57766,128,0,58011:0:0:0:1:
42,192,57929,1,0,0:0:0:1:
298,192,58093,1,0,0:0:0:1:
469,192,58093,1,0,0:0:0:1:
128,192,58093,128,0,58667:0:0:0:1:
213,192,58257,1,0,0:0:0:1:
298,192,58257,1,0,0:0:0:1:
384,192,58421,1,0,0:0:0:1:
469,192,58421,1,0,0:0:0:1:
42,192,58421,1,0,0:0:0:1:
213,192,58585,1,0,0:0:0:1:
469,192,58585,128,0,58831:0:0:0:1:
42,192,58749,1,0,0:0:0:1:
298,192,58749,128,0,59323:0:0:0:1:
469,192,58913,1,0,0:0:0:1:
42,192,58913,128,0,59323:0:0:0:1:
128,192,59077,1,0,0:0:0:1:
213,192,59077,1,0,0:0:0:1:
384,192,59077,1,0,0:0:0:1:
469,192,59241,1,0,0:0:0:1:
128,192,59405,1,0,0:0:0:1:
298,192,59405,1,0,0:0:0:1:
469,192,59405,128,0,60388:0:0:0:1:
42,192,59405,128,0,59569:0:0:0:1:
298,192,59569,1,0,0:0:0:1:
213,192,59569,128,0,59897:0:0:0:1:
384,192,59733,1,0,0:0:0:1:
42,192,59733,1,0,0:0:0:1:
128,192,59733,128,0,59897:0:0:0:1:
298,192,59897,128,0,60225:0:0:0:1:
128,192,60061,1,0,0:0:0:1:
213,192,60061,128,0,60225:0:0:0:1:
384,192,60225,128,0,60552:0:0:0:1:
213,192,60388,1,0,0:0:0:1:
298,192,60388,128,0,60552:0:0:0:1:
469,192,60552,128,0,60716:0:0:0:1:
213,192,60716,1,0,0:0:0:1:
42,192,60716,128,0,61618:0:0:0:1:
298,192,60880,1,0,0:0:0:1:
128,192,61044,1,0,0:0:0:1:
384,192,61044,1,0,0:0:0:1:
469,192,61044,1,0,0:0:0:1:
213,192,61208,1,0,0:0:0:1:
469,192,61208,128,0,61946:0:0:0:1:
128,192,61372,1,0,0:0:0:1:
298,192,61372,1,0,0:0:0:1:
298,192,61536,1,0,0:0:0:1:
128,192,61700,1,0,0:0:0:1:
213,192,61700,1,0,0:0:0:1:
384,192,61700,1,0,0:0:0:1:
42,192,61700,128,0,61946:0:0:0:1:
298,192,61864,1,0,0:0:0:1:
213,192,62028,1,0,0:0:0:1:
469,192,62028,1,0,0:0:0:1:
128,192,62028,128,0,62929:0:0:0:1:
213,192,62192,1,0,0:0:0:1:
298,192,62356,1,0,0:0:0:1:
469,192,62356,1,0,0:0:0:1:
42,192,62356,1,0,0:0:0:1:
213,192,62520,1,0,0:0:0:1:
384,192,62520,128,0,63011:0:0:0:1:
298,192,62684,1,0,0:0:0:1:
213,192,62848,1,0,0:0:0:1:
298,192,63011,1,0,0:0:0:1:
469,192,63011,1,0,0:0:0:1:
42,192,63011,1,0,0:0:0:1:
128,192,63011,128,0,63257:0:0:0:1:
384,192,63175,1,0,0:0:0:1:
213,192,63339,1,0,0:0:0:1:
42,192,63339,1,0,0:0:0:1:
298,192,63339,128,0,64323:0:0:0:1:
384,192,63503,1,0,0:0:0:1:
128,192,63667,1,0,0:0:0:1:
213,192,63667,1,0,0:0:0:1:
42,192,63667,1,0,0:0:0:1:
469,192,63831,1,0,0:0:0:1:
128,192,63995,1,0,0:0:0:1:
213,192,63995,1,0,0:0:0:1:
42,192,63995,1,0,0:0:0:1:
469,192,64159,128,0,64323:0:0:0:1:
128,192,64323,1,0,0:0:0:1:
42,192,64323,1,0,0:0:0:1:
213,192,64323,128,0,64487:0:0:0:1:
384,192,64487,1,0,0:0:0:1:
42,192,64487,128,0,65225:0:0:0:1:
213,192,64651,128,0,64733:0:0:0:1:
469,192,64651,128,0,64733:0:0:0:1:
213,192,64815,1,0,0:0:0:1:
384,192,64815,128,0,64897:0:0:0:1:
128,192,64979,128,0,65061:0:0:0:1:
298,192,64979,128,0,65061:0:0:0:1:
298,192,65143,1,0,0:0:0:1:
469,192,65143,128,0,65225:0:0:0:1:
213,192,65307,1,0,0:0:0:1:
42,192,65307,1,0,0:0:0:1:
469,192,65307,128,0,65880:0:0:0:1:
298,192,65388,1,0,0:0:0:1:
128,192,65470,1,0,0:0:0:1:
384,192,65470,128,0,65880:0:0:0:1:
213,192,65552,1,0,0:0:0:1:
42,192,65634,1,0,0:0:0:1:
298,192,65634,128,0,65880:0:0:0:1:
128,192,65716,1,0,0:0:0:1:
213,192,65798,128,0,65880:0:0:0:1:
128,192,65880,1,0,0:0:0:1:
298,192,65962,1,0,0:0:0:1:
384,192,65962,1,0,0:0:0:1:
469,192,65962,1,0,0:0:0:1:
42,192,65962,128,0,67192:0:0:0:1:
213,192,66126,1,0,0:0:0:1:
298,192,66126,1,0,0:0:0:1:
128,192,66290,1,0,0:0:0:1:
384,192,66290,1,0,0:0:0:1:
469,192,66290,128,0,66700:0:0:0:1:
213,192,66454,1,0,0:0:0:1:
384,192,66454,128,0,66700:0:0:0:1:
128,192,66618,1,0,0:0:0:1:
298,192,66618,1,0,0:0:0:1:
384,192,66782,1,0,0:0:0:1:
469,192,66782,128,0,66864:0:0:0:1:
128,192,66946,1,0,0:0:0:1:
298,192,66946,1,0,0:0:0:1:
213,192,66946,128,0,67192:0:0:0:1:
469,192,67110,1,0,0:0:0:1:
384,192,67110,128,0,67356:0:0:0:1:
213,192,67274,1,0,0:0:0:1:
42,192,67274,1,0,0:0:0:1:
469,192,67274,128,0,67684:0:0:0:1:
213,192,67438,1,0,0:0:0:1:
298,192,67438,128,0,67684:0:0:0:1:
128,192,67602,1,0,0:0:0:1:
42,192,67602,1,0,0:0:0:1:
469,192,67766,1,0,0:0:0:1:
213,192,67766,128,0,68011:0:0:0:1:
384,192,67766,128,0,68175:0:0:0:1:
128,192,67929,1,0,0:0:0:1:
298,192,67929,1,0,0:0:0:1:
42,192,67929,1,0,0:0:0:1:
213,192,68093,1,0,0:0:0:1:
42,192,68093,128,0,68339:0:0:0:1:
469,192,68257,1,0,0:0:0:1:
128,192,68257,128,0,68339:0:0:0:1:
298,192,68257,128,0,68503:0:0:0:1:
213,192,68421,1,0,0:0:0:1:
128,192,68585,1,0,0:0:0:1:
298,192,68585,1,0,0:0:0:1:
469,192,68585,128,0,69159:0:0:0:1:
42,192,68585,128,0,68831:0:0:0:1:
298,192,68749,1,0,0:0:0:1:
384,192,68913,1,0,0:0:0:1:
42,192,68913,1,0,0:0:0:1:
213,192,68913,128,0,68995:0:0:0:1:
213,192,69077,1,0,0:0:0:1:
128,192,69077,128,0,69323:0:0:0:1:
384,192,69241,1,0,0:0:0:1:
42,192,69241,1,0,0:0:0:1:
298,192,69241,128,0,69897:0:0:0:1:
128,192,69405,1,0,0:0:0:1:
213,192,69405,128,0,69651:0:0:0:1:
384,192,69569,1,0,0:0:0:1:
469,192,69569,1,0,0:0:0:1:
213,192,69733,1,0,0:0:0:1:
42,192,69733,128,0,70552:0:0:0:1:
128,192,69897,1,0,0:0:0:1:
384,192,69897,1,0,0:0:0:1:
469,192,69897,1,0,0:0:0:1:
298,192,70061,1,0,0:0:0:1:
469,192,70061,128,0,70552:0:0:0:1:
128,192,70225,1,0,0:0:0:1:
213,192,70225,1,0,0:0:0:1:
384,192,70225,128,0,70552:0:0:0:1:
298,192,70388,128,0,70798:0:0:0:1:
128,192,70552,1,0,0:0:0:1:
213,192,70552,128,0,70716:0:0:0:1:
384,192,70716,1,0,0:0:0:1:
42,192,70716,128,0,70880:0:0:0:1:
213,192,70880,1,0,0:0:0:1:
469,192,70880,1,0,0:0:0:1:
298,192,70880,128,0,71044:0:0:0:1:
384,192,71044,1,0,0:0:0:1:
128,192,71044,128,0,71208:0:0:0:1:
298,192,71208,1,0,0:0:0:1:
42,192,71208,1,0,0:0:0:1:
469,192,71208,128,0,72438:0:0:0:1:
128,192,71372,1,0,0:0:0:1:
213,192,71372,1,0,0:0:0:1:
128,192,71536,1,0,0:0:0:1:
298,192,71536,1,0,0:0:0:1:
384,192,71536,1,0,0:0:0:1:
298,192,71700,1,0,0:0:0:1:
42,192,71700,1,0,0:0:0:1:
128,192,71864,1,0,0:0:0:1:
213,192,71864,128,0,72110:0:0:0:1:
384,192,71864,128,0,72438:0:0:0:1:
128,192,72028,1,0,0:0:0:1:
213,192,72192,1,0,0:0:0:1:
298,192,72192,1,0,0:0:0:1:
128,192,72356,1,0,0:0:0:1:
42,192,72356,128,0,72602:0:0:0:1:
298,192,72520,1,0,0:0:0:1:
469,192,72520,1,0,0:0:0:1:
298,192,72684,1,0,0:0:0:1:
213,192,72684,128,0,72929:0:0:0:1:
384,192,72848,1,0,0:0:0:1:
42,192,72848,1,0,0:0:0:1:
469,192,72848,128,0,73011:0:0:0:1:
128,192,73011,128,0,73257:0:0:0:1:
298,192,73011,128,0,73175:0:0:0:1:
384,192,73175,1,0,0:0:0:1:
469,192,73175,128,0,73421:0:0:0:1:
213,192,73339,1,0,0:0:0:1:
42,192,73339,1,0,0:0:0:1:
213,192,73503,1,0,0:0:0:1:
469,192,73503,1,0,0:0:0:1:
384,192,73503,128,0,73749:0:0:0:1:
298,192,73667,1,0,0:0:0:1:
42,192,73667,128,0,74651:0:0:0:1:
128,192,73831,1,0,0:0:0:1:
384,192,73831,1,0,0:0:0:1:
213,192,73831,128,0,74733:0:0:0:1:
384,192,73995,1,0,0:0:0:1:
128,192,74159,1,0,0:0:0:1:
298,192,74159,1,0,0:0:0:1:
469,192,74159,1,0,0:0:0:1:
384,192,74323,1,0,0:0:0:1:
298,192,74487,1,0,0:0:0:1:
298,192,74651,1,0,0:0:0:1:
213,192,74815,1,0,0:0:0:1:
384,192,74815,1,0,0:0:0:1:
42,192,74815,128,0,74979:0:0:0:1:
298,192,74979,1,0,0:0:0:1:
469,192,74979,1,0,0:0:0:1:
128,192,74979,128,0,75143:0:0:0:1:
384,192,75143,1,0,0:0:0:1:
213,192,75143,128,0,75552:0:0:0:1:
469,192,75143,128,0,75388:0:0:0:1:
384,192,75307,1,0,0:0:0:1:
128,192,75470,1,0,0:0:0:1:
298,192,75470,1,0,0:0:0:1:
42,192,75470,128,0,75634:0:0:0:1:
469,192,75634,1,0,0:0:0:1:
213,192,75634,128,0,75798:0:0:0:1:
384,192,75634,128,0,76044:0:0:0:1:
128,192,75798,1,0,0:0:0:1:
42,192,75798,128,0,75880:0:0:0:1:
298,192,75880,1,0,0:0:0:1:
213,192,75880,128,0,75962:0:0:0:1:
42,192,75962,1,0,0:0:0:1:
128,192,75962,128,0,76126:0:0:0:1:
213,192,76044,1,0,0:0:0:1:
298,192,76044,128,0,76208:0:0:0:1:
469,192,76126,1,0,0:0:0:1:
384,192,76126,128,0,76208:0:0:0:1:
42,192,76126,128,0,76290:0:0:0:1:
128,192,76208,1,0,0:0:0:1:
213,192,76208,128,0,76372:0:0:0:1:
384,192,76290,1,0,0:0:0:1:
298,192,76290,128,0,76454:0:0:0:1:
469,192,76290,128,0,76372:0:0:0:1:
42,192,76372,1,0,0:0:0:1:
128,192,76372,128,0,76454:0:0:0:1:
213,192,76454,1,0,0:0:0:1:
384,192,76454,128,0,76700:0:0:0:1:
469,192,76454,128,0,77028:0:0:0:1:
42,192,76618,1,0,0:0:0:1:
128,192,76618,128,0,76864:0:0:0:1:
213,192,76782,1,0,0:0:0:1:
298,192,76782,128,0,77028:0:0:0:1:
128,192,76946,1,0,0:0:0:1:
42,192,76946,128,0,77192:0:0:0:1:
298,192,77110,128,0,77684:0:0:0:1:
469,192,77110,128,0,77356:0:0:0:1:
42,192,77274,1,0,0:0:0:1:
213,192,77274,128,0,77520:0:0:0:1:
469,192,77438,1,0,0:0:0:1:
384,192,77438,128,0,77684:0:0:0:1:
213,192,77602,1,0,0:0:0:1:
128,192,77602,128,0,77848:0:0:0:1:
384,192,77766,1,0,0:0:0:1:
298,192,77766,128,0,78011:0:0:0:1:
42,192,77766,128,0,78339:0:0:0:1:
128,192,77929,1,0,0:0:0:1:
469,192,77929,128,0,78175:0:0:0:1:
298,192,78093,1,0,0:0:0:1:
213,192,78093,128,0,78339:0:0:0:1:
469,192,78257,1,0,0:0:0:1:
384,192,78257,128,0,78421:0:0:0:1:
213,192,78421,1,0,0:0:0:1:
298,192,78421,128,0,78995:0:0:0:1:
213,192,78585,1,0,0:0:0:1:
128,192,78749,1,0,0:0:0:1:
384,192,78749,1,0,0:0:0:1:
42,192,78749,1,0,0:0:0:1:
469,192,78749,128,0,78995:0:0:0:1:
213,192,79077,1,0,0:0:0:1:
469,192,79077,1,0,0:0:0:1:
42,192,79077,1,0,0:0:0:1:
384,192,79077,128,0,80307:0:0:0:1:
298,192,79241,1,0,0:0:0:1:
213,192,79405,1,0,0:0:0:1:
469,192,79405,1,0,0:0:0:1:
128,192,79405,128,0,79651:0:0:0:1:
42,192,79405,128,0,79651:0:0:0:1:
298,192,79569,1,0,0:0:0:1:
213,192,79733,1,0,0:0:0:1:
469,192,79733,1,0,0:0:0:1:
128,192,79733,128,0,79979:0:0:0:1:
42,192,79733,128,0,79979:0:0:0:1:
298,192,79897,1,0,0:0:0:1:
213,192,80061,1,0,0:0:0:1:
469,192,80061,1,0,0:0:0:1:
128,192,80061,128,0,80307:0:0:0:1:
42,192,80061,128,0,80307:0:0:0:1:
298,192,80225,1,0,0:0:0:1:
213,192,80388,1,0,0:0:0:1:
42,192,80388,1,0,0:0:0:1:
298,192,80388,128,0,80552:0:0:0:1:
384,192,80388,128,0,80634:0:0:0:1:
469,192,80388,128,0,80634:0:0:0:1:
128,192,80552,1,0,0:0:0:1:
298,192,80634,1,0,0:0:0:1:
42,192,80716,1,0,0:0:0:1:
213,192,80716,128,0,80880:0:0:0:1:
384,192,80716,128,0,80962:0:0:0:1:
469,192,80716,128,0,80962:0:0:0:1:
128,192,80880,1,0,0:0:0:1:
213,192,80962,1,0,0:0:0:1:
42,192,81044,1,0,0:0:0:1:
298,192,81044,128,0,81208:0:0:0:1:
384,192,81044,128,0,81290:0:0:0:1:
469,192,81044,128,0,81290:0:0:0:1:
128,192,81208,1,0,0:0:0:1:
298,192,81290,1,0,0:0:0:1:
42,192,81372,1,0,0:0:0:1:
213,192,81372,128,0,81536:0:0:0:1:
384,192,81372,128,0,81618:0:0:0:1:
469,192,81372,128,0,81618:0:0:0:1:
128,192,81536,1,0,0:0:0:1:
213,192,81618,1,0,0:0:0:1:
384,192,81700,1,0,0:0:0:1:
298,192,81700,128,0,81946:0:0:0:1:
469,192,81700,128,0,81946:0:0:0:1:
42,192,81700,128,0,81946:0:0:0:1:
469,192,82028,1,0,0:0:0:0:
384,192,82028,1,0,0:0:0:0:
298,192,82028,1,0,0:0:0:0:
213,192,82192,1,0,0:0:0:0:
128,192,82192,1,0,0:0:0:0:
42,192,82192,1,0,0:0:0:0:
469,192,82356,1,0,0:0:0:0:
384,192,82356,1,0,0:0:0:0:
298,192,82356,1,0,0:0:0:0:
213,192,82520,1,0,0:0:0:0:
128,192,82520,1,0,0:0:0:0:
42,192,82520,1,0,0:0:0:0:
384,192,82684,1,0,0:0:0:0:
469,192,82684,1,0,0:0:0:0:
298,192,82684,1,0,0:0:0:0:
213,192,82848,1,0,0:0:0:0:
128,192,82848,1,0,0:0:0:0:
42,192,82848,1,0,0:0:0:0:
128,192,83011,1,0,0:0:0:1:
469,192,83011,1,0,0:0:0:1:
42,192,83011,1,0,0:0:0:1:
384,192,83011,1,0,0:0:0:0:
298,192,83257,1,0,0:0:0:1:
384,192,83257,1,0,0:0:0:1:
128,192,83339,1,0,0:0:0:1:
213,192,83339,1,0,0:0:0:1:
298,192,83503,1,0,0:0:0:1:
384,192,83503,1,0,0:0:0:1:
469,192,83503,1,0,0:0:0:1:
42,192,83503,1,0,0:0:0:1:
213,192,83667,1,0,0:0:0:1:
298,192,83667,1,0,0:0:0:1:
128,192,83749,1,0,0:0:0:1:
42,192,83749,1,0,0:0:0:1:
298,192,83831,1,0,0:0:0:1:
384,192,83831,1,0,0:0:0:1:
128,192,83913,1,0,0:0:0:1:
213,192,83913,1,0,0:0:0:1:
384,192,83995,1,0,0:0:0:1:
469,192,83995,1,0,0:0:0:1:
213,192,84077,1,0,0:0:0:1:
298,192,84077,1,0,0:0:0:1:
128,192,84159,1,0,0:0:0:1:
42,192,84159,1,0,0:0:0:1:
298,192,84241,1,0,0:0:0:1:
384,192,84241,1,0,0:0:0:1:
128,192,84323,1,0,0:0:0:1:
213,192,84323,1,0,0:0:0:1:
42,192,84323,128,0,84897:0:0:0:1:
469,192,84323,1,0,0:0:0:0:
298,192,84487,1,0,0:0:0:0:
469,192,84487,1,0,0:0:0:0:
384,192,84651,1,0,0:0:0:0:
128,192,84651,1,0,0:0:0:0:
213,192,84651,1,0,0:0:0:0:
298,192,84815,1,0,0:0:0:0:
128,192,84979,128,0,85552:0:0:0:1:
384,192,84979,1,0,0:0:0:0:
469,192,84979,1,0,0:0:0:0:
213,192,84979,1,0,0:0:0:0:
298,192,85143,1,0,0:0:0:0:
42,192,85143,1,0,0:0:0:0:
469,192,85307,1,0,0:0:0:0:
384,192,85307,1,0,0:0:0:0:
213,192,85307,128,0,85470:0:0:0:0:
298,192,85470,128,0,85634:0:0:0:1:
469,192,85634,128,0,86044:0:0:0:1:
42,192,85634,1,0,0:0:0:0:
128,192,85634,1,0,0:0:0:0:
384,192,85634,1,0,0:0:0:0:
128,192,85798,1,0,0:0:0:0:
298,192,85798,1,0,0:0:0:0:
213,192,85962,1,0,0:0:0:0:
298,192,85962,1,0,0:0:0:0:
42,192,85962,1,0,0:0:0:0:
384,192,86126,128,0,86536:0:0:0:1:
128,192,86126,1,0,0:0:0:0:
469,192,86290,1,0,0:0:0:0:
298,192,86290,1,0,0:0:0:0:
42,192,86290,1,0,0:0:0:0:
213,192,86454,1,0,0:0:0:0:
42,192,86454,1,0,0:0:0:0:
298,192,86618,128,0,86864:0:0:0:1:
128,192,86618,1,0,0:0:0:0:
213,192,86618,1,0,0:0:0:0:
469,192,86618,1,0,0:0:0:0:
384,192,86782,1,0,0:0:0:0:
213,192,86946,128,0,87520:0:0:0:1:
298,192,86946,1,0,0:0:0:0:
469,192,86946,1,0,0:0:0:0:
42,192,86946,1,0,0:0:0:0:
128,192,87110,1,0,0:0:0:0:
298,192,87110,1,0,0:0:0:0:
469,192,87274,1,0,0:0:0:0:
384,192,87274,1,0,0:0:0:0:
42,192,87274,1,0,0:0:0:0:
298,192,87438,1,0,0:0:0:0:
213,192,87602,128,0,87766:0:0:0:1:
469,192,87602,1,0,0:0:0:0:
128,192,87602,1,0,0:0:0:0:
42,192,87766,128,0,87929:0:0:0:1:
298,192,87766,1,0,0:0:0:0:
469,192,87766,1,0,0:0:0:0:
298,192,87929,128,0,88093:0:0:0:1:
469,192,87929,1,0,0:0:0:0:
384,192,87929,1,0,0:0:0:0:
128,192,88093,128,0,88257:0:0:0:1:
213,192,88093,1,0,0:0:0:0:
298,192,88257,1,0,0:0:0:1:
469,192,88257,128,0,88339:0:0:0:1:
42,192,88257,1,0,0:0:0:0:
213,192,88421,1,0,0:0:0:1:
384,192,88421,128,0,88503:0:0:0:1:
42,192,88421,1,0,0:0:0:0:
128,192,88585,1,0,0:0:0:1:
298,192,88585,128,0,88667:0:0:0:1:
42,192,88585,1,0,0:0:0:0:
42,192,88749,1,0,0:0:0:1:
213,192,88749,128,0,89241:0:0:0:1:
469,192,88749,1,0,0:0:0:0:
384,192,88913,1,0,0:0:0:0:
298,192,88913,1,0,0:0:0:0:
128,192,88913,1,0,0:0:0:0:
128,192,89077,1,0,0:0:0:0:
298,192,89077,1,0,0:0:0:0:
469,192,89241,128,0,89405:0:0:0:1:
384,192,89241,1,0,0:0:0:0:
42,192,89241,1,0,0:0:0:0:
298,192,89405,128,0,89569:0:0:0:1:
128,192,89405,1,0,0:0:0:0:
469,192,89569,128,0,89815:0:0:0:1:
384,192,89569,1,0,0:0:0:0:
213,192,89569,1,0,0:0:0:0:
42,192,89569,1,0,0:0:0:0:
213,192,89733,1,0,0:0:0:0:
298,192,89897,1,0,0:0:0:1:
128,192,89897,128,0,90143:0:0:0:1:
42,192,89897,128,0,90143:0:0:0:1:
384,192,89897,1,0,0:0:0:0:
213,192,90061,1,0,0:0:0:1:
298,192,90061,128,0,90552:0:0:0:1:
384,192,90061,1,0,0:0:0:0:
128,192,90225,128,0,90470:0:0:0:1:
42,192,90225,128,0,90470:0:0:0:1:
469,192,90225,1,0,0:0:0:0:
213,192,90388,1,0,0:0:0:1:
469,192,90388,1,0,0:0:0:0:
128,192,90552,128,0,90798:0:0:0:1:
42,192,90552,128,0,90798:0:0:0:1:
384,192,90552,1,0,0:0:0:0:
213,192,90716,1,0,0:0:0:1:
384,192,90716,1,0,0:0:0:1:
298,192,90798,1,0,0:0:0:1:
213,192,90880,1,0,0:0:0:1:
469,192,90880,128,0,91208:0:0:0:1:
42,192,90880,1,0,0:0:0:0:
128,192,90880,1,0,0:0:0:0:
298,192,91044,128,0,91208:0:0:0:1:
213,192,91044,1,0,0:0:0:0:
384,192,91208,128,0,91536:0:0:0:1:
42,192,91208,1,0,0:0:0:0:
128,192,91208,1,0,0:0:0:0:
213,192,91372,128,0,91536:0:0:0:1:
128,192,91372,1,0,0:0:0:0:
42,192,91536,1,0,0:0:0:0:
298,192,91536,1,0,0:0:0:0:
469,192,91536,1,0,0:0:0:0:
213,192,91700,128,0,91864:0:0:0:1:
469,192,91700,1,0,0:0:0:0:
128,192,91700,1,0,0:0:0:0:
298,192,91864,128,0,92028:0:0:0:1:
384,192,91864,1,0,0:0:0:0:
42,192,91864,1,0,0:0:0:0:
128,192,92028,128,0,92192:0:0:0:1:
213,192,92028,1,0,0:0:0:0:
469,192,92192,1,0,0:0:0:1:
384,192,92192,128,0,92438:0:0:0:1:
42,192,92192,128,0,92356:0:0:0:1:
213,192,92356,128,0,92602:0:0:0:1:
384,192,92520,1,0,0:0:0:1:
42,192,92520,128,0,92766:0:0:0:1:
213,192,92684,1,0,0:0:0:1:
469,192,92684,128,0,92929:0:0:0:1:
42,192,92848,1,0,0:0:0:1:
298,192,92848,128,0,93093:0:0:0:1:
469,192,93011,1,0,0:0:0:1:
128,192,93011,128,0,93257:0:0:0:1:
298,192,93175,1,0,0:0:0:1:
128,192,93339,1,0,0:0:0:1:
469,192,93339,1,0,0:0:0:1:
213,192,93503,1,0,0:0:0:1:
298,192,93503,1,0,0:0:0:1:
384,192,93503,1,0,0:0:0:1:
42,192,93503,1,0,0:0:0:1:
128,192,93667,1,0,0:0:0:1:
469,192,93667,1,0,0:0:0:1:
42,192,93667,1,0,0:0:0:1:
128,192,93831,1,0,0:0:0:1:
213,192,93831,1,0,0:0:0:1:
42,192,93831,1,0,0:0:0:1:
298,192,93995,1,0,0:0:0:1:
384,192,93995,1,0,0:0:0:1:
469,192,93995,1,0,0:0:0:1:
128,192,94159,1,0,0:0:0:1:
298,192,94323,1,0,0:0:0:1:
213,192,94487,1,0,0:0:0:1:
384,192,94651,1,0,0:0:0:1:
298,192,94733,1,0,0:0:0:1:
128,192,94815,1,0,0:0:0:1:
213,192,94815,1,0,0:0:0:1:
469,192,94815,1,0,0:0:0:1:
42,192,94815,1,0,0:0:0:1:
298,192,95143,1,0,0:0:0:1:
128,192,95307,1,0,0:0:0:1:
384,192,95470,1,0,0:0:0:1:
128,192,95634,1,0,0:0:0:1:
298,192,96454,1,0,0:0:0:1:
128,192,96618,1,0,0:0:0:1:
384,192,96782,1,0,0:0:0:1:
128,192,96946,1,0,0:0:0:1:
298,192,97766,1,0,0:0:0:1:
128,192,97929,1,0,0:0:0:1:
384,192,98093,1,0,0:0:0:1:
128,192,98257,1,0,0:0:0:1:
42,192,98749,128,0,99651:0:0:0:1:
213,192,99241,128,0,99651:0:0:0:1:
469,192,99241,128,0,99651:0:0:0:1:
213,192,99733,1,0,0:0:0:1:
298,192,99733,1,0,0:0:0:1:
469,192,99733,1,0,0:0:0:1:
42,192,99733,1,0,0:0:0:1:
469,192,100061,1,0,0:0:0:1:
42,192,100061,128,0,101372:0:0:0:1:
128,192,100061,1,0,0:0:0:0:
298,192,100061,1,0,0:0:0:0:
469,192,100225,1,0,0:0:0:1:
298,192,100225,1,0,0:0:0:0:
128,192,100388,1,0,0:0:0:1:
384,192,100388,1,0,0:0:0:0:
213,192,100388,1,0,0:0:0:0:
384,192,100552,1,0,0:0:0:1:
469,192,100716,1,0,0:0:0:1:
298,192,100716,1,0,0:0:0:0:
128,192,100716,1,0,0:0:0:0:
298,192,100880,1,0,0:0:0:1:
128,192,100880,1,0,0:0:0:0:
384,192,101044,1,0,0:0:0:1:
469,192,101044,1,0,0:0:0:0:
213,192,101044,1,0,0:0:0:0:
128,192,101208,1,0,0:0:0:1:
469,192,101372,1,0,0:0:0:1:
298,192,101372,128,0,102684:0:0:0:1:
213,192,101372,1,0,0:0:0:0:
213,192,101536,1,0,0:0:0:0:
42,192,101700,1,0,0:0:0:1:
469,192,101700,1,0,0:0:0:0:
128,192,101700,1,0,0:0:0:0:
213,192,101864,1,0,0:0:0:1:
469,192,102028,1,0,0:0:0:1:
384,192,102028,1,0,0:0:0:0:
42,192,102028,1,0,0:0:0:0:
384,192,102192,1,0,0:0:0:0:
42,192,102192,1,0,0:0:0:0:
213,192,102356,1,0,0:0:0:1:
128,192,102356,1,0,0:0:0:0:
469,192,102356,1,0,0:0:0:0:
42,192,102520,1,0,0:0:0:1:
384,192,102684,1,0,0:0:0:1:
469,192,102684,128,0,103995:0:0:0:1:
128,192,102684,1,0,0:0:0:0:
213,192,102684,1,0,0:0:0:0:
213,192,102848,1,0,0:0:0:0:
298,192,102848,1,0,0:0:0:0:
128,192,103011,1,0,0:0:0:1:
384,192,103011,1,0,0:0:0:0:
42,192,103011,1,0,0:0:0:0:
213,192,103175,1,0,0:0:0:1:
384,192,103339,1,0,0:0:0:1:
42,192,103339,1,0,0:0:0:0:
298,192,103339,1,0,0:0:0:0:
213,192,103503,1,0,0:0:0:0:
42,192,103503,1,0,0:0:0:0:
298,192,103667,1,0,0:0:0:1:
384,192,103667,1,0,0:0:0:0:
128,192,103667,1,0,0:0:0:0:
128,192,103831,1,0,0:0:0:1:
384,192,103995,1,0,0:0:0:1:
213,192,103995,128,0,104815:0:0:0:1:
42,192,103995,1,0,0:0:0:0:
298,192,103995,1,0,0:0:0:0:
128,192,104159,1,0,0:0:0:0:
298,192,104159,1,0,0:0:0:0:
384,192,104323,1,0,0:0:0:1:
469,192,104323,1,0,0:0:0:0:
42,192,104323,1,0,0:0:0:0:
298,192,104487,1,0,0:0:0:1:
469,192,104651,1,0,0:0:0:1:
128,192,104651,1,0,0:0:0:0:
42,192,104651,1,0,0:0:0:0:
298,192,104815,1,0,0:0:0:1:
384,192,104815,1,0,0:0:0:1:
128,192,104897,1,0,0:0:0:1:
213,192,104897,1,0,0:0:0:1:
298,192,104979,1,0,0:0:0:1:
469,192,104979,1,0,0:0:0:1:
213,192,105061,1,0,0:0:0:1:
42,192,105061,1,0,0:0:0:1:
128,192,105143,1,0,0:0:0:1:
298,192,105143,1,0,0:0:0:1:
384,192,105225,1,0,0:0:0:1:
469,192,105225,1,0,0:0:0:1:
213,192,105307,1,0,0:0:0:1:
298,192,105307,1,0,0:0:0:1:
42,192,105307,128,0,105470:0:0:0:1:
213,192,105470,1,0,0:0:0:1:
128,192,105634,128,0,105798:0:0:0:1:
298,192,105798,1,0,0:0:0:1:
213,192,105962,128,0,106126:0:0:0:1:
384,192,106126,1,0,0:0:0:1:
298,192,106290,128,0,106454:0:0:0:1:
469,192,106454,1,0,0:0:0:1:
128,192,106618,128,0,106782:0:0:0:1:
42,192,106782,1,0,0:0:0:1:
213,192,106946,128,0,107110:0:0:0:1:
128,192,107110,1,0,0:0:0:1:
298,192,107274,128,0,107438:0:0:0:1:
213,192,107438,1,0,0:0:0:1:
384,192,107602,128,0,107766:0:0:0:1:
298,192,107766,1,0,0:0:0:1:
42,192,107929,128,0,108093:0:0:0:1:
213,192,108093,1,0,0:0:0:1:
128,192,108257,128,0,108421:0:0:0:1:
298,192,108421,1,0,0:0:0:1:
213,192,108585,128,0,108749:0:0:0:1:
384,192,108749,1,0,0:0:0:1:
298,192,108913,128,0,109077:0:0:0:1:
469,192,109077,1,0,0:0:0:1:
128,192,109241,128,0,109405:0:0:0:1:
42,192,109405,1,0,0:0:0:1:
213,192,109569,128,0,109733:0:0:0:1:
128,192,109733,1,0,0:0:0:1:
384,192,109897,1,0,0:0:0:1:
469,192,109897,1,0,0:0:0:1:
42,192,109897,1,0,0:0:0:1:
213,192,109951,1,0,0:0:0:1:
298,192,110006,1,0,0:0:0:1:
128,192,110061,1,0,0:0:0:1:
298,192,110143,1,0,0:0:0:1:
213,192,110225,1,0,0:0:0:1:
384,192,110225,1,0,0:0:0:1:
469,192,110225,1,0,0:0:0:1:
42,192,110225,1,0,0:0:0:1:
42,192,110552,1,0,0:0:0:1:
384,192,110552,128,0,110798:0:0:0:1:
469,192,110552,128,0,111782:0:0:0:1:
213,192,110552,1,0,0:0:0:0:
298,192,110716,1,0,0:0:0:1:
213,192,110716,1,0,0:0:0:0:
128,192,110880,1,0,0:0:0:1:
384,192,110880,128,0,111126:0:0:0:1:
42,192,110880,1,0,0:0:0:0:
298,192,111044,1,0,0:0:0:0:
213,192,111208,128,0,111454:0:0:0:1:
42,192,111208,1,0,0:0:0:0:
298,192,111372,1,0,0:0:0:1:
42,192,111372,1,0,0:0:0:0:
213,192,111536,1,0,0:0:0:1:
384,192,111536,128,0,111782:0:0:0:1:
128,192,111536,1,0,0:0:0:0:
128,192,111700,1,0,0:0:0:1:
469,192,111864,1,0,0:0:0:1:
213,192,111864,128,0,113093:0:0:0:1:
42,192,111864,128,0,112110:0:0:0:1:
298,192,111864,1,0,0:0:0:0:
298,192,112028,1,0,0:0:0:0:
384,192,112192,1,0,0:0:0:1:
42,192,112192,128,0,112438:0:0:0:1:
469,192,112192,1,0,0:0:0:0:
298,192,112356,1,0,0:0:0:0:
128,192,112520,128,0,112766:0:0:0:1:
384,192,112520,1,0,0:0:0:0:
384,192,112684,1,0,0:0:0:0:
469,192,112848,1,0,0:0:0:1:
298,192,112848,128,0,113093:0:0:0:1:
42,192,112848,1,0,0:0:0:0:
469,192,113011,1,0,0:0:0:1:
128,192,113011,1,0,0:0:0:0:
384,192,113175,128,0,113421:0:0:0:1:
42,192,113175,128,0,114241:0:0:0:1:
213,192,113175,1,0,0:0:0:0:
213,192,113339,1,0,0:0:0:0:
384,192,113503,1,0,0:0:0:1:
469,192,113503,128,0,113749:0:0:0:1:
128,192,113503,1,0,0:0:0:0:
298,192,113667,1,0,0:0:0:0:
128,192,113831,128,0,114077:0:0:0:1:
384,192,113831,1,0,0:0:0:0:
213,192,113995,1,0,0:0:0:1:
384,192,113995,1,0,0:0:0:0:
128,192,114159,1,0,0:0:0:1:
469,192,114159,1,0,0:0:0:1:
298,192,114159,1,0,0:0:0:0:
469,192,114323,1,0,0:0:0:1:
128,192,114323,128,0,115470:0:0:0:1:
298,192,114323,1,0,0:0:0:0:
298,192,114651,1,0,0:0:0:1:
213,192,114815,1,0,0:0:0:1:
384,192,114815,1,0,0:0:0:1:
469,192,114815,1,0,0:0:0:1:
42,192,114815,1,0,0:0:0:1:
213,192,115143,1,0,0:0:0:1:
469,192,115143,1,0,0:0:0:1:
384,192,115307,1,0,0:0:0:1:
298,192,115388,1,0,0:0:0:1:
213,192,115470,1,0,0:0:0:1:
469,192,115470,1,0,0:0:0:1:
128,192,115552,1,0,0:0:0:1:
384,192,115552,1,0,0:0:0:1:
42,192,115552,1,0,0:0:0:1:
213,192,115634,1,0,0:0:0:1:
298,192,115634,1,0,0:0:0:1:
384,192,115716,1,0,0:0:0:1:
469,192,115716,1,0,0:0:0:1:
128,192,115798,128,0,115880:0:0:0:1:
213,192,115798,128,0,116372:0:0:0:1:
42,192,115798,128,0,115880:0:0:0:1:
298,192,115798,1,0,0:0:0:0:
128,192,115962,128,0,116044:0:0:0:1:
42,192,115962,128,0,116044:0:0:0:1:
384,192,115962,1,0,0:0:0:0:
298,192,116126,1,0,0:0:0:1:
128,192,116126,128,0,116208:0:0:0:1:
42,192,116126,128,0,116208:0:0:0:1:
469,192,116126,1,0,0:0:0:0:
128,192,116290,128,0,116372:0:0:0:1:
42,192,116290,128,0,116372:0:0:0:1:
298,192,116290,1,0,0:0:0:0:
42,192,116454,1,0,0:0:0:1:
298,192,116454,128,0,117028:0:0:0:1:
384,192,116454,128,0,116536:0:0:0:1:
469,192,116454,128,0,116536:0:0:0:1:
213,192,116454,1,0,0:0:0:0:
384,192,116618,128,0,116700:0:0:0:1:
469,192,116618,128,0,116700:0:0:0:1:
128,192,116618,1,0,0:0:0:0:
213,192,116782,1,0,0:0:0:1:
384,192,116782,128,0,116864:0:0:0:1:
469,192,116782,128,0,116864:0:0:0:1:
42,192,116782,1,0,0:0:0:0:
384,192,116946,128,0,117028:0:0:0:1:
469,192,116946,128,0,117028:0:0:0:1:
213,192,116946,1,0,0:0:0:0:
298,192,117110,1,0,0:0:0:1:
42,192,117110,1,0,0:0:0:1:
384,192,117110,128,0,117438:0:0:0:1:
469,192,117110,128,0,117684:0:0:0:1:
128,192,117110,1,0,0:0:0:0:
213,192,117274,1,0,0:0:0:0:
128,192,117274,1,0,0:0:0:0:
42,192,117438,1,0,0:0:0:1:
213,192,117438,1,0,0:0:0:0:
298,192,117438,1,0,0:0:0:0:
128,192,117602,1,0,0:0:0:0:
298,192,117602,1,0,0:0:0:0:
128,192,117766,128,0,117929:0:0:0:1:
213,192,117766,128,0,117929:0:0:0:1:
298,192,117766,128,0,117929:0:0:0:1:
384,192,117766,128,0,117929:0:0:0:1:
469,192,117766,128,0,117929:0:0:0:1:
42,192,117766,128,0,117929:0:0:0:1:
128,192,118093,128,0,118257:0:0:0:1:
213,192,118093,128,0,118257:0:0:0:1:
298,192,118093,128,0,118257:0:0:0:1:
384,192,118093,128,0,118257:0:0:0:1:
469,192,118093,128,0,118257:0:0:0:1:
42,192,118093,128,0,118257:0:0:0:1:
298,192,118421,128,0,118995:0:0:0:1:
384,192,118421,128,0,118503:0:0:0:1:
469,192,118421,128,0,118503:0:0:0:1:
213,192,118421,1,0,0:0:0:0:
384,192,118585,128,0,118667:0:0:0:1:
469,192,118585,128,0,118667:0:0:0:1:
128,192,118585,1,0,0:0:0:0:
213,192,118749,1,0,0:0:0:1:
384,192,118749,128,0,118831:0:0:0:1:
469,192,118749,128,0,118831:0:0:0:1:
42,192,118749,1,0,0:0:0:0:
384,192,118913,128,0,118995:0:0:0:1:
469,192,118913,128,0,118995:0:0:0:1:
213,192,118913,1,0,0:0:0:0:
469,192,119077,1,0,0:0:0:1:
128,192,119077,128,0,119159:0:0:0:1:
213,192,119077,128,0,119651:0:0:0:1:
42,192,119077,128,0,119159:0:0:0:1:
298,192,119077,1,0,0:0:0:0:
128,192,119241,128,0,119323:0:0:0:1:
42,192,119241,128,0,119323:0:0:0:1:
384,192,119241,1,0,0:0:0:0:
298,192,119405,1,0,0:0:0:1:
128,192,119405,128,0,119487:0:0:0:1:
42,192,119405,128,0,119487:0:0:0:1:
469,192,119405,1,0,0:0:0:0:
128,192,119569,128,0,119651:0:0:0:1:
42,192,119569,128,0,119651:0:0:0:1:
298,192,119569,1,0,0:0:0:0:
213,192,119733,1,0,0:0:0:1:
469,192,119733,1,0,0:0:0:1:
128,192,119733,128,0,120061:0:0:0:1:
42,192,119733,128,0,120307:0:0:0:1:
384,192,119733,1,0,0:0:0:0:
384,192,119897,1,0,0:0:0:1:
298,192,119897,1,0,0:0:0:0:
298,192,120061,1,0,0:0:0:1:
469,192,120061,1,0,0:0:0:1:
213,192,120061,1,0,0:0:0:0:
213,192,120225,1,0,0:0:0:0:
384,192,120225,1,0,0:0:0:0:
128,192,120388,128,0,120552:0:0:0:1:
213,192,120388,128,0,120552:0:0:0:1:
298,192,120388,128,0,120552:0:0:0:1:
384,192,120388,128,0,120552:0:0:0:1:
469,192,120388,128,0,120552:0:0:0:1:
42,192,120388,128,0,120552:0:0:0:1:
128,192,120716,128,0,120880:0:0:0:1:
213,192,120716,128,0,120880:0:0:0:1:
298,192,120716,128,0,120880:0:0:0:1:
384,192,120716,128,0,120880:0:0:0:1:
469,192,120716,128,0,120880:0:0:0:1:
42,192,120716,128,0,120880:0:0:0:1:
128,192,121044,1,0,0:0:0:1:
384,192,121044,128,0,121126:0:0:0:1:
469,192,121044,128,0,121126:0:0:0:1:
42,192,121044,128,0,121290:0:0:0:1:
298,192,121208,1,0,0:0:0:1:
213,192,121208,128,0,121454:0:0:0:1:
384,192,121208,128,0,121290:0:0:0:1:
469,192,121208,128,0,121290:0:0:0:1:
42,192,121372,1,0,0:0:0:1:
128,192,121372,128,0,121618:0:0:0:1:
384,192,121372,128,0,121454:0:0:0:1:
469,192,121372,128,0,121454:0:0:0:1:
213,192,121536,1,0,0:0:0:1:
298,192,121536,128,0,121782:0:0:0:1:
384,192,121536,128,0,121618:0:0:0:1:
469,192,121536,128,0,121618:0:0:0:1:
128,192,121700,128,0,121782:0:0:0:1:
213,192,121700,128,0,121946:0:0:0:1:
42,192,121700,128,0,121782:0:0:0:1:
469,192,121864,1,0,0:0:0:1:
128,192,121864,128,0,121946:0:0:0:1:
384,192,121864,128,0,122110:0:0:0:1:
42,192,121864,128,0,121946:0:0:0:1:
213,192,122028,1,0,0:0:0:1:
128,192,122028,128,0,122110:0:0:0:1:
298,192,122028,128,0,122274:0:0:0:1:
42,192,122028,128,0,122110:0:0:0:1:
384,192,122192,1,0,0:0:0:1:
128,192,122192,128,0,122274:0:0:0:1:
469,192,122192,128,0,122438:0:0:0:1:
42,192,122192,128,0,122274:0:0:0:1:
298,192,122356,1,0,0:0:0:1:
128,192,122356,128,0,122438:0:0:0:1:
384,192,122356,128,0,122602:0:0:0:1:
42,192,122356,128,0,122438:0:0:0:1:
213,192,122520,1,0,0:0:0:1:
128,192,122520,128,0,122602:0:0:0:1:
469,192,122520,128,0,122766:0:0:0:1:
42,192,122520,128,0,122602:0:0:0:1:
384,192,122684,1,0,0:0:0:1:
128,192,122684,128,0,122766:0:0:0:1:
298,192,122684,128,0,122929:0:0:0:1:
42,192,122684,128,0,122766:0:0:0:1:
469,192,122848,1,0,0:0:0:1:
128,192,122848,128,0,122929:0:0:0:1:
384,192,122848,128,0,123093:0:0:0:1:
42,192,122848,128,0,122929:0:0:0:1:
298,192,123011,1,0,0:0:0:1:
128,192,123011,128,0,123093:0:0:0:1:
213,192,123011,128,0,123257:0:0:0:1:
42,192,123011,128,0,123093:0:0:0:1:
298,192,123175,128,0,123421:0:0:0:1:
384,192,123175,128,0,123257:0:0:0:1:
469,192,123175,128,0,123257:0:0:0:1:
213,192,123339,1,0,0:0:0:1:
42,192,123339,1,0,0:0:0:1:
128,192,123339,128,0,123585:0:0:0:1:
384,192,123339,128,0,123421:0:0:0:1:
469,192,123339,128,0,123421:0:0:0:1:
298,192,123503,1,0,0:0:0:1:
213,192,123503,128,0,123667:0:0:0:1:
384,192,123503,128,0,123585:0:0:0:1:
469,192,123503,128,0,123585:0:0:0:1:
128,192,123667,1,0,0:0:0:1:
384,192,123667,1,0,0:0:0:1:
469,192,123667,1,0,0:0:0:1:
42,192,123667,1,0,0:0:0:1:
213,192,123749,1,0,0:0:0:1:
298,192,123749,1,0,0:0:0:1:
128,192,123831,1,0,0:0:0:1:
469,192,123831,1,0,0:0:0:1:
42,192,123831,1,0,0:0:0:1:
213,192,123913,1,0,0:0:0:1:
384,192,123913,1,0,0:0:0:1:
128,192,123995,1,0,0:0:0:1:
298,192,123995,1,0,0:0:0:1:
42,192,123995,1,0,0:0:0:1:
213,192,124077,1,0,0:0:0:1:
384,192,124077,1,0,0:0:0:1:
469,192,124077,1,0,0:0:0:1:
298,192,124159,1,0,0:0:0:1:
42,192,124159,1,0,0:0:0:1:
128,192,124241,1,0,0:0:0:1:
384,192,124241,1,0,0:0:0:1:
469,192,124241,1,0,0:0:0:1:
213,192,124323,1,0,0:0:0:1:
298,192,124323,1,0,0:0:0:1:
128,192,124405,1,0,0:0:0:1:
42,192,124405,1,0,0:0:0:1:
298,192,124487,1,0,0:0:0:1:
384,192,124487,1,0,0:0:0:1:
469,192,124487,1,0,0:0:0:1:
213,192,124569,1,0,0:0:0:1:
42,192,124569,1,0,0:0:0:1:
128,192,124651,1,0,0:0:0:1:
384,192,124651,1,0,0:0:0:1:
469,192,124651,1,0,0:0:0:1:
213,192,124733,1,0,0:0:0:1:
298,192,124733,1,0,0:0:0:1:
128,192,124815,1,0,0:0:0:1:
42,192,124815,1,0,0:0:0:1:
298,192,124897,1,0,0:0:0:1:
469,192,124897,1,0,0:0:0:1:
213,192,124979,1,0,0:0:0:1:
384,192,124979,1,0,0:0:0:1:
42,192,124979,1,0,0:0:0:1:
213,192,125143,1,0,0:0:0:1:
384,192,125143,1,0,0:0:0:1:
42,192,125143,1,0,0:0:0:1:
128,192,125634,1,0,0:0:0:1:
298,192,125634,1,0,0:0:0:1:
469,192,125634,1,0,0:0:0:1:
128,192,125798,1,0,0:0:0:1:
298,192,125798,1,0,0:0:0:1:
469,192,125798,1,0,0:0:0:1:
213,192,125962,128,0,126208:0:0:0:1:
384,192,125962,128,0,126208:0:0:0:1:
213,192,126290,1,0,0:0:0:1:
384,192,126290,1,0,0:0:0:1:
469,192,126290,128,0,126864:0:0:0:1:
42,192,126290,128,0,126536:0:0:0:1:
213,192,126454,1,0,0:0:0:1:
298,192,126618,1,0,0:0:0:1:
384,192,126618,1,0,0:0:0:1:
42,192,126618,128,0,126700:0:0:0:1:
128,192,126782,1,0,0:0:0:1:
213,192,126782,128,0,126864:0:0:0:1:
298,192,126946,1,0,0:0:0:1:
469,192,126946,1,0,0:0:0:1:
42,192,126946,128,0,127520:0:0:0:1:
298,192,127110,1,0,0:0:0:1:
128,192,127110,128,0,127356:0:0:0:1:
213,192,127274,1,0,0:0:0:1:
469,192,127274,1,0,0:0:0:1:
384,192,127438,1,0,0:0:0:1:
298,192,127438,128,0,127684:0:0:0:1:
213,192,127602,1,0,0:0:0:1:
42,192,127602,1,0,0:0:0:1:
469,192,127602,128,0,128011:0:0:0:1:
298,192,127766,1,0,0:0:0:1:
213,192,127766,128,0,128011:0:0:0:1:
384,192,127929,1,0,0:0:0:1:
42,192,127929,1,0,0:0:0:1:
469,192,128093,1,0,0:0:0:1:
128,192,128093,128,0,128339:0:0:0:1:
298,192,128093,128,0,128503:0:0:0:1:
384,192,128257,1,0,0:0:0:1:
42,192,128257,1,0,0:0:0:1:
128,192,128421,1,0,0:0:0:1:
469,192,128421,128,0,128667:0:0:0:1:
298,192,128585,1,0,0:0:0:1:
42,192,128585,1,0,0:0:0:1:
213,192,128585,128,0,128831:0:0:0:1:
469,192,128749,1,0,0:0:0:1:
213,192,128913,1,0,0:0:0:1:
42,192,128913,1,0,0:0:0:1:
384,192,128913,128,0,129487:0:0:0:1:
213,192,129077,1,0,0:0:0:1:
298,192,129077,1,0,0:0:0:1:
128,192,129241,1,0,0:0:0:1:
469,192,129241,1,0,0:0:0:1:
42,192,129241,1,0,0:0:0:1:
298,192,129405,1,0,0:0:0:1:
42,192,129405,128,0,129651:0:0:0:1:
469,192,129569,1,0,0:0:0:1:
213,192,129569,128,0,130143:0:0:0:1:
42,192,129733,1,0,0:0:0:1:
469,192,129733,128,0,130143:0:0:0:1:
128,192,129897,1,0,0:0:0:1:
298,192,129897,1,0,0:0:0:1:
384,192,129897,1,0,0:0:0:1:
42,192,130061,1,0,0:0:0:1:
213,192,130225,1,0,0:0:0:1:
384,192,130225,1,0,0:0:0:1:
469,192,130225,128,0,130388:0:0:0:1:
42,192,130225,128,0,131208:0:0:0:1:
213,192,130388,1,0,0:0:0:1:
298,192,130388,128,0,130716:0:0:0:1:
128,192,130552,1,0,0:0:0:1:
469,192,130552,1,0,0:0:0:1:
384,192,130552,128,0,130716:0:0:0:1:
213,192,130716,128,0,131044:0:0:0:1:
384,192,130880,1,0,0:0:0:1:
298,192,130880,128,0,131044:0:0:0:1:
128,192,131044,128,0,131372:0:0:0:1:
298,192,131208,1,0,0:0:0:1:
213,192,131208,128,0,131372:0:0:0:1:
42,192,131372,128,0,131536:0:0:0:1:
298,192,131536,1,0,0:0:0:1:
469,192,131536,128,0,132438:0:0:0:1:
213,192,131700,1,0,0:0:0:1:
128,192,131864,1,0,0:0:0:1:
384,192,131864,1,0,0:0:0:1:
42,192,131864,1,0,0:0:0:1:
298,192,132028,1,0,0:0:0:1:
42,192,132028,128,0,132766:0:0:0:1:
213,192,132192,1,0,0:0:0:1:
384,192,132192,1,0,0:0:0:1:
213,192,132356,1,0,0:0:0:1:
128,192,132520,1,0,0:0:0:1:
298,192,132520,1,0,0:0:0:1:
384,192,132520,1,0,0:0:0:1:
469,192,132520,128,0,132766:0:0:0:1:
213,192,132684,1,0,0:0:0:1:
298,192,132848,1,0,0:0:0:1:
42,192,132848,1,0,0:0:0:1:
384,192,132848,128,0,133749:0:0:0:1:
298,192,133011,1,0,0:0:0:1:
213,192,133175,1,0,0:0:0:1:
469,192,133175,1,0,0:0:0:1:
42,192,133175,1,0,0:0:0:1:
298,192,133339,1,0,0:0:0:1:
128,192,133339,128,0,133831:0:0:0:1:
213,192,133503,1,0,0:0:0:1:
298,192,133667,1,0,0:0:0:1:
213,192,133831,1,0,0:0:0:1:
469,192,133831,1,0,0:0:0:1:
42,192,133831,1,0,0:0:0:1:
384,192,133831,128,0,134077:0:0:0:1:
128,192,133995,1,0,0:0:0:1:
298,192,134159,1,0,0:0:0:1:
469,192,134159,1,0,0:0:0:1:
213,192,134159,128,0,135143:0:0:0:1:
128,192,134323,1,0,0:0:0:1:
298,192,134487,1,0,0:0:0:1:
384,192,134487,1,0,0:0:0:1:
469,192,134487,1,0,0:0:0:1:
42,192,134651,1,0,0:0:0:1:
298,192,134815,1,0,0:0:0:1:
384,192,134815,1,0,0:0:0:1:
469,192,134815,1,0,0:0:0:1:
42,192,134979,128,0,135143:0:0:0:1:
384,192,135143,1,0,0:0:0:1:
469,192,135143,1,0,0:0:0:1:
298,192,135143,128,0,135307:0:0:0:1:
128,192,135307,1,0,0:0:0:1:
469,192,135307,128,0,136044:0:0:0:1:
42,192,135470,1,0,0:0:0:0:
298,192,135470,1,0,0:0:0:0:
298,192,135634,1,0,0:0:0:1:
128,192,135634,1,0,0:0:0:0:
213,192,135798,1,0,0:0:0:0:
384,192,135798,1,0,0:0:0:0:
213,192,135962,1,0,0:0:0:1:
42,192,135962,1,0,0:0:0:0:
298,192,136126,1,0,0:0:0:1:
469,192,136126,1,0,0:0:0:1:
42,192,136126,128,0,136700:0:0:0:1:
213,192,136208,1,0,0:0:0:1:
384,192,136290,1,0,0:0:0:1:
128,192,136290,128,0,136700:0:0:0:1:
298,192,136372,1,0,0:0:0:1:
469,192,136454,1,0,0:0:0:1:
213,192,136454,128,0,136700:0:0:0:1:
384,192,136536,1,0,0:0:0:1:
298,192,136618,128,0,136700:0:0:0:1:
384,192,136700,1,0,0:0:0:1:
128,192,136782,1,0,0:0:0:1:
213,192,136782,1,0,0:0:0:1:
42,192,136782,1,0,0:0:0:1:
469,192,136782,128,0,138011:0:0:0:1:
213,192,136946,1,0,0:0:0:1:
298,192,136946,1,0,0:0:0:1:
128,192,137110,1,0,0:0:0:1:
384,192,137110,1,0,0:0:0:1:
42,192,137110,128,0,137520:0:0:0:1:
298,192,137274,1,0,0:0:0:1:
128,192,137274,128,0,137520:0:0:0:1:
213,192,137438,1,0,0:0:0:1:
384,192,137438,1,0,0:0:0:1:
128,192,137602,1,0,0:0:0:1:
42,192,137602,128,0,137766:0:0:0:0:
213,192,137766,1,0,0:0:0:1:
384,192,137766,1,0,0:0:0:1:
298,192,137766,128,0,138011:0:0:0:1:
42,192,137929,1,0,0:0:0:1:
128,192,137929,128,0,138175:0:0:0:1:
298,192,138093,1,0,0:0:0:1:
469,192,138093,1,0,0:0:0:1:
42,192,138093,128,0,138503:0:0:0:1:
298,192,138257,1,0,0:0:0:1:
213,192,138257,128,0,138503:0:0:0:1:
384,192,138421,1,0,0:0:0:1:
469,192,138421,1,0,0:0:0:1:
42,192,138585,1,0,0:0:0:1:
128,192,138585,128,0,138995:0:0:0:1:
298,192,138585,128,0,138831:0:0:0:1:
213,192,138749,1,0,0:0:0:1:
384,192,138749,1,0,0:0:0:1:
469,192,138749,1,0,0:0:0:1:
298,192,138913,1,0,0:0:0:1:
469,192,138913,128,0,139159:0:0:0:1:
42,192,139077,1,0,0:0:0:1:
213,192,139077,128,0,139323:0:0:0:1:
384,192,139077,1,0,0:0:0:0:
298,192,139241,1,0,0:0:0:1:
213,192,139405,1,0,0:0:0:1:
384,192,139405,1,0,0:0:0:1:
469,192,139405,128,0,139651:0:0:0:1:
42,192,139405,128,0,139979:0:0:0:1:
213,192,139569,1,0,0:0:0:1:
128,192,139733,1,0,0:0:0:1:
469,192,139733,1,0,0:0:0:1:
298,192,139733,1,0,0:0:0:0:
298,192,139897,1,0,0:0:0:1:
384,192,139897,128,0,140143:0:0:0:1:
128,192,140061,1,0,0:0:0:1:
469,192,140061,1,0,0:0:0:1:
213,192,140061,128,0,140716:0:0:0:1:
384,192,140225,1,0,0:0:0:1:
298,192,140225,128,0,140470:0:0:0:1:
128,192,140388,1,0,0:0:0:1:
42,192,140388,1,0,0:0:0:1:
298,192,140552,1,0,0:0:0:1:
469,192,140552,128,0,141372:0:0:0:1:
128,192,140716,1,0,0:0:0:1:
384,192,140716,1,0,0:0:0:1:
42,192,140716,1,0,0:0:0:1:
213,192,140880,1,0,0:0:0:1:
42,192,140880,128,0,141372:0:0:0:1:
298,192,141044,1,0,0:0:0:1:
384,192,141044,1,0,0:0:0:1:
128,192,141044,128,0,141372:0:0:0:1:
213,192,141208,128,0,141618:0:0:0:1:
384,192,141372,1,0,0:0:0:1:
298,192,141372,128,0,141536:0:0:0:1:
128,192,141536,1,0,0:0:0:1:
469,192,141536,128,0,141700:0:0:0:1:
298,192,141700,1,0,0:0:0:1:
42,192,141700,1,0,0:0:0:1:
213,192,141700,128,0,141864:0:0:0:1:
128,192,141864,1,0,0:0:0:1:
384,192,141864,128,0,142028:0:0:0:1:
213,192,142028,1,0,0:0:0:1:
469,192,142028,1,0,0:0:0:1:
42,192,142028,128,0,143257:0:0:0:1:
298,192,142192,1,0,0:0:0:1:
384,192,142192,1,0,0:0:0:1:
128,192,142356,1,0,0:0:0:1:
213,192,142356,1,0,0:0:0:1:
384,192,142356,1,0,0:0:0:1:
213,192,142520,1,0,0:0:0:1:
469,192,142520,1,0,0:0:0:1:
384,192,142684,1,0,0:0:0:1:
128,192,142684,128,0,143257:0:0:0:1:
298,192,142684,128,0,142929:0:0:0:1:
384,192,142848,1,0,0:0:0:1:
213,192,143011,1,0,0:0:0:1:
298,192,143011,1,0,0:0:0:1:
384,192,143175,1,0,0:0:0:1:
469,192,143175,128,0,143421:0:0:0:1:
213,192,143339,1,0,0:0:0:1:
42,192,143339,1,0,0:0:0:1:
213,192,143503,1,0,0:0:0:1:
298,192,143503,128,0,143749:0:0:0:1:
128,192,143667,1,0,0:0:0:1:
469,192,143667,1,0,0:0:0:1:
42,192,143667,128,0,143831:0:0:0:1:
213,192,143831,128,0,143995:0:0:0:1:
384,192,143831,128,0,144077:0:0:0:1:
128,192,143995,1,0,0:0:0:1:
42,192,143995,128,0,144241:0:0:0:1:
298,192,144159,1,0,0:0:0:1:
469,192,144159,1,0,0:0:0:1:
298,192,144323,1,0,0:0:0:1:
42,192,144323,1,0,0:0:0:1:
128,192,144323,128,0,144569:0:0:0:1:
213,192,144487,1,0,0:0:0:1:
469,192,144487,128,0,145470:0:0:0:1:
128,192,144651,1,0,0:0:0:1:
384,192,144651,1,0,0:0:0:1:
42,192,144651,1,0,0:0:0:1:
213,192,144815,1,0,0:0:0:1:
384,192,144815,1,0,0:0:0:1:
42,192,144815,1,0,0:0:0:1:
128,192,144979,1,0,0:0:0:1:
384,192,144979,1,0,0:0:0:1:
42,192,144979,1,0,0:0:0:1:
213,192,145143,1,0,0:0:0:1:
384,192,145143,1,0,0:0:0:1:
42,192,145143,1,0,0:0:0:1:
128,192,145307,1,0,0:0:0:1:
298,192,145307,1,0,0:0:0:1:
384,192,145307,1,0,0:0:0:1:
128,192,145470,1,0,0:0:0:1:
213,192,145470,1,0,0:0:0:1:
384,192,145470,1,0,0:0:0:1:
128,192,145634,1,0,0:0:0:1:
298,192,145634,1,0,0:0:0:1:
469,192,145634,1,0,0:0:0:1:
128,192,145798,1,0,0:0:0:1:
213,192,145798,1,0,0:0:0:1:
469,192,145798,1,0,0:0:0:1:
213,192,145962,1,0,0:0:0:1:
298,192,145962,1,0,0:0:0:1:
469,192,145962,1,0,0:0:0:1:
42,192,145962,1,0,0:0:0:1:
128,192,146126,1,0,0:0:0:1:
384,192,146126,1,0,0:0:0:1:
213,192,146208,1,0,0:0:0:1:
298,192,146208,1,0,0:0:0:1:
384,192,146290,1,0,0:0:0:1:
469,192,146290,1,0,0:0:0:1:
128,192,146290,128,0,146782:0:0:0:1:
42,192,146290,128,0,146782:0:0:0:1:
213,192,146454,1,0,0:0:0:1:
298,192,146454,1,0,0:0:0:1:
298,192,146782,1,0,0:0:0:1:
384,192,146782,1,0,0:0:0:1:
213,192,146946,1,0,0:0:0:1:
384,192,146946,1,0,0:0:0:1:
213,192,147110,1,0,0:0:0:1:
298,192,147110,1,0,0:0:0:1:
213,192,147274,1,0,0:0:0:1:
384,192,147274,1,0,0:0:0:1:
469,192,147274,1,0,0:0:0:1:
42,192,147274,1,0,0:0:0:1:
128,192,147274,128,0,147602:0:0:0:1:
42,192,147602,1,0,0:0:0:1:
128,192,147766,1,0,0:0:0:1:
42,192,147929,1,0,0:0:0:1:
128,192,148093,1,0,0:0:0:1:
213,192,148257,1,0,0:0:0:1:
469,192,148421,128,0,148749:0:0:0:1:
384,192,148749,1,0,0:0:0:1:
469,192,148913,1,0,0:0:0:1:
384,192,149077,1,0,0:0:0:1:
298,192,149241,1,0,0:0:0:1:
298,192,149405,1,0,0:0:0:1:
384,192,149569,1,0,0:0:0:1:
42,192,149897,1,0,0:0:0:1:
42,192,150061,1,0,0:0:0:1:
213,192,150225,1,0,0:0:0:1:
128,192,150388,1,0,0:0:0:1:
213,192,150552,1,0,0:0:0:1:
128,192,150716,1,0,0:0:0:1:
213,192,150880,1,0,0:0:0:1:
384,192,151044,128,0,151372:0:0:0:1:
469,192,151372,1,0,0:0:0:1:
384,192,151536,1,0,0:0:0:1:
469,192,151700,1,0,0:0:0:1:
384,192,151864,1,0,0:0:0:1:
298,192,152028,128,0,152356:0:0:0:1:
213,192,152356,1,0,0:0:0:1:
298,192,152438,1,0,0:0:0:1:
128,192,152520,1,0,0:0:0:1:
384,192,152520,1,0,0:0:0:1:
469,192,152520,1,0,0:0:0:1:
42,192,152520,1,0,0:0:0:1:
128,192,152684,1,0,0:0:0:1:
384,192,152684,1,0,0:0:0:1:
469,192,152684,1,0,0:0:0:1:
42,192,152684,1,0,0:0:0:1:
298,192,152848,1,0,0:0:0:1:
469,192,153011,1,0,0:0:0:1:
384,192,153175,1,0,0:0:0:1:
298,192,153339,1,0,0:0:0:1:
469,192,153503,1,0,0:0:0:1:
384,192,153667,1,0,0:0:0:1:
298,192,153831,1,0,0:0:0:1:
42,192,153831,128,0,156454:0:0:0:1:
469,192,153995,1,0,0:0:0:1:
384,192,154159,1,0,0:0:0:1:
298,192,154323,1,0,0:0:0:1:
469,192,154487,1,0,0:0:0:1:
384,192,154651,1,0,0:0:0:1:
298,192,154815,1,0,0:0:0:1:
469,192,154979,1,0,0:0:0:1:
384,192,155143,1,0,0:0:0:1:
298,192,155307,1,0,0:0:0:1:
469,192,155470,1,0,0:0:0:1:
384,192,155634,1,0,0:0:0:1:
298,192,155798,1,0,0:0:0:1:
469,192,155962,1,0,0:0:0:1:
384,192,156126,1,0,0:0:0:1:
298,192,156290,1,0,0:0:0:1:
128,192,156454,1,0,0:0:0:1:
213,192,156454,1,0,0:0:0:1:
384,192,156454,1,0,0:0:0:1:
298,192,156618,1,0,0:0:0:1:
469,192,156618,1,0,0:0:0:1:
213,192,156700,1,0,0:0:0:1:
42,192,156700,1,0,0:0:0:1:
298,192,156782,1,0,0:0:0:1:
469,192,156782,1,0,0:0:0:1:
128,192,156946,1,0,0:0:0:1:
384,192,156946,1,0,0:0:0:1:
42,192,156946,1,0,0:0:0:1:
213,192,157028,1,0,0:0:0:1:
298,192,157028,1,0,0:0:0:1:
384,192,157110,1,0,0:0:0:1:
469,192,157110,1,0,0:0:0:1:
42,192,157110,1,0,0:0:0:1:
128,192,157192,1,0,0:0:0:1:
298,192,157274,1,0,0:0:0:1:
384,192,157274,1,0,0:0:0:1:
469,192,157274,1,0,0:0:0:1:
128,192,157438,1,0,0:0:0:1:
213,192,157438,1,0,0:0:0:1:
42,192,157438,1,0,0:0:0:1:
128,192,157602,1,0,0:0:0:1:
298,192,157602,1,0,0:0:0:1:
384,192,157602,1,0,0:0:0:1:
469,192,157602,1,0,0:0:0:1:
42,192,157602,1,0,0:0:0:1:
298,192,157766,1,0,0:0:0:1:
128,192,157766,128,0,158011:0:0:0:1:
213,192,157766,128,0,158913:0:0:0:1:
384,192,157766,128,0,158093:0:0:0:1:
42,192,157766,128,0,158011:0:0:0:1:
128,192,158093,128,0,158667:0:0:0:1:
469,192,158093,128,0,158585:0:0:0:1:
42,192,158093,128,0,158667:0:0:0:1:
298,192,158257,128,0,158749:0:0:0:1:
384,192,158585,128,0,158749:0:0:0:1:
128,192,158749,128,0,159323:0:0:0:1:
469,192,158749,128,0,159241:0:0:0:1:
42,192,158749,128,0,159323:0:0:0:1:
384,192,158913,128,0,159241:0:0:0:1:
298,192,159077,1,0,0:0:0:1:
213,192,159077,128,0,159405:0:0:0:1:
298,192,159241,128,0,159733:0:0:0:1:
384,192,159405,1,0,0:0:0:1:
128,192,159405,128,0,159979:0:0:0:1:
469,192,159405,128,0,159569:0:0:0:1:
42,192,159405,128,0,159979:0:0:0:1:
213,192,159569,128,0,159733:0:0:0:1:
384,192,159733,128,0,159979:0:0:0:1:
469,192,159733,128,0,159979:0:0:0:1:
213,192,160061,1,0,0:0:0:1:
298,192,160061,1,0,0:0:0:1:
128,192,160061,128,0,160307:0:0:0:1:
384,192,160061,128,0,160307:0:0:0:1:
469,192,160061,128,0,160307:0:0:0:1:
42,192,160061,128,0,160307:0:0:0:1:
213,192,160388,1,0,0:0:0:1:
298,192,160388,128,0,160552:0:0:0:1:
384,192,160388,128,0,160552:0:0:0:1:
469,192,160388,128,0,160552:0:0:0:1:
42,192,160388,128,0,160552:0:0:0:1:
298,192,160716,1,0,0:0:0:1:
384,192,160716,128,0,161290:0:0:0:1:
469,192,160716,128,0,161290:0:0:0:1:
213,192,160716,1,0,0:0:0:0:
42,192,160716,1,0,0:0:0:0:
42,192,160880,1,0,0:0:0:0:
213,192,160880,1,0,0:0:0:0:
298,192,161044,128,0,161208:0:0:0:1:
42,192,161044,128,0,161372:0:0:0:1:
128,192,161208,128,0,161536:0:0:0:1:
298,192,161372,1,0,0:0:0:1:
213,192,161372,128,0,161700:0:0:0:1:
384,192,161372,128,0,161946:0:0:0:1:
469,192,161372,128,0,161946:0:0:0:1:
298,192,161536,128,0,161700:0:0:0:1:
128,192,161700,1,0,0:0:0:1:
42,192,161700,128,0,162192:0:0:0:1:
298,192,161864,128,0,162192:0:0:0:1:
213,192,162028,1,0,0:0:0:1:
128,192,162028,128,0,162192:0:0:0:1:
384,192,162028,128,0,162192:0:0:0:1:
469,192,162028,128,0,162192:0:0:0:1:
213,192,162356,1,0,0:0:0:1:
128,192,162356,128,0,162520:0:0:0:1:
384,192,162356,128,0,162520:0:0:0:1:
469,192,162356,128,0,162520:0:0:0:1:
42,192,162356,128,0,162520:0:0:0:1:
213,192,162684,128,0,162848:0:0:0:1:
298,192,162684,128,0,162848:0:0:0:1:
469,192,162684,128,0,162848:0:0:0:1:
42,192,162684,128,0,162848:0:0:0:1:
213,192,163011,1,0,0:0:0:1:
128,192,163011,128,0,163257:0:0:0:1:
298,192,163011,128,0,163257:0:0:0:1:
42,192,163011,128,0,163257:0:0:0:1:
469,192,163011,1,0,0:0:0:0:
384,192,163011,1,0,0:0:0:0:
469,192,163175,1,0,0:0:0:0:
384,192,163175,1,0,0:0:0:0:
213,192,163339,1,0,0:0:0:1:
128,192,163339,128,0,163913:0:0:0:1:
298,192,163339,128,0,163503:0:0:0:1:
469,192,163339,128,0,163667:0:0:0:1:
42,192,163339,128,0,163913:0:0:0:1:
213,192,163503,128,0,164159:0:0:0:1:
384,192,163503,128,0,163831:0:0:0:1:
298,192,163831,128,0,163995:0:0:0:1:
384,192,163995,1,0,0:0:0:1:
128,192,163995,128,0,164569:0:0:0:1:
469,192,163995,128,0,164487:0:0:0:1:
42,192,163995,128,0,164569:0:0:0:1:
384,192,164159,128,0,164487:0:0:0:1:
213,192,164323,1,0,0:0:0:1:
298,192,164323,128,0,164651:0:0:0:1:
213,192,164487,128,0,164815:0:0:0:1:
384,192,164651,1,0,0:0:0:1:
128,192,164651,128,0,164979:0:0:0:1:
469,192,164651,128,0,165143:0:0:0:1:
42,192,164651,128,0,164979:0:0:0:1:
384,192,164815,128,0,165143:0:0:0:1:
213,192,164979,128,0,165143:0:0:0:1:
298,192,164979,128,0,165143:0:0:0:1:
128,192,165307,128,0,165470:0:0:0:1:
298,192,165307,128,0,165470:0:0:0:1:
469,192,165307,128,0,165470:0:0:0:1:
42,192,165307,128,0,165470:0:0:0:1:
298,192,165634,1,0,0:0:0:1:
128,192,165634,128,0,165880:0:0:0:1:
213,192,165634,128,0,165880:0:0:0:1:
384,192,165634,128,0,165880:0:0:0:1:
469,192,165634,128,0,165880:0:0:0:1:
42,192,165634,128,0,165880:0:0:0:1:
298,192,165962,1,0,0:0:0:1:
213,192,165962,128,0,166208:0:0:0:1:
384,192,165962,128,0,166536:0:0:0:1:
469,192,165962,128,0,166536:0:0:0:1:
42,192,165962,1,0,0:0:0:0:
128,192,165962,1,0,0:0:0:0:
298,192,166126,128,0,166782:0:0:0:1:
128,192,166126,1,0,0:0:0:0:
42,192,166126,1,0,0:0:0:0:
128,192,166290,128,0,166454:0:0:0:1:
42,192,166290,128,0,166454:0:0:0:1:
213,192,166454,128,0,166618:0:0:0:1:
128,192,166618,128,0,166782:0:0:0:1:
384,192,166618,128,0,167192:0:0:0:1:
469,192,166618,128,0,167192:0:0:0:1:
42,192,166618,128,0,167110:0:0:0:1:
213,192,166782,128,0,166946:0:0:0:1:
298,192,166946,1,0,0:0:0:1:
128,192,166946,128,0,167110:0:0:0:1:
213,192,167110,128,0,167274:0:0:0:1:
298,192,167110,128,0,167274:0:0:0:1:
128,192,167274,128,0,167438:0:0:0:1:
384,192,167274,128,0,167438:0:0:0:1:
469,192,167274,128,0,167438:0:0:0:1:
42,192,167274,128,0,167438:0:0:0:1:
213,192,167602,128,0,167766:0:0:0:1:
298,192,167602,128,0,167766:0:0:0:1:
469,192,167602,128,0,167766:0:0:0:1:
42,192,167602,128,0,167766:0:0:0:1:
128,192,167929,1,0,0:0:0:1:
213,192,167929,1,0,0:0:0:1:
298,192,167929,1,0,0:0:0:1:
384,192,167929,1,0,0:0:0:1:
469,192,167929,1,0,0:0:0:1:
42,192,167929,1,0,0:0:0:1:
128,192,168175,1,0,0:0:0:1:
42,192,168175,1,0,0:0:0:1:
298,192,168257,1,0,0:0:0:1:
384,192,168257,128,0,168503:0:0:0:1:
469,192,168257,128,0,168995:0:0:0:1:
128,192,168421,1,0,0:0:0:1:
213,192,168421,128,0,168667:0:0:0:1:
384,192,168585,1,0,0:0:0:1:
42,192,168585,128,0,168831:0:0:0:1:
213,192,168749,1,0,0:0:0:1:
298,192,168749,128,0,169651:0:0:0:1:
384,192,168749,128,0,168995:0:0:0:1:
42,192,168913,1,0,0:0:0:1:
128,192,168913,128,0,169159:0:0:0:1:
384,192,169077,1,0,0:0:0:1:
469,192,169077,128,0,169323:0:0:0:1:
128,192,169241,1,0,0:0:0:1:
213,192,169241,128,0,169487:0:0:0:1:
42,192,169241,128,0,169815:0:0:0:1:
469,192,169405,1,0,0:0:0:1:
384,192,169405,128,0,169651:0:0:0:1:
213,192,169569,1,0,0:0:0:1:
128,192,169569,128,0,169815:0:0:0:1:
384,192,169733,1,0,0:0:0:1:
298,192,169733,128,0,169979:0:0:0:1:
469,192,169733,128,0,170143:0:0:0:1:
128,192,169897,1,0,0:0:0:1:
42,192,169897,128,0,170143:0:0:0:1:
298,192,170061,1,0,0:0:0:1:
128,192,170225,1,0,0:0:0:1:
213,192,170225,1,0,0:0:0:1:
384,192,170225,1,0,0:0:0:1:
469,192,170225,1,0,0:0:0:1:
42,192,170225,1,0,0:0:0:1:
128,192,170552,1,0,0:0:0:1:
298,192,170552,1,0,0:0:0:1:
384,192,170552,1,0,0:0:0:1:
469,192,170552,1,0,0:0:0:1:
42,192,170552,1,0,0:0:0:1:
213,192,170880,128,0,171290:0:0:0:1:
298,192,170880,128,0,171372:0:0:0:1:
469,192,170880,128,0,171454:0:0:0:1:
42,192,170880,128,0,171126:0:0:0:1:
128,192,171208,1,0,0:0:0:1:
42,192,171208,1,0,0:0:0:1:
213,192,171372,128,0,171536:0:0:0:1:
298,192,171454,128,0,171536:0:0:0:1:
384,192,171536,128,0,171946:0:0:0:1:
469,192,171536,128,0,171946:0:0:0:1:
42,192,171536,1,0,0:0:0:0:
128,192,171536,1,0,0:0:0:0:
128,192,171700,1,0,0:0:0:0:
213,192,171700,1,0,0:0:0:0:
298,192,171864,1,0,0:0:0:0:
213,192,171864,1,0,0:0:0:0:
128,192,172028,128,0,172274:0:0:0:1:
213,192,172028,128,0,172274:0:0:0:1:
298,192,172028,128,0,172602:0:0:0:1:
384,192,172028,128,0,172766:0:0:0:1:
469,192,172028,128,0,173257:0:0:0:1:
42,192,172028,128,0,172356:0:0:0:1:
128,192,172356,1,0,0:0:0:1:
213,192,172356,128,0,172602:0:0:0:1:
42,192,172520,128,0,172766:0:0:0:1:
213,192,172684,1,0,0:0:0:1:
298,192,172684,128,0,172929:0:0:0:1:
384,192,172848,1,0,0:0:0:1:
42,192,172848,1,0,0:0:0:1:
128,192,172848,128,0,173093:0:0:0:1:
298,192,173011,1,0,0:0:0:1:
384,192,173011,128,0,173257:0:0:0:1:
128,192,173175,1,0,0:0:0:1:
213,192,173175,128,0,173421:0:0:0:1:
384,192,173339,1,0,0:0:0:1:
469,192,173339,128,0,173503:0:0:0:1:
213,192,173503,1,0,0:0:0:1:
298,192,173503,128,0,173831:0:0:0:1:
42,192,173503,128,0,174487:0:0:0:1:
128,192,173667,128,0,173831:0:0:0:1:
384,192,173831,128,0,173995:0:0:0:1:
298,192,173995,1,0,0:0:0:1:
213,192,173995,128,0,174487:0:0:0:1:
384,192,174077,1,0,0:0:0:1:
128,192,174159,1,0,0:0:0:1:
469,192,174159,128,0,174651:0:0:0:1:
384,192,174323,128,0,174651:0:0:0:1:
298,192,174487,128,0,174651:0:0:0:1:
213,192,174651,128,0,174979:0:0:0:1:
128,192,174815,1,0,0:0:0:1:
469,192,174815,1,0,0:0:0:1:
42,192,174815,128,0,175307:0:0:0:1:
384,192,174979,128,0,175143:0:0:0:1:
298,192,175143,1,0,0:0:0:1:
213,192,175143,128,0,175634:0:0:0:1:
128,192,175307,1,0,0:0:0:1:
469,192,175307,128,0,175634:0:0:0:1:
298,192,175470,1,0,0:0:0:1:
384,192,175470,128,0,175634:0:0:0:1:
42,192,175470,128,0,175962:0:0:0:1:
128,192,175634,128,0,175962:0:0:0:1:
298,192,175634,128,0,175798:0:0:0:1:
213,192,175798,1,0,0:0:0:1:
384,192,175798,1,0,0:0:0:1:
469,192,175798,128,0,176126:0:0:0:1:
298,192,175962,128,0,176126:0:0:0:1:
128,192,176126,1,0,0:0:0:1:
384,192,176126,128,0,176290:0:0:0:1:
42,192,176126,128,0,176290:0:0:0:1:
213,192,176290,128,0,176782:0:0:0:1:
128,192,176454,1,0,0:0:0:1:
384,192,176454,1,0,0:0:0:1:
469,192,176454,128,0,176782:0:0:0:1:
42,192,176454,128,0,177110:0:0:0:1:
298,192,176618,128,0,177766:0:0:0:1:
213,192,176946,128,0,177438:0:0:0:1:
469,192,176946,128,0,177110:0:0:0:1:
128,192,177110,1,0,0:0:0:1:
384,192,177274,1,0,0:0:0:1:
469,192,177274,128,0,177766:0:0:0:1:
42,192,177274,128,0,177438:0:0:0:1:
128,192,177602,1,0,0:0:0:1:
213,192,177602,128,0,178421:0:0:0:1:
42,192,177602,128,0,178093:0:0:0:1:
384,192,177929,1,0,0:0:0:1:
298,192,177929,128,0,178421:0:0:0:1:
469,192,177929,128,0,178093:0:0:0:1:
128,192,178093,128,0,178913:0:0:0:1:
384,192,178257,1,0,0:0:0:1:
469,192,178257,128,0,178585:0:0:0:1:
42,192,178257,128,0,179405:0:0:0:1:
213,192,178585,128,0,179077:0:0:0:1:
298,192,178585,128,0,178749:0:0:0:1:
384,192,178749,1,0,0:0:0:1:
469,192,178749,128,0,179077:0:0:0:1:
298,192,178913,128,0,179077:0:0:0:1:
128,192,179077,128,0,179405:0:0:0:1:
213,192,179241,1,0,0:0:0:1:
298,192,179241,1,0,0:0:0:1:
469,192,179241,1,0,0:0:0:1:
384,192,179241,128,0,179569:0:0:0:1:
213,192,179405,128,0,179569:0:0:0:1:
42,192,179569,128,0,180061:0:0:0:1:
213,192,179733,1,0,0:0:0:1:
298,192,179733,1,0,0:0:0:1:
384,192,179733,1,0,0:0:0:1:
469,192,179733,1,0,0:0:0:1:
128,192,179733,128,0,180061:0:0:0:1:
298,192,179897,128,0,180061:0:0:0:1:
469,192,180061,128,0,180552:0:0:0:1:
128,192,180225,1,0,0:0:0:1:
213,192,180225,1,0,0:0:0:1:
298,192,180225,1,0,0:0:0:1:
384,192,180225,1,0,0:0:0:1:
42,192,180225,128,0,180552:0:0:0:1:
213,192,180388,128,0,180552:0:0:0:1:
384,192,180552,128,0,180716:0:0:0:1:
298,192,180716,1,0,0:0:0:1:
128,192,180716,128,0,180962:0:0:0:1:
213,192,180716,128,0,180962:0:0:0:1:
469,192,180716,128,0,180962:0:0:0:1:
42,192,180716,128,0,180962:0:0:0:1:
213,192,181044,1,0,0:0:0:1:
298,192,181044,128,0,181290:0:0:0:1:
384,192,181044,128,0,181290:0:0:0:1:
469,192,181044,128,0,181290:0:0:0:1:
42,192,181044,128,0,181290:0:0:0:1:
128,192,181372,1,0,0:0:0:1:
213,192,181372,1,0,0:0:0:1:
298,192,181372,1,0,0:0:0:1:
384,192,181372,1,0,0:0:0:1:
469,192,181372,1,0,0:0:0:1:
42,192,181372,128,0,183339:0:0:0:1:
128,192,181536,1,0,0:0:0:1:
128,192,181700,1,0,0:0:0:1:
128,192,181864,1,0,0:0:0:1:
213,192,181864,1,0,0:0:0:1:
298,192,181864,1,0,0:0:0:1:
384,192,181864,1,0,0:0:0:1:
469,192,181864,128,0,183339:0:0:0:1:
213,192,182028,1,0,0:0:0:1:
298,192,182028,1,0,0:0:0:1:
213,192,182192,1,0,0:0:0:1:
298,192,182192,1,0,0:0:0:1:
213,192,182356,1,0,0:0:0:1:
298,192,182356,1,0,0:0:0:1:
384,192,182356,1,0,0:0:0:1:
128,192,182356,128,0,183339:0:0:0:1:
298,192,182520,1,0,0:0:0:1:
384,192,182520,1,0,0:0:0:1:
298,192,182684,1,0,0:0:0:1:
384,192,182684,1,0,0:0:0:1:
213,192,182848,1,0,0:0:0:1:
298,192,182848,1,0,0:0:0:1:
384,192,182848,128,0,183339:0:0:0:1:
213,192,183011,1,0,0:0:0:1:
213,192,183175,1,0,0:0:0:1:
213,192,183339,1,0,0:0:0:1:
298,192,183339,1,0,0:0:0:1:
213,192,183503,1,0,0:0:0:1:
298,192,183503,1,0,0:0:0:1:
128,192,183667,1,0,0:0:0:1:
384,192,183667,1,0,0:0:0:1:
469,192,183667,1,0,0:0:0:1:
42,192,183667,1,0,0:0:0:1:
213,192,183995,128,0,185470:0:0:0:1:
298,192,183995,128,0,184241:0:0:0:1:
42,192,183995,128,0,185634:0:0:0:1:
298,192,184323,1,0,0:0:0:1:
384,192,184323,128,0,184569:0:0:0:1:
469,192,184323,128,0,184569:0:0:0:1:
128,192,184487,128,0,184651:0:0:0:1:
298,192,184651,1,0,0:0:0:1:
384,192,184651,128,0,184897:0:0:0:1:
469,192,184651,128,0,184897:0:0:0:1:
128,192,184815,128,0,184979:0:0:0:1:
298,192,184979,1,0,0:0:0:1:
384,192,184979,128,0,185225:0:0:0:1:
469,192,184979,128,0,185225:0:0:0:1:
128,192,185143,128,0,185634:0:0:0:1:
384,192,185307,128,0,185388:0:0:0:1:
469,192,185307,128,0,185388:0:0:0:1:
298,192,185470,128,0,185552:0:0:0:1:
384,192,185470,128,0,185552:0:0:0:1:
469,192,185470,128,0,185552:0:0:0:1:
213,192,185634,128,0,185716:0:0:0:1:
298,192,185634,128,0,185716:0:0:0:1:
384,192,185634,128,0,185716:0:0:0:1:
469,192,185634,128,0,185716:0:0:0:1:
128,192,185798,128,0,185962:0:0:0:1:
213,192,185798,128,0,185962:0:0:0:1:
298,192,185798,128,0,185962:0:0:0:1:
384,192,185798,128,0,185962:0:0:0:1:
469,192,185798,128,0,185962:0:0:0:1:
42,192,185798,128,0,185962:0:0:0:1:
42,192,186618,1,0,0:0:0:1:
128,192,186782,1,0,0:0:0:1:
213,192,186946,1,0,0:0:0:1:
42,192,187110,1,0,0:0:0:1:
128,192,187274,1,0,0:0:0:1:
213,192,187438,1,0,0:0:0:1:
42,192,187602,1,0,0:0:0:1:
128,192,187766,1,0,0:0:0:1:
213,192,187929,1,0,0:0:0:1:
384,192,187929,1,0,0:0:0:1:
469,192,187929,1,0,0:0:0:1:
298,192,188093,1,0,0:0:0:1:
384,192,188257,1,0,0:0:0:1:
213,192,188421,1,0,0:0:0:1:
298,192,188585,1,0,0:0:0:1:
384,192,188749,1,0,0:0:0:1:
213,192,188913,1,0,0:0:0:1:
298,192,189077,1,0,0:0:0:1:
384,192,189241,1,0,0:0:0:1:
469,192,189241,1,0,0:0:0:1:
42,192,189241,1,0,0:0:0:1:
213,192,189405,1,0,0:0:0:1:
298,192,189569,1,0,0:0:0:1:
42,192,189733,1,0,0:0:0:1:
213,192,189897,1,0,0:0:0:1:
298,192,190061,1,0,0:0:0:1:
42,192,190225,1,0,0:0:0:1:
213,192,190388,1,0,0:0:0:1:
298,192,190552,1,0,0:0:0:1:
384,192,190552,1,0,0:0:0:1:
469,192,190552,1,0,0:0:0:1:
42,192,190552,1,0,0:0:0:1:
128,192,190716,1,0,0:0:0:1:
298,192,190880,1,0,0:0:0:1:
42,192,191044,1,0,0:0:0:1:
128,192,191208,1,0,0:0:0:1:
298,192,191372,1,0,0:0:0:1:
42,192,191536,1,0,0:0:0:1:
128,192,191700,1,0,0:0:0:1:
298,192,191864,1,0,0:0:0:1:
42,192,191864,1,0,0:0:0:1:
469,192,191864,128,0,194405:0:0:0:1:
42,192,192192,1,0,0:0:0:1:
42,192,192520,1,0,0:0:0:1:
42,192,192848,1,0,0:0:0:1:
42,192,193175,1,0,0:0:0:1:
384,192,193175,128,0,194405:0:0:0:1:
42,192,193503,1,0,0:0:0:1:
42,192,193831,1,0,0:0:0:1:
298,192,193831,128,0,194405:0:0:0:1:
42,192,194159,1,0,0:0:0:1:
128,192,194487,1,0,0:0:0:1:
42,192,194487,128,0,195798:0:0:0:1:
298,192,194487,1,0,0:0:0:0:
469,192,194487,1,0,0:0:0:0:
213,192,194651,1,0,0:0:0:1:
469,192,194651,1,0,0:0:0:0:
384,192,194815,1,0,0:0:0:0:
298,192,194815,1,0,0:0:0:0:
213,192,194979,1,0,0:0:0:1:
469,192,195143,1,0,0:0:0:1:
128,192,195143,1,0,0:0:0:0:
384,192,195143,1,0,0:0:0:0:
213,192,195307,1,0,0:0:0:1:
384,192,195307,1,0,0:0:0:0:
128,192,195470,1,0,0:0:0:0:
298,192,195470,1,0,0:0:0:0:
384,192,195634,1,0,0:0:0:1:
469,192,195798,128,0,196208:0:0:0:1:
128,192,195798,1,0,0:0:0:0:
213,192,195798,1,0,0:0:0:0:
298,192,195962,1,0,0:0:0:1:
128,192,195962,1,0,0:0:0:0:
42,192,196126,1,0,0:0:0:0:
213,192,196126,1,0,0:0:0:0:
298,192,196290,1,0,0:0:0:1:
384,192,196290,128,0,196700:0:0:0:1:
128,192,196454,1,0,0:0:0:1:
213,192,196454,1,0,0:0:0:0:
42,192,196454,1,0,0:0:0:0:
298,192,196618,1,0,0:0:0:1:
213,192,196618,1,0,0:0:0:0:
42,192,196782,1,0,0:0:0:1:
298,192,196782,128,0,197110:0:0:0:1:
128,192,196782,1,0,0:0:0:0:
469,192,196782,1,0,0:0:0:0:
213,192,196946,1,0,0:0:0:1:
469,192,197110,128,0,198339:0:0:0:1:
42,192,197110,128,0,198339:0:0:0:1:
384,192,197110,1,0,0:0:0:0:
128,192,197110,1,0,0:0:0:0:
213,192,197274,1,0,0:0:0:1:
298,192,197438,1,0,0:0:0:1:
384,192,197602,1,0,0:0:0:1:
128,192,197766,1,0,0:0:0:1:
213,192,197766,1,0,0:0:0:1:
298,192,197848,1,0,0:0:0:1:
128,192,197929,1,0,0:0:0:1:
384,192,197929,1,0,0:0:0:1:
213,192,198011,1,0,0:0:0:1:
298,192,198093,1,0,0:0:0:1:
384,192,198093,1,0,0:0:0:1:
128,192,198175,1,0,0:0:0:1:
213,192,198175,1,0,0:0:0:1:
298,192,198257,1,0,0:0:0:1:
384,192,198257,1,0,0:0:0:1:
128,192,198339,1,0,0:0:0:1:
213,192,198339,1,0,0:0:0:1:
298,192,198421,1,0,0:0:0:1:
384,192,198421,1,0,0:0:0:1:
469,192,198421,1,0,0:0:0:1:
42,192,198421,1,0,0:0:0:1:
298,192,198585,1,0,0:0:0:1:
384,192,198585,1,0,0:0:0:1:
469,192,198585,1,0,0:0:0:1:
42,192,198585,1,0,0:0:0:1:
128,192,199077,1,0,0:0:0:1:
213,192,199077,1,0,0:0:0:1:
469,192,199077,1,0,0:0:0:1:
42,192,199077,1,0,0:0:0:1:
128,192,199241,1,0,0:0:0:1:
213,192,199241,1,0,0:0:0:1:
469,192,199241,1,0,0:0:0:1:
42,192,199241,1,0,0:0:0:1:
213,192,199733,128,0,200798:0:0:0:1:
384,192,199733,128,0,200798:0:0:0:1:
469,192,199733,128,0,200798:0:0:0:1:
42,192,199733,128,0,200798:0:0:0:1:
213,192,200880,1,0,0:0:0:1:
384,192,200880,1,0,0:0:0:1:
469,192,200880,1,0,0:0:0:1:
42,192,200880,1,0,0:0:0:1:
213,192,202356,128,0,202766:0:0:0:1:
298,192,202356,128,0,203093:0:0:0:1:
469,192,202356,128,0,203339:0:0:0:1:
42,192,202356,128,0,203503:0:0:0:1:
213,192,202848,1,0,0:0:0:1:
298,192,203175,1,0,0:0:0:1:
384,192,203339,1,0,0:0:0:1:
469,192,203503,1,0,0:0:0:1:
42,192,203667,128,0,204569:0:0:0:1:
213,192,203667,1,0,0:0:0:0:
384,192,203667,1,0,0:0:0:0:
128,192,203831,1,0,0:0:0:0:
298,192,203831,1,0,0:0:0:0:
384,192,203995,1,0,0:0:0:0:
469,192,203995,1,0,0:0:0:0:
384,192,204159,1,0,0:0:0:1:
128,192,204159,128,0,204569:0:0:0:1:
298,192,204159,1,0,0:0:0:0:
213,192,204323,128,0,204569:0:0:0:1:
469,192,204323,128,0,204897:0:0:0:1:
384,192,204487,1,0,0:0:0:1:
298,192,204569,1,0,0:0:0:1:
128,192,204651,1,0,0:0:0:1:
42,192,204651,1,0,0:0:0:1:
213,192,204651,1,0,0:0:0:0:
298,192,204815,1,0,0:0:0:0:
42,192,204979,128,0,206290:0:0:0:1:
213,192,204979,1,0,0:0:0:0:
384,192,204979,1,0,0:0:0:0:
298,192,205143,1,0,0:0:0:1:
213,192,205143,1,0,0:0:0:0:
469,192,205307,1,0,0:0:0:1:
384,192,205307,128,0,205552:0:0:0:1:
128,192,205307,1,0,0:0:0:0:
213,192,205470,1,0,0:0:0:0:
469,192,205634,1,0,0:0:0:1:
384,192,205634,1,0,0:0:0:0:
128,192,205634,1,0,0:0:0:0:
128,192,205798,1,0,0:0:0:1:
298,192,205798,1,0,0:0:0:0:
298,192,205962,1,0,0:0:0:1:
384,192,205962,128,0,206208:0:0:0:1:
213,192,205962,1,0,0:0:0:0:
128,192,206126,1,0,0:0:0:0:
298,192,206290,128,0,207602:0:0:0:1:
384,192,206290,1,0,0:0:0:0:
213,192,206290,1,0,0:0:0:0:
469,192,206454,1,0,0:0:0:1:
213,192,206454,1,0,0:0:0:0:
128,192,206618,1,0,0:0:0:1:
42,192,206618,128,0,206864:0:0:0:1:
384,192,206618,1,0,0:0:0:0:
213,192,206782,1,0,0:0:0:0:
469,192,206946,1,0,0:0:0:1:
42,192,206946,1,0,0:0:0:0:
384,192,206946,1,0,0:0:0:0:
213,192,207110,1,0,0:0:0:1:
384,192,207110,1,0,0:0:0:0:
42,192,207274,128,0,207520:0:0:0:1:
469,192,207274,1,0,0:0:0:0:
128,192,207274,1,0,0:0:0:0:
213,192,207438,1,0,0:0:0:0:
42,192,207602,1,0,0:0:0:1:
384,192,207602,128,0,207848:0:0:0:1:
469,192,207602,128,0,208913:0:0:0:1:
128,192,207602,1,0,0:0:0:0:
128,192,207766,1,0,0:0:0:0:
298,192,207929,1,0,0:0:0:1:
42,192,207929,1,0,0:0:0:1:
384,192,207929,128,0,208175:0:0:0:1:
213,192,207929,1,0,0:0:0:0:
128,192,208093,1,0,0:0:0:0:
42,192,208257,1,0,0:0:0:1:
384,192,208257,128,0,208503:0:0:0:1:
213,192,208257,1,0,0:0:0:0:
213,192,208421,1,0,0:0:0:0:
298,192,208585,1,0,0:0:0:1:
42,192,208585,1,0,0:0:0:1:
384,192,208585,128,0,208831:0:0:0:1:
128,192,208585,1,0,0:0:0:0:
213,192,208749,1,0,0:0:0:0:
298,192,208913,1,0,0:0:0:1:
384,192,208913,1,0,0:0:0:1:
42,192,208913,1,0,0:0:0:0:
128,192,208913,1,0,0:0:0:0:
213,192,208995,1,0,0:0:0:1:
384,192,209077,1,0,0:0:0:1:
469,192,209077,1,0,0:0:0:1:
42,192,209077,1,0,0:0:0:0:
128,192,209077,1,0,0:0:0:0:
298,192,209159,1,0,0:0:0:1:
213,192,209241,1,0,0:0:0:1:
128,192,209241,1,0,0:0:0:0:
42,192,209241,1,0,0:0:0:0:
469,192,209241,1,0,0:0:0:0:
384,192,209241,1,0,0:0:0:0:
298,192,209323,1,0,0:0:0:1:
469,192,209405,1,0,0:0:0:0:
384,192,209405,1,0,0:0:0:0:
42,192,209405,1,0,0:0:0:0:
128,192,209405,1,0,0:0:0:0:
213,192,209487,1,0,0:0:0:1:
298,192,209569,1,0,0:0:0:1:
42,192,209569,1,0,0:0:0:0:
128,192,209569,1,0,0:0:0:0:
469,192,209569,1,0,0:0:0:0:
213,192,209651,1,0,0:0:0:1:
384,192,209651,1,0,0:0:0:1:
298,192,209733,1,0,0:0:0:0:
42,192,209733,1,0,0:0:0:0:
128,192,209733,1,0,0:0:0:0:
384,192,209815,1,0,0:0:0:1:
469,192,209815,1,0,0:0:0:1:
128,192,209897,1,0,0:0:0:0:
42,192,209897,1,0,0:0:0:0:
213,192,209897,1,0,0:0:0:0:
469,192,209979,1,0,0:0:0:0:
384,192,209979,1,0,0:0:0:0:
298,192,209979,1,0,0:0:0:0:
42,192,210061,1,0,0:0:0:0:
128,192,210061,1,0,0:0:0:0:
213,192,210061,1,0,0:0:0:0:
469,192,210143,1,0,0:0:0:0:
384,192,210143,1,0,0:0:0:0:
298,192,210143,1,0,0:0:0:0:
128,192,210225,1,0,0:0:0:1:
213,192,210225,1,0,0:0:0:1:
42,192,210225,128,0,211454:0:0:0:1:
213,192,210388,1,0,0:0:0:1:
298,192,210388,1,0,0:0:0:1:
384,192,210552,1,0,0:0:0:1:
128,192,210552,128,0,210798:0:0:0:1:
469,192,210552,128,0,210962:0:0:0:1:
213,192,210716,1,0,0:0:0:1:
384,192,210716,128,0,210962:0:0:0:1:
128,192,210880,1,0,0:0:0:1:
298,192,210880,1,0,0:0:0:1:
384,192,211044,1,0,0:0:0:1:
469,192,211044,128,0,211208:0:0:0:0:
128,192,211208,1,0,0:0:0:1:
298,192,211208,1,0,0:0:0:1:
213,192,211208,128,0,211454:0:0:0:1:
469,192,211372,1,0,0:0:0:1:
384,192,211372,128,0,211618:0:0:0:1:
213,192,211536,1,0,0:0:0:1:
42,192,211536,1,0,0:0:0:1:
469,192,211536,128,0,211946:0:0:0:1:
213,192,211700,1,0,0:0:0:1:
298,192,211700,128,0,211946:0:0:0:1:
128,192,211864,1,0,0:0:0:1:
42,192,211864,128,0,212110:0:0:0:1:
469,192,212028,1,0,0:0:0:1:
213,192,212028,128,0,212274:0:0:0:1:
384,192,212028,128,0,212438:0:0:0:1:
128,192,212192,1,0,0:0:0:1:
298,192,212192,1,0,0:0:0:1:
42,192,212192,1,0,0:0:0:1:
213,192,212356,1,0,0:0:0:1:
42,192,212356,128,0,212602:0:0:0:1:
469,192,212520,1,0,0:0:0:1:
128,192,212520,128,0,212602:0:0:0:1:
298,192,212520,128,0,212766:0:0:0:1:
213,192,212684,1,0,0:0:0:1:
128,192,212848,1,0,0:0:0:1:
298,192,212848,1,0,0:0:0:1:
469,192,212848,128,0,213421:0:0:0:1:
42,192,212848,128,0,213093:0:0:0:1:
298,192,213011,1,0,0:0:0:1:
42,192,213175,1,0,0:0:0:1:
213,192,213175,128,0,213257:0:0:0:1:
384,192,213175,128,0,213421:0:0:0:1:
213,192,213339,1,0,0:0:0:1:
128,192,213339,128,0,213585:0:0:0:1:
384,192,213503,1,0,0:0:0:1:
42,192,213503,1,0,0:0:0:1:
298,192,213503,128,0,214159:0:0:0:1:
128,192,213667,1,0,0:0:0:1:
213,192,213667,128,0,213913:0:0:0:1:
469,192,213831,1,0,0:0:0:1:
384,192,213831,128,0,214077:0:0:0:1:
213,192,213995,1,0,0:0:0:1:
42,192,213995,128,0,214815:0:0:0:1:
128,192,214159,1,0,0:0:0:1:
384,192,214159,1,0,0:0:0:1:
469,192,214159,1,0,0:0:0:1:
298,192,214323,1,0,0:0:0:1:
469,192,214323,128,0,214815:0:0:0:1:
213,192,214487,1,0,0:0:0:1:
128,192,214487,128,0,214733:0:0:0:1:
384,192,214487,128,0,214815:0:0:0:1:
298,192,214651,128,0,215061:0:0:0:1:
128,192,214815,1,0,0:0:0:1:
213,192,214815,128,0,214979:0:0:0:1:
384,192,214979,1,0,0:0:0:1:
42,192,214979,128,0,215143:0:0:0:1:
213,192,215143,1,0,0:0:0:1:
298,192,215143,128,0,215307:0:0:0:1:
469,192,215143,128,0,215388:0:0:0:1:
384,192,215307,1,0,0:0:0:1:
128,192,215307,128,0,215470:0:0:0:1:
42,192,215470,1,0,0:0:0:1:
298,192,215470,128,0,215716:0:0:0:1:
469,192,215470,128,0,216700:0:0:0:1:
128,192,215634,1,0,0:0:0:1:
213,192,215634,1,0,0:0:0:1:
128,192,215798,1,0,0:0:0:1:
298,192,215798,1,0,0:0:0:1:
384,192,215798,1,0,0:0:0:1:
298,192,215962,1,0,0:0:0:1:
42,192,215962,1,0,0:0:0:1:
128,192,216126,1,0,0:0:0:1:
213,192,216126,128,0,216372:0:0:0:1:
384,192,216126,128,0,216700:0:0:0:1:
128,192,216290,1,0,0:0:0:1:
213,192,216454,1,0,0:0:0:1:
298,192,216454,1,0,0:0:0:1:
128,192,216618,1,0,0:0:0:1:
42,192,216618,128,0,216864:0:0:0:1:
298,192,216782,1,0,0:0:0:1:
469,192,216782,1,0,0:0:0:1:
298,192,216946,1,0,0:0:0:1:
213,192,216946,128,0,217192:0:0:0:1:
384,192,217110,1,0,0:0:0:1:
469,192,217110,128,0,217356:0:0:0:1:
42,192,217110,128,0,217274:0:0:0:1:
128,192,217274,128,0,217520:0:0:0:1:
298,192,217274,128,0,217438:0:0:0:1:
384,192,217438,1,0,0:0:0:1:
469,192,217438,128,0,217684:0:0:0:1:
213,192,217602,1,0,0:0:0:1:
42,192,217602,1,0,0:0:0:1:
128,192,217766,1,0,0:0:0:1:
213,192,217766,1,0,0:0:0:1:
469,192,217766,1,0,0:0:0:1:
384,192,217766,128,0,218011:0:0:0:1:
298,192,217929,1,0,0:0:0:1:
42,192,217929,128,0,219241:0:0:0:1:
128,192,218093,1,0,0:0:0:1:
213,192,218093,1,0,0:0:0:1:
384,192,218093,1,0,0:0:0:1:
469,192,218093,128,0,218421:0:0:0:1:
298,192,218257,128,0,218585:0:0:0:1:
213,192,218421,1,0,0:0:0:1:
384,192,218421,1,0,0:0:0:1:
128,192,218421,128,0,218749:0:0:0:1:
469,192,218585,128,0,218913:0:0:0:1:
213,192,218749,1,0,0:0:0:1:
384,192,218749,1,0,0:0:0:1:
298,192,218749,128,0,219077:0:0:0:1:
128,192,218913,128,0,219241:0:0:0:1:
213,192,219077,1,0,0:0:0:1:
384,192,219077,1,0,0:0:0:1:
469,192,219077,128,0,219405:0:0:0:1:
298,192,219241,128,0,219405:0:0:0:1:
128,192,219405,1,0,0:0:0:1:
384,192,219405,1,0,0:0:0:1:
42,192,219405,1,0,0:0:0:1:
128,192,219569,1,0,0:0:0:1:
298,192,219569,1,0,0:0:0:1:
469,192,219569,1,0,0:0:0:1:
42,192,219569,1,0,0:0:0:1:
213,192,219651,1,0,0:0:0:1:
384,192,219651,1,0,0:0:0:1:
128,192,219733,1,0,0:0:0:1:
298,192,219733,1,0,0:0:0:1:
469,192,219733,1,0,0:0:0:1:
42,192,219733,1,0,0:0:0:1:
213,192,219897,1,0,0:0:0:1:
384,192,219897,1,0,0:0:0:1:
469,192,219897,1,0,0:0:0:1:
128,192,219979,1,0,0:0:0:1:
42,192,219979,1,0,0:0:0:1:
298,192,220061,1,0,0:0:0:1:
384,192,220061,1,0,0:0:0:1:
469,192,220061,1,0,0:0:0:1:
128,192,220143,1,0,0:0:0:1:
213,192,220143,1,0,0:0:0:1:
42,192,220143,1,0,0:0:0:1:
384,192,220225,1,0,0:0:0:1:
469,192,220225,1,0,0:0:0:1:
213,192,220307,1,0,0:0:0:1:
298,192,220307,1,0,0:0:0:1:
128,192,220388,1,0,0:0:0:1:
384,192,220388,1,0,0:0:0:1:
469,192,220388,1,0,0:0:0:1:
42,192,220388,1,0,0:0:0:1:
213,192,220552,1,0,0:0:0:1:
298,192,220552,1,0,0:0:0:1:
469,192,220552,1,0,0:0:0:1:
42,192,220552,1,0,0:0:0:1:
128,192,220716,1,0,0:0:0:1:
384,192,220716,1,0,0:0:0:1:
469,192,220716,128,0,221044:0:0:0:1:
42,192,220716,128,0,221700:0:0:0:1:
213,192,220880,1,0,0:0:0:1:
298,192,220880,1,0,0:0:0:1:
128,192,221044,1,0,0:0:0:1:
384,192,221044,128,0,221208:0:0:0:1:
213,192,221208,1,0,0:0:0:1:
298,192,221208,128,0,221536:0:0:0:1:
128,192,221372,1,0,0:0:0:1:
469,192,221372,1,0,0:0:0:1:
384,192,221536,1,0,0:0:0:1:
213,192,221536,128,0,221864:0:0:0:1:
298,192,221700,1,0,0:0:0:1:
469,192,221700,1,0,0:0:0:1:
128,192,221700,128,0,222028:0:0:0:1:
384,192,221864,1,0,0:0:0:1:
469,192,221864,128,0,222192:0:0:0:1:
298,192,222028,1,0,0:0:0:1:
42,192,222028,1,0,0:0:0:1:
213,192,222028,128,0,222356:0:0:0:1:
128,192,222192,1,0,0:0:0:1:
298,192,222192,128,0,222520:0:0:0:1:
469,192,222356,1,0,0:0:0:1:
42,192,222356,1,0,0:0:0:1:
213,192,222520,1,0,0:0:0:1:
128,192,222520,128,0,223011:0:0:0:1:
384,192,222520,128,0,222848:0:0:0:1:
469,192,222684,1,0,0:0:0:1:
42,192,222684,1,0,0:0:0:1:
298,192,222848,1,0,0:0:0:1:
213,192,222848,128,0,223175:0:0:0:1:
384,192,223011,1,0,0:0:0:1:
469,192,223011,1,0,0:0:0:1:
298,192,223011,128,0,223339:0:0:0:1:
42,192,223011,128,0,223667:0:0:0:1:
128,192,223175,1,0,0:0:0:1:
384,192,223339,1,0,0:0:0:1:
213,192,223339,128,0,223995:0:0:0:1:
469,192,223339,128,0,223831:0:0:0:1:
298,192,223503,1,0,0:0:0:1:
128,192,223667,1,0,0:0:0:1:
384,192,223667,128,0,223831:0:0:0:1:
42,192,223831,1,0,0:0:0:1:
298,192,223831,128,0,224159:0:0:0:1:
384,192,223995,1,0,0:0:0:1:
469,192,223995,1,0,0:0:0:1:
128,192,223995,128,0,224651:0:0:0:1:
213,192,224159,1,0,0:0:0:1:
384,192,224159,128,0,224487:0:0:0:1:
298,192,224323,1,0,0:0:0:1:
42,192,224323,1,0,0:0:0:1:
213,192,224487,1,0,0:0:0:1:
469,192,224487,128,0,224979:0:0:0:1:
384,192,224651,1,0,0:0:0:1:
213,192,224651,128,0,224815:0:0:0:1:
42,192,224651,128,0,226126:0:0:0:1:
128,192,224815,128,0,224979:0:0:0:1:
298,192,224815,128,0,225143:0:0:0:1:
213,192,224979,128,0,225143:0:0:0:1:
384,192,224979,128,0,225307:0:0:0:1:
128,192,225143,128,0,225307:0:0:0:1:
469,192,225143,128,0,225798:0:0:0:1:
298,192,225307,1,0,0:0:0:1:
213,192,225307,128,0,225470:0:0:0:1:
298,192,225470,128,0,225634:0:0:0:1:
128,192,225634,1,0,0:0:0:1:
384,192,225634,1,0,0:0:0:1:
213,192,225634,128,0,225798:0:0:0:1:
298,192,225798,128,0,225962:0:0:0:1:
384,192,225962,1,0,0:0:0:1:
213,192,225962,128,0,226454:0:0:0:1:
469,192,225962,128,0,227274:0:0:0:1:
384,192,226126,1,0,0:0:0:1:
128,192,226290,1,0,0:0:0:1:
42,192,226290,1,0,0:0:0:1:
298,192,226454,1,0,0:0:0:1:
128,192,226454,128,0,226946:0:0:0:1:
384,192,226454,128,0,226946:0:0:0:1:
213,192,226618,1,0,0:0:0:1:
42,192,226618,1,0,0:0:0:1:
298,192,226782,1,0,0:0:0:1:
213,192,226946,1,0,0:0:0:1:
298,192,226946,128,0,227274:0:0:0:1:
42,192,226946,128,0,227438:0:0:0:1:
128,192,227110,1,0,0:0:0:1:
213,192,227274,128,0,227766:0:0:0:1:
384,192,227274,128,0,228749:0:0:0:1:
128,192,227438,1,0,0:0:0:1:
469,192,227602,1,0,0:0:0:1:
42,192,227602,1,0,0:0:0:1:
128,192,227766,128,0,228257:0:0:0:1:
298,192,227766,128,0,228257:0:0:0:1:
469,192,227929,1,0,0:0:0:1:
42,192,227929,1,0,0:0:0:1:
213,192,228093,1,0,0:0:0:1:
42,192,228257,1,0,0:0:0:1:
213,192,228257,128,0,228585:0:0:0:1:
469,192,228257,128,0,228749:0:0:0:1:
128,192,228421,1,0,0:0:0:1:
298,192,228585,1,0,0:0:0:1:
128,192,228585,128,0,229569:0:0:0:1:
42,192,228585,128,0,231126:0:0:0:1:
298,192,228749,1,0,0:0:0:1:
213,192,228913,1,0,0:0:0:1:
384,192,228913,1,0,0:0:0:1:
469,192,228913,1,0,0:0:0:1:
298,192,229077,1,0,0:0:0:1:
384,192,229241,1,0,0:0:0:1:
469,192,229241,1,0,0:0:0:1:
298,192,229405,1,0,0:0:0:1:
213,192,229405,128,0,229569:0:0:0:1:
384,192,229569,1,0,0:0:0:1:
469,192,229569,1,0,0:0:0:1:
298,192,229569,128,0,229733:0:0:0:1:
213,192,229733,1,0,0:0:0:1:
384,192,229733,128,0,230880:0:0:0:1:
298,192,229897,1,0,0:0:0:1:
128,192,229897,128,0,230143:0:0:0:1:
469,192,229897,128,0,230880:0:0:0:1:
298,192,230061,1,0,0:0:0:1:
213,192,230225,1,0,0:0:0:1:
128,192,230225,128,0,230470:0:0:0:1:
298,192,230388,1,0,0:0:0:1:
213,192,230552,1,0,0:0:0:1:
128,192,230552,128,0,230798:0:0:0:1:
213,192,230716,1,0,0:0:0:1:
298,192,230880,1,0,0:0:0:1:
128,192,230880,128,0,231126:0:0:0:1:
213,192,231044,1,0,0:0:0:1:
384,192,231044,1,0,0:0:0:1:
469,192,231044,1,0,0:0:0:1:
128,192,231208,1,0,0:0:0:1:
298,192,231208,1,0,0:0:0:1:
384,192,231208,128,0,231864:0:0:0:1:
42,192,231208,128,0,232192:0:0:0:1:
298,192,231372,1,0,0:0:0:1:
128,192,231536,1,0,0:0:0:1:
469,192,231536,1,0,0:0:0:1:
213,192,231536,128,0,231700:0:0:0:1:
298,192,231700,1,0,0:0:0:1:
469,192,231700,128,0,232192:0:0:0:1:
128,192,231864,1,0,0:0:0:1:
213,192,231864,1,0,0:0:0:1:
384,192,232028,1,0,0:0:0:1:
298,192,232028,128,0,232356:0:0:0:1:
213,192,232192,1,0,0:0:0:1:
128,192,232192,128,0,232520:0:0:0:1:
384,192,232356,1,0,0:0:0:1:
469,192,232356,128,0,233175:0:0:0:1:
298,192,232520,1,0,0:0:0:1:
42,192,232520,1,0,0:0:0:1:
213,192,232520,128,0,233011:0:0:0:1:
128,192,232684,1,0,0:0:0:1:
384,192,232684,128,0,233175:0:0:0:1:
42,192,232848,1,0,0:0:0:1:
128,192,233011,128,0,233503:0:0:0:1:
298,192,233011,128,0,233503:0:0:0:1:
213,192,233175,1,0,0:0:0:1:
384,192,233339,1,0,0:0:0:1:
469,192,233339,1,0,0:0:0:1:
42,192,233503,1,0,0:0:0:1:
213,192,233503,128,0,233831:0:0:0:1:
469,192,233503,128,0,233831:0:0:0:1:
384,192,233667,1,0,0:0:0:1:
128,192,233831,1,0,0:0:0:1:
298,192,233831,128,0,234159:0:0:0:1:
42,192,233831,128,0,234487:0:0:0:1:
384,192,233995,1,0,0:0:0:1:
213,192,234159,1,0,0:0:0:1:
469,192,234159,1,0,0:0:0:1:
384,192,234323,1,0,0:0:0:1:
213,192,234323,128,0,234815:0:0:0:1:
298,192,234487,1,0,0:0:0:1:
128,192,234487,128,0,235143:0:0:0:1:
469,192,234651,1,0,0:0:0:1:
42,192,234651,1,0,0:0:0:1:
384,192,234651,128,0,235143:0:0:0:1:
298,192,234815,1,0,0:0:0:1:
213,192,234979,1,0,0:0:0:1:
469,192,234979,128,0,235798:0:0:0:1:
298,192,235143,1,0,0:0:0:1:
42,192,235143,1,0,0:0:0:1:
213,192,235143,128,0,236454:0:0:0:1:
42,192,235307,1,0,0:0:0:1:
384,192,235307,128,0,235470:0:0:0:1:
128,192,235470,1,0,0:0:0:1:
298,192,235470,128,0,235634:0:0:0:1:
384,192,235634,1,0,0:0:0:1:
42,192,235634,128,0,236618:0:0:0:1:
128,192,235798,1,0,0:0:0:1:
384,192,235798,128,0,235962:0:0:0:1:
298,192,235962,128,0,236126:0:0:0:1:
128,192,236126,1,0,0:0:0:1:
469,192,236126,1,0,0:0:0:1:
384,192,236126,128,0,236290:0:0:0:1:
298,192,236290,128,0,236454:0:0:0:1:
128,192,236454,1,0,0:0:0:1:
384,192,236454,1,0,0:0:0:1:
469,192,236454,128,0,237438:0:0:0:1:
213,192,236618,1,0,0:0:0:1:
298,192,236618,128,0,236782:0:0:0:1:
384,192,236782,1,0,0:0:0:1:
42,192,236782,1,0,0:0:0:1:
213,192,236782,128,0,236946:0:0:0:1:
128,192,236946,128,0,237110:0:0:0:1:
298,192,237110,1,0,0:0:0:1:
384,192,237110,128,0,238421:0:0:0:1:
42,192,237110,128,0,237766:0:0:0:1:
213,192,237274,1,0,0:0:0:1:
298,192,237438,1,0,0:0:0:1:
128,192,237438,128,0,237766:0:0:0:1:
469,192,237602,1,0,0:0:0:1:
213,192,237602,128,0,238093:0:0:0:1:
298,192,237766,1,0,0:0:0:1:
469,192,237929,1,0,0:0:0:1:
42,192,237929,1,0,0:0:0:1:
128,192,237929,128,0,238257:0:0:0:1:
298,192,238093,1,0,0:0:0:1:
213,192,238257,1,0,0:0:0:1:
42,192,238257,128,0,238585:0:0:0:1:
469,192,238421,1,0,0:0:0:1:
298,192,238421,128,0,238749:0:0:0:1:
128,192,238585,1,0,0:0:0:1:
213,192,238585,128,0,238913:0:0:0:1:
469,192,238749,1,0,0:0:0:1:
384,192,238749,128,0,239077:0:0:0:1:
128,192,238913,1,0,0:0:0:1:
42,192,238913,128,0,239077:0:0:0:1:
298,192,239077,1,0,0:0:0:1:
213,192,239077,128,0,239241:0:0:0:1:
469,192,239077,128,0,240061:0:0:0:1:
128,192,239241,1,0,0:0:0:1:
298,192,239241,128,0,239897:0:0:0:1:
42,192,239241,128,0,240061:0:0:0:1:
213,192,239405,1,0,0:0:0:1:
384,192,239405,1,0,0:0:0:1:
128,192,239569,1,0,0:0:0:1:
213,192,239733,1,0,0:0:0:1:
384,192,239733,1,0,0:0:0:1:
128,192,239897,1,0,0:0:0:1:
213,192,240061,1,0,0:0:0:1:
298,192,240061,128,0,240388:0:0:0:1:
128,192,240225,1,0,0:0:0:1:
42,192,240225,1,0,0:0:0:1:
384,192,240225,128,0,240388:0:0:0:1:
128,192,240388,1,0,0:0:0:1:
42,192,240388,1,0,0:0:0:1:
469,192,240388,128,0,241700:0:0:0:1:
298,192,240552,1,0,0:0:0:1:
384,192,240552,1,0,0:0:0:1:
128,192,240634,1,0,0:0:0:1:
42,192,240634,1,0,0:0:0:1:
213,192,240716,1,0,0:0:0:1:
384,192,240716,1,0,0:0:0:1:
128,192,240798,1,0,0:0:0:1:
42,192,240798,1,0,0:0:0:1:
213,192,240880,1,0,0:0:0:1:
298,192,240880,1,0,0:0:0:1:
384,192,240962,1,0,0:0:0:1:
42,192,240962,1,0,0:0:0:1:
128,192,241044,1,0,0:0:0:1:
213,192,241044,1,0,0:0:0:1:
298,192,241126,1,0,0:0:0:1:
384,192,241126,1,0,0:0:0:1:
128,192,241208,1,0,0:0:0:1:
42,192,241208,1,0,0:0:0:1:
298,192,241290,1,0,0:0:0:1:
384,192,241290,1,0,0:0:0:1:
128,192,241372,1,0,0:0:0:1:
213,192,241372,1,0,0:0:0:1:
42,192,241372,1,0,0:0:0:1:
298,192,241454,1,0,0:0:0:1:
384,192,241454,1,0,0:0:0:1:
128,192,241536,1,0,0:0:0:1:
42,192,241536,1,0,0:0:0:1:
298,192,241618,1,0,0:0:0:1:
384,192,241618,1,0,0:0:0:1:
213,192,241700,128,0,241864:0:0:0:1:
42,192,241700,128,0,241864:0:0:0:1:
128,192,241864,128,0,242192:0:0:0:1:
298,192,241864,128,0,242028:0:0:0:1:
213,192,242028,128,0,242192:0:0:0:1:
384,192,242028,128,0,242192:0:0:0:1:
42,192,242028,128,0,242520:0:0:0:1:
298,192,242192,128,0,242356:0:0:0:1:
469,192,242192,128,0,242356:0:0:0:1:
128,192,242356,128,0,242684:0:0:0:1:
213,192,242356,128,0,242520:0:0:0:1:
384,192,242356,128,0,242520:0:0:0:1:
298,192,242520,128,0,242684:0:0:0:1:
469,192,242520,128,0,243011:0:0:0:1:
213,192,242684,128,0,242848:0:0:0:1:
384,192,242684,128,0,242848:0:0:0:1:
42,192,242684,128,0,242848:0:0:0:1:
128,192,242848,128,0,243175:0:0:0:1:
298,192,242848,128,0,243011:0:0:0:1:
213,192,243011,128,0,243339:0:0:0:1:
384,192,243011,128,0,243175:0:0:0:1:
42,192,243011,128,0,243175:0:0:0:1:
298,192,243175,128,0,243339:0:0:0:1:
469,192,243175,128,0,243503:0:0:0:1:
128,192,243339,128,0,243503:0:0:0:1:
384,192,243339,128,0,243503:0:0:0:1:
42,192,243339,128,0,243503:0:0:0:1:
213,192,243503,128,0,243667:0:0:0:1:
298,192,243503,128,0,243667:0:0:0:1:
384,192,243667,128,0,243995:0:0:0:1:
469,192,243667,128,0,243995:0:0:0:1:
42,192,243667,128,0,243831:0:0:0:1:
213,192,243831,128,0,243995:0:0:0:1:
128,192,243995,128,0,244241:0:0:0:1:
298,192,243995,128,0,244159:0:0:0:1:
42,192,243995,128,0,244241:0:0:0:1:
213,192,244159,128,0,244241:0:0:0:1:
469,192,244159,128,0,244241:0:0:0:1:
128,192,244323,1,0,0:0:0:1:
213,192,244323,1,0,0:0:0:1:
469,192,244323,1,0,0:0:0:1:
42,192,244323,1,0,0:0:0:1:
384,192,244323,128,0,245552:0:0:0:1:
298,192,244487,128,0,244651:0:0:0:1:
213,192,244569,128,0,244815:0:0:0:1:
469,192,244651,1,0,0:0:0:1:
128,192,244651,128,0,244897:0:0:0:1:
42,192,244651,128,0,244897:0:0:0:1:
298,192,244815,128,0,244979:0:0:0:1:
213,192,244897,128,0,245143:0:0:0:1:
469,192,244979,1,0,0:0:0:1:
128,192,244979,128,0,245225:0:0:0:1:
42,192,244979,128,0,245225:0:0:0:1:
298,192,245143,128,0,245307:0:0:0:1:
213,192,245225,128,0,245470:0:0:0:1:
469,192,245307,1,0,0:0:0:1:
128,192,245307,128,0,245552:0:0:0:1:
42,192,245307,128,0,245552:0:0:0:1:
298,192,245470,128,0,245552:0:0:0:1:
213,192,245552,128,0,245634:0:0:0:1:
128,192,245634,1,0,0:0:0:1:
42,192,245634,1,0,0:0:0:1:
298,192,245634,128,0,245798:0:0:0:1:
384,192,245634,128,0,245880:0:0:0:1:
469,192,245634,128,0,245880:0:0:0:1:
128,192,245798,1,0,0:0:0:1:
298,192,245880,1,0,0:0:0:1:
42,192,245962,1,0,0:0:0:1:
213,192,245962,128,0,246126:0:0:0:1:
384,192,245962,128,0,246208:0:0:0:1:
469,192,245962,128,0,246208:0:0:0:1:
128,192,246126,1,0,0:0:0:1:
213,192,246208,1,0,0:0:0:1:
42,192,246290,1,0,0:0:0:1:
298,192,246290,128,0,246454:0:0:0:1:
384,192,246290,128,0,246536:0:0:0:1:
469,192,246290,128,0,246536:0:0:0:1:
128,192,246454,1,0,0:0:0:1:
298,192,246536,1,0,0:0:0:1:
42,192,246618,1,0,0:0:0:1:
213,192,246618,128,0,246782:0:0:0:1:
384,192,246618,128,0,246864:0:0:0:1:
469,192,246618,128,0,246864:0:0:0:1:
128,192,246782,1,0,0:0:0:1:
213,192,246864,1,0,0:0:0:1:
384,192,246946,1,0,0:0:0:1:
298,192,246946,128,0,247192:0:0:0:1:
469,192,246946,128,0,247192:0:0:0:1:
42,192,246946,128,0,247192:0:0:0:1:
469,192,247274,1,0,0:0:0:0:
384,192,247274,1,0,0:0:0:0:
128,192,247274,1,0,0:0:0:0:
42,192,247274,1,0,0:0:0:0:
384,192,247438,1,0,0:0:0:0:
298,192,247438,1,0,0:0:0:0:
128,192,247438,1,0,0:0:0:0:
469,192,247602,1,0,0:0:0:0:
298,192,247602,1,0,0:0:0:0:
213,192,247602,1,0,0:0:0:0:
42,192,247602,1,0,0:0:0:0:
128,192,247766,1,0,0:0:0:0:
42,192,247766,1,0,0:0:0:0:
298,192,247766,1,0,0:0:0:0:
128,192,247929,1,0,0:0:0:0:
213,192,247929,1,0,0:0:0:0:
384,192,247929,1,0,0:0:0:0:
469,192,247929,1,0,0:0:0:0:
298,192,248093,1,0,0:0:0:0:
42,192,248093,1,0,0:0:0:0:
213,192,248093,1,0,0:0:0:0:
128,192,248257,1,0,0:0:0:1:
213,192,248257,1,0,0:0:0:1:
469,192,248257,1,0,0:0:0:1:
42,192,248257,1,0,0:0:0:1:
298,192,248257,1,0,0:0:0:0:
384,192,248257,1,0,0:0:0:0:
42,192,249241,1,0,0:0:0:1:
128,192,249282,1,0,0:0:0:1:
213,192,249323,1,0,0:0:0:1:
298,192,249364,1,0,0:0:0:1:
128,192,249405,1,0,0:0:0:1:
384,192,249405,1,0,0:0:0:1:
213,192,249446,1,0,0:0:0:1:
298,192,249487,1,0,0:0:0:1:
384,192,249528,1,0,0:0:0:1:
42,192,249569,128,0,250470:0:0:0:1:
469,192,249569,1,0,0:0:0:0:
128,192,249569,1,0,0:0:0:0:
298,192,249733,1,0,0:0:0:1:
213,192,249733,1,0,0:0:0:0:
469,192,249897,1,0,0:0:0:1:
384,192,249897,1,0,0:0:0:0:
128,192,249897,1,0,0:0:0:0:
213,192,250061,1,0,0:0:0:0:
128,192,250225,1,0,0:0:0:1:
298,192,250225,1,0,0:0:0:1:
469,192,250225,1,0,0:0:0:0:
298,192,250388,1,0,0:0:0:1:
213,192,250388,1,0,0:0:0:0:
469,192,250552,1,0,0:0:0:1:
213,192,250552,128,0,250798:0:0:0:1:
384,192,250552,1,0,0:0:0:0:
42,192,250552,1,0,0:0:0:0:
298,192,250716,1,0,0:0:0:0:
213,192,250880,1,0,0:0:0:1:
469,192,250880,128,0,251290:0:0:0:1:
384,192,250880,1,0,0:0:0:0:
42,192,250880,1,0,0:0:0:0:
213,192,251044,1,0,0:0:0:1:
298,192,251044,1,0,0:0:0:0:
42,192,251208,1,0,0:0:0:1:
384,192,251208,1,0,0:0:0:0:
128,192,251208,1,0,0:0:0:0:
298,192,251372,128,0,251782:0:0:0:1:
213,192,251372,1,0,0:0:0:0:
384,192,251536,1,0,0:0:0:1:
42,192,251536,1,0,0:0:0:0:
128,192,251536,1,0,0:0:0:0:
384,192,251700,1,0,0:0:0:1:
213,192,251700,1,0,0:0:0:0:
298,192,251864,1,0,0:0:0:1:
128,192,251864,128,0,252110:0:0:0:1:
469,192,251864,1,0,0:0:0:0:
42,192,251864,1,0,0:0:0:0:
298,192,252028,1,0,0:0:0:1:
213,192,252028,1,0,0:0:0:0:
128,192,252192,1,0,0:0:0:1:
42,192,252192,128,0,252766:0:0:0:1:
384,192,252192,1,0,0:0:0:0:
469,192,252192,1,0,0:0:0:0:
128,192,252356,1,0,0:0:0:1:
298,192,252356,1,0,0:0:0:0:
384,192,252520,1,0,0:0:0:1:
213,192,252520,1,0,0:0:0:0:
469,192,252520,1,0,0:0:0:0:
128,192,252684,1,0,0:0:0:0:
298,192,252848,1,0,0:0:0:1:
213,192,252848,128,0,253421:0:0:0:1:
469,192,252848,1,0,0:0:0:0:
42,192,252848,1,0,0:0:0:0:
298,192,253011,1,0,0:0:0:1:
384,192,253011,1,0,0:0:0:0:
42,192,253175,1,0,0:0:0:1:
469,192,253175,1,0,0:0:0:0:
128,192,253175,1,0,0:0:0:0:
384,192,253339,1,0,0:0:0:0:
298,192,253503,1,0,0:0:0:1:
128,192,253503,128,0,254733:0:0:0:1:
469,192,253503,1,0,0:0:0:0:
42,192,253503,1,0,0:0:0:0:
298,192,253667,1,0,0:0:0:1:
213,192,253667,1,0,0:0:0:0:
469,192,253831,1,0,0:0:0:1:
42,192,253831,1,0,0:0:0:0:
384,192,253831,1,0,0:0:0:0:
298,192,253995,1,0,0:0:0:0:
469,192,254159,1,0,0:0:0:1:
213,192,254159,1,0,0:0:0:0:
42,192,254159,1,0,0:0:0:0:
384,192,254241,1,0,0:0:0:1:
298,192,254323,1,0,0:0:0:0:
384,192,254405,1,0,0:0:0:1:
213,192,254487,1,0,0:0:0:1:
42,192,254487,128,0,254733:0:0:0:1:
469,192,254487,1,0,0:0:0:0:
298,192,254651,1,0,0:0:0:0:
469,192,254815,128,0,256044:0:0:0:1:
384,192,254815,1,0,0:0:0:0:
213,192,254815,128,0,255061:0:0:0:0:
42,192,254815,1,0,0:0:0:0:
128,192,254815,1,0,0:0:0:0:
298,192,254979,1,0,0:0:0:0:
42,192,254979,1,0,0:0:0:0:
128,192,254979,1,0,0:0:0:0:
42,192,255143,1,0,0:0:0:0:
384,192,255143,1,0,0:0:0:0:
213,192,255143,1,0,0:0:0:0:
384,192,255307,128,0,256044:0:0:0:1:
42,192,255307,128,0,255552:0:0:0:0:
298,192,255307,1,0,0:0:0:0:
128,192,255307,1,0,0:0:0:0:
213,192,255470,1,0,0:0:0:0:
298,192,255470,1,0,0:0:0:0:
128,192,255470,1,0,0:0:0:0:
213,192,255634,1,0,0:0:0:0:
42,192,255634,1,0,0:0:0:0:
298,192,255798,128,0,256044:0:0:0:1:
213,192,255798,128,0,256126:0:0:0:0:
42,192,255798,1,0,0:0:0:0:
128,192,255798,1,0,0:0:0:0:
42,192,255962,1,0,0:0:0:0:
128,192,255962,1,0,0:0:0:0:
42,192,256126,128,0,257356:0:0:0:1:
128,192,256126,1,0,0:0:0:0:
298,192,256126,128,0,256372:0:0:0:0:
469,192,256126,1,0,0:0:0:0:
384,192,256126,1,0,0:0:0:0:
213,192,256290,1,0,0:0:0:0:
384,192,256290,1,0,0:0:0:0:
469,192,256290,1,0,0:0:0:0:
128,192,256454,1,0,0:0:0:0:
469,192,256454,128,0,256700:0:0:0:0:
213,192,256454,128,0,256700:0:0:0:0:
298,192,256454,1,0,0:0:0:0:
128,192,256618,128,0,257356:0:0:0:1:
384,192,256618,1,0,0:0:0:0:
384,192,256782,1,0,0:0:0:0:
213,192,256782,1,0,0:0:0:0:
469,192,256782,128,0,257028:0:0:0:0:
298,192,256782,1,0,0:0:0:0:
298,192,256946,1,0,0:0:0:0:
213,192,257110,128,0,257356:0:0:0:1:
298,192,257110,128,0,257356:0:0:0:0:
384,192,257110,1,0,0:0:0:0:
469,192,257110,1,0,0:0:0:0:
384,192,257274,1,0,0:0:0:0:
469,192,257274,1,0,0:0:0:0:
384,192,257438,1,0,0:0:0:1:
469,192,257438,1,0,0:0:0:1:
128,192,257438,128,0,257684:0:0:0:1:
213,192,257438,128,0,257684:0:0:0:1:
42,192,257438,128,0,257684:0:0:0:1:
298,192,257602,1,0,0:0:0:1:
384,192,257766,1,0,0:0:0:1:
469,192,257766,1,0,0:0:0:1:
128,192,257766,128,0,258011:0:0:0:1:
213,192,257766,128,0,258011:0:0:0:1:
42,192,257766,128,0,258011:0:0:0:1:
298,192,257929,1,0,0:0:0:1:
384,192,258093,1,0,0:0:0:1:
469,192,258093,1,0,0:0:0:1:
128,192,258093,128,0,258339:0:0:0:1:
213,192,258093,128,0,258339:0:0:0:1:
42,192,258093,128,0,258339:0:0:0:1:
298,192,258257,1,0,0:0:0:1:
384,192,258421,1,0,0:0:0:1:
469,192,258421,1,0,0:0:0:1:
128,192,258421,128,0,258667:0:0:0:1:
213,192,258421,128,0,258667:0:0:0:1:
42,192,258421,128,0,258667:0:0:0:1:
298,192,258585,1,0,0:0:0:1:
128,192,258749,1,0,0:0:0:1:
469,192,258749,1,0,0:0:0:1:
384,192,258749,128,0,258913:0:0:0:1:
42,192,258749,128,0,258995:0:0:0:1:
298,192,258913,1,0,0:0:0:1:
213,192,258913,128,0,259159:0:0:0:1:
128,192,259077,1,0,0:0:0:1:
469,192,259077,1,0,0:0:0:1:
42,192,259077,1,0,0:0:0:1:
384,192,259077,128,0,259323:0:0:0:1:
298,192,259241,1,0,0:0:0:1:
213,192,259241,128,0,259405:0:0:0:1:
469,192,259405,1,0,0:0:0:1:
384,192,259405,128,0,259569:0:0:0:1:
42,192,259405,128,0,259651:0:0:0:1:
298,192,259569,1,0,0:0:0:1:
128,192,259569,128,0,259815:0:0:0:1:
384,192,259733,1,0,0:0:0:1:
42,192,259733,1,0,0:0:0:1:
213,192,259733,128,0,259897:0:0:0:1:
469,192,259733,128,0,259979:0:0:0:1:
128,192,259897,1,0,0:0:0:1:
298,192,259897,1,0,0:0:0:1:
213,192,259979,1,0,0:0:0:1:
384,192,260061,128,0,260388:0:0:0:1:
42,192,260061,128,0,261372:0:0:0:1:
298,192,260061,128,0,260225:0:0:0:0:
128,192,260061,128,0,260552:0:0:0:0:
469,192,260061,128,0,260552:0:0:0:0:
213,192,260225,128,0,260388:0:0:0:0:
298,192,260388,128,0,261208:0:0:0:0:
213,192,260552,128,0,260880:0:0:0:0:
384,192,260552,128,0,260716:0:0:0:0:
128,192,260716,128,0,261044:0:0:0:0:
469,192,260716,128,0,260880:0:0:0:0:
384,192,260880,128,0,261044:0:0:0:0:
469,192,261044,128,0,261372:0:0:0:1:
213,192,261044,128,0,261536:0:0:0:0:
384,192,261208,1,0,0:0:0:0:
128,192,261208,1,0,0:0:0:0:
128,192,261372,128,0,261700:0:0:0:1:
298,192,261372,128,0,261700:0:0:0:0:
384,192,261372,128,0,262684:0:0:0:0:
42,192,261536,1,0,0:0:0:0:
469,192,261536,1,0,0:0:0:0:
213,192,261700,128,0,262192:0:0:0:0:
469,192,261700,128,0,261864:0:0:0:0:
42,192,261700,128,0,262028:0:0:0:0:
298,192,261864,128,0,262192:0:0:0:0:
128,192,261864,1,0,0:0:0:0:
128,192,262028,128,0,262684:0:0:0:1:
469,192,262028,128,0,262192:0:0:0:0:
42,192,262192,128,0,262356:0:0:0:0:
298,192,262356,128,0,262520:0:0:0:0:
469,192,262356,128,0,262848:0:0:0:0:
213,192,262356,128,0,263175:0:0:0:0:
42,192,262520,1,0,0:0:0:0:
42,192,262684,128,0,263339:0:0:0:1:
298,192,262684,128,0,262848:0:0:0:0:
384,192,262848,128,0,263175:0:0:0:0:
128,192,262848,1,0,0:0:0:0:
128,192,263011,128,0,263339:0:0:0:1:
298,192,263011,1,0,0:0:0:0:
469,192,263011,128,0,263831:0:0:0:0:
298,192,263175,128,0,263667:0:0:0:0:
213,192,263339,128,0,263503:0:0:0:0:
384,192,263339,128,0,263831:0:0:0:0:
42,192,263503,128,0,263831:0:0:0:1:
128,192,263503,1,0,0:0:0:0:
128,192,263667,128,0,263831:0:0:0:1:
213,192,263667,1,0,0:0:0:0:
213,192,263831,128,0,264159:0:0:0:1:
298,192,263831,1,0,0:0:0:0:
128,192,263995,128,0,264323:0:0:0:1:
42,192,263995,128,0,264979:0:0:0:1:
384,192,263995,128,0,264159:0:0:0:0:
298,192,263995,1,0,0:0:0:0:
469,192,263995,128,0,264323:0:0:0:0:
298,192,264159,128,0,264487:0:0:0:0:
384,192,264323,128,0,264979:0:0:0:1:
213,192,264323,128,0,264979:0:0:0:0:
128,192,264487,1,0,0:0:0:0:
469,192,264487,128,0,264651:0:0:0:0:
128,192,264651,128,0,265470:0:0:0:0:
298,192,264651,128,0,264815:0:0:0:0:
469,192,264815,1,0,0:0:0:0:
469,192,264979,128,0,265307:0:0:0:0:
298,192,264979,128,0,265143:0:0:0:0:
384,192,265143,128,0,265634:0:0:0:1:
42,192,265143,1,0,0:0:0:0:
213,192,265143,1,0,0:0:0:0:
213,192,265307,128,0,266290:0:0:0:1:
298,192,265307,128,0,265798:0:0:0:0:
42,192,265307,128,0,266126:0:0:0:0:
469,192,265470,1,0,0:0:0:0:
128,192,265634,128,0,265962:0:0:0:1:
469,192,265634,128,0,266618:0:0:0:1:
384,192,265798,128,0,265962:0:0:0:0:
298,192,265962,128,0,266126:0:0:0:0:
384,192,266126,128,0,266290:0:0:0:0:
128,192,266126,1,0,0:0:0:0:
128,192,266290,128,0,266782:0:0:0:1:
298,192,266290,128,0,266454:0:0:0:1:
42,192,266290,128,0,266454:0:0:0:0:
213,192,266454,128,0,266618:0:0:0:1:
384,192,266454,128,0,266618:0:0:0:1:
298,192,266618,128,0,266946:0:0:0:1:
42,192,266618,128,0,266946:0:0:0:1:
213,192,266782,128,0,267602:0:0:0:1:
469,192,266782,128,0,267274:0:0:0:1:
384,192,266782,1,0,0:0:0:0:
128,192,266946,128,0,267274:0:0:0:1:
384,192,266946,128,0,267274:0:0:0:1:
298,192,267110,128,0,267602:0:0:0:1:
42,192,267110,128,0,267274:0:0:0:1:
128,192,267438,1,0,0:0:0:1:
384,192,267438,1,0,0:0:0:1:
469,192,267438,1,0,0:0:0:1:
42,192,267438,1,0,0:0:0:1:
128,192,267602,1,0,0:0:0:1:
384,192,267602,1,0,0:0:0:1:
469,192,267602,1,0,0:0:0:1:
42,192,267602,1,0,0:0:0:1:
42,192,267766,128,0,273175:0:0:0:0:
128,192,267766,128,0,273175:0:0:0:0:
213,192,267766,128,0,273175:0:0:0:0:
384,192,267766,128,0,273175:0:0:0:0:
298,192,267766,128,0,273175:0:0:0:0:
469,192,267766,128,0,273175:0:0:0:0:
