osu file format v14

[General]
AudioFilename: INNOCENCE.mp3
AudioLeadIn: 0
PreviewTime: 249569
Countdown: 0
SampleSet: Soft
StackLeniency: 0.7
Mode: 3
LetterboxInBreaks: 0
SpecialStyle: 0
WidescreenStoryboard: 0

[Editor]
Bookmarks: 49836
DistanceSpacing: 1
BeatDivisor: 8
GridSize: 8
TimelineZoom: 3.199998

[Metadata]
Title:INNOCENCE
TitleUnicode:INNOCENCE
Artist:Eir Aoi
ArtistUnicode:藍井エイル
Creator:AWMRone
Version:SK_la's 10K Gram
Source:ソードアート・オンライン
Tags:japanese anime sword art online sao alfheim online アルヴヘイム・オンライン alo op2 2nd second opening Fairy Dance Arc フェアリィ・ダンス kirito キリト asuna アスナ j-pop jpop japanese pop Ryosuke Shigenaga 重永亮介 Kayo Shimokawa 下川佳代 Blau BEST -E- SECL-1267 SECL-1216 SECL-2005 SME Records collaboration wilben_chan alipay sk_la wjh123 imperial wolf misterluka ruka [ Reversal ] la
BeatmapID:1836871
BeatmapSetID:875519

[Difficulty]
HPDrainRate:5
CircleSize:10
OverallDifficulty:7
ApproachRate:5
SliderMultiplier:1.4
SliderTickRate:1

[Events]
//Background and Video events
0,0,"BG.jpg",0,0
//Break Periods
//Storyboard Layer 0 (Background)
//Storyboard Layer 1 (Fail)
//Storyboard Layer 2 (Pass)
//Storyboard Layer 3 (Foreground)
//Storyboard Layer 4 (Overlay)
//Storyboard Sound Samples
Sample,2131,0,"normal-hitnormal3.ogg",100

[TimingPoints]
389,327.868852459016,4,2,1,5,1,0

[HitObjects]
128,192,334,5,0,0:0:0:0:
230,192,361,1,0,0:0:0:0:
332,192,389,1,0,0:0:0:0:
486,192,389,1,0,0:0:0:0:
281,192,552,1,0,0:0:0:0:
179,192,552,1,0,0:0:0:0:
230,192,716,1,0,0:0:0:0:
384,192,716,1,0,0:0:0:0:
76,192,880,1,0,0:0:0:0:
332,192,1044,128,0,2684:0:0:0:0:
25,192,1208,1,0,0:0:0:0:
76,192,1700,128,0,2684:0:0:0:0:
486,192,1700,128,0,2684:0:0:0:0:
435,192,1700,128,0,2684:0:0:0:0:
179,192,1741,128,0,2684:0:0:0:0:
230,192,1782,128,0,2684:0:0:0:0:
25,192,3011,1,0,0:0:0:0:
128,192,3175,1,0,0:0:0:0:
179,192,3339,1,0,0:0:0:0:
230,192,3503,1,0,0:0:0:0:
76,192,4323,1,0,0:0:0:0:
230,192,4323,1,0,0:0:0:0:
435,192,4323,1,0,0:0:0:0:
332,192,4323,1,0,0:0:0:0:
25,192,5634,1,0,0:0:0:0:
76,192,5798,1,0,0:0:0:0:
128,192,5962,1,0,0:0:0:0:
179,192,6126,1,0,0:0:0:0:
281,192,6946,1,0,0:0:0:0:
486,192,6946,1,0,0:0:0:0:
128,192,6946,1,0,0:0:0:0:
486,192,7438,1,0,0:0:0:0:
435,192,7520,1,0,0:0:0:0:
230,192,7602,1,0,0:0:0:0:
179,192,7684,1,0,0:0:0:0:
230,192,8257,128,0,9487:0:0:0:0:
25,192,8257,128,0,9487:0:0:0:0:
76,192,8257,128,0,9487:0:0:0:0:
332,192,8257,128,0,9487:0:0:0:0:
384,192,8257,128,0,9487:0:0:0:0:
435,192,8257,128,0,9487:0:0:0:0:
179,192,9569,128,0,10470:0:0:0:0:
230,192,9569,128,0,10470:0:0:0:0:
128,192,9569,128,0,9979:0:0:0:0:
486,192,9569,128,0,10307:0:0:0:0:
281,192,9569,128,0,10798:0:0:0:0:
332,192,9569,128,0,10798:0:0:0:0:
76,192,10061,1,0,0:0:0:0:
25,192,10061,1,0,0:0:0:0:
128,192,10061,1,0,0:0:0:0:
435,192,10388,1,0,0:0:0:0:
486,192,10388,1,0,0:0:0:0:
384,192,10388,1,0,0:0:0:0:
128,192,10552,1,0,0:0:0:0:
179,192,10552,1,0,0:0:0:0:
230,192,10552,1,0,0:0:0:0:
281,192,10880,1,0,0:0:0:0:
332,192,10880,1,0,0:0:0:0:
384,192,10880,1,0,0:0:0:0:
179,192,10880,1,0,0:0:0:0:
128,192,10880,1,0,0:0:0:0:
76,192,10880,1,0,0:0:0:0:
230,192,11208,1,0,0:0:0:0:
25,192,11208,1,0,0:0:0:0:
435,192,11208,1,0,0:0:0:0:
332,192,11372,1,0,0:0:0:0:
128,192,11372,1,0,0:0:0:0:
435,192,11536,1,0,0:0:0:0:
230,192,11536,1,0,0:0:0:0:
25,192,11536,1,0,0:0:0:0:
332,192,11700,1,0,0:0:0:0:
128,192,11700,1,0,0:0:0:0:
76,192,11864,1,0,0:0:0:0:
179,192,11864,1,0,0:0:0:0:
281,192,11864,1,0,0:0:0:0:
384,192,11864,1,0,0:0:0:0:
76,192,12028,1,0,0:0:0:0:
179,192,12028,1,0,0:0:0:0:
281,192,12028,1,0,0:0:0:0:
435,192,12028,1,0,0:0:0:0:
76,192,12192,1,0,0:0:0:0:
25,192,12192,1,0,0:0:0:0:
179,192,12192,1,0,0:0:0:0:
384,192,12192,1,0,0:0:0:0:
332,192,12192,1,0,0:0:0:0:
230,192,12356,1,0,0:0:0:0:
128,192,12356,1,0,0:0:0:0:
435,192,12356,1,0,0:0:0:0:
486,192,12356,1,0,0:0:0:0:
179,192,12520,1,0,0:0:0:0:
76,192,12520,1,0,0:0:0:0:
25,192,12520,1,0,0:0:0:0:
332,192,12520,1,0,0:0:0:0:
281,192,12520,1,0,0:0:0:0:
230,192,12684,1,0,0:0:0:0:
128,192,12684,1,0,0:0:0:0:
435,192,12684,1,0,0:0:0:0:
486,192,12684,1,0,0:0:0:0:
179,192,12848,1,0,0:0:0:0:
76,192,12848,1,0,0:0:0:0:
25,192,12848,1,0,0:0:0:0:
332,192,12848,1,0,0:0:0:0:
281,192,12929,1,0,0:0:0:0:
128,192,13011,1,0,0:0:0:0:
384,192,13011,1,0,0:0:0:0:
230,192,13093,1,0,0:0:0:0:
486,192,13093,1,0,0:0:0:0:
76,192,13093,1,0,0:0:0:0:
179,192,13175,1,0,0:0:0:0:
332,192,13175,1,0,0:0:0:0:
435,192,13257,1,0,0:0:0:0:
281,192,13257,1,0,0:0:0:0:
25,192,13257,1,0,0:0:0:0:
230,192,13339,1,0,0:0:0:0:
128,192,13339,1,0,0:0:0:0:
384,192,13339,1,0,0:0:0:0:
179,192,13421,1,0,0:0:0:0:
76,192,13503,1,0,0:0:0:0:
25,192,13503,1,0,0:0:0:0:
332,192,13503,1,0,0:0:0:0:
486,192,13503,128,0,14487:0:0:0:0:
281,192,13503,1,0,0:0:0:0:
230,192,13667,1,0,0:0:0:0:
128,192,13667,1,0,0:0:0:0:
332,192,13831,1,0,0:0:0:0:
384,192,13831,1,0,0:0:0:0:
179,192,13831,1,0,0:0:0:0:
25,192,13831,1,0,0:0:0:0:
435,192,13995,1,0,0:0:0:0:
230,192,13995,1,0,0:0:0:0:
128,192,13995,1,0,0:0:0:0:
332,192,14159,1,0,0:0:0:0:
76,192,14159,1,0,0:0:0:0:
384,192,14159,1,0,0:0:0:0:
435,192,14323,1,0,0:0:0:0:
179,192,14323,1,0,0:0:0:0:
281,192,14323,1,0,0:0:0:0:
230,192,14487,1,0,0:0:0:0:
128,192,14487,1,0,0:0:0:0:
25,192,14487,128,0,14815:0:0:0:0:
179,192,14815,128,0,15307:0:0:0:0:
435,192,14815,1,0,0:0:0:0:
230,192,14815,1,0,0:0:0:0:
332,192,14815,1,0,0:0:0:0:
76,192,14979,1,0,0:0:0:0:
25,192,14979,1,0,0:0:0:0:
281,192,15143,1,0,0:0:0:0:
486,192,15143,1,0,0:0:0:0:
128,192,15143,1,0,0:0:0:0:
76,192,15143,1,0,0:0:0:0:
332,192,15307,128,0,15798:0:0:0:0:
384,192,15307,1,0,0:0:0:0:
230,192,15307,1,0,0:0:0:0:
486,192,15470,1,0,0:0:0:0:
25,192,15470,1,0,0:0:0:0:
128,192,15470,1,0,0:0:0:0:
435,192,15634,1,0,0:0:0:0:
76,192,15634,1,0,0:0:0:0:
230,192,15634,1,0,0:0:0:0:
25,192,15798,1,0,0:0:0:0:
384,192,15798,1,0,0:0:0:0:
128,192,15798,1,0,0:0:0:0:
179,192,15798,128,0,16126:0:0:0:0:
230,192,16126,128,0,16782:0:0:0:0:
76,192,16126,1,0,0:0:0:0:
384,192,16126,1,0,0:0:0:0:
128,192,16126,1,0,0:0:0:0:
435,192,16126,1,0,0:0:0:0:
332,192,16290,1,0,0:0:0:0:
281,192,16290,1,0,0:0:0:0:
486,192,16454,1,0,0:0:0:0:
384,192,16454,1,0,0:0:0:0:
25,192,16454,1,0,0:0:0:0:
128,192,16454,1,0,0:0:0:0:
179,192,16618,1,0,0:0:0:0:
281,192,16618,1,0,0:0:0:0:
332,192,16782,1,0,0:0:0:0:
435,192,16782,1,0,0:0:0:0:
76,192,16782,1,0,0:0:0:0:
128,192,16782,128,0,17438:0:0:0:0:
435,192,16946,1,0,0:0:0:0:
332,192,16946,1,0,0:0:0:0:
76,192,16946,1,0,0:0:0:0:
25,192,17110,1,0,0:0:0:0:
179,192,17110,1,0,0:0:0:0:
384,192,17110,1,0,0:0:0:0:
486,192,17110,1,0,0:0:0:0:
332,192,17274,1,0,0:0:0:0:
281,192,17356,1,0,0:0:0:0:
384,192,17438,128,0,18585:0:0:0:0:
486,192,17438,1,0,0:0:0:0:
76,192,17438,1,0,0:0:0:0:
25,192,17438,1,0,0:0:0:0:
332,192,17602,1,0,0:0:0:0:
230,192,17602,1,0,0:0:0:0:
435,192,17766,1,0,0:0:0:0:
486,192,17766,1,0,0:0:0:0:
25,192,17766,1,0,0:0:0:0:
179,192,17766,1,0,0:0:0:0:
76,192,17766,1,0,0:0:0:0:
281,192,17929,1,0,0:0:0:0:
128,192,17929,1,0,0:0:0:0:
332,192,18093,1,0,0:0:0:0:
230,192,18093,1,0,0:0:0:0:
486,192,18093,1,0,0:0:0:0:
179,192,18257,1,0,0:0:0:0:
76,192,18257,1,0,0:0:0:0:
281,192,18257,1,0,0:0:0:0:
128,192,18421,1,0,0:0:0:0:
25,192,18421,1,0,0:0:0:0:
230,192,18421,1,0,0:0:0:0:
332,192,18421,1,0,0:0:0:0:
76,192,18749,128,0,20061:0:0:0:0:
281,192,18749,1,0,0:0:0:0:
435,192,18749,1,0,0:0:0:0:
486,192,18749,1,0,0:0:0:0:
128,192,18749,128,0,20061:0:0:0:0:
384,192,18913,1,0,0:0:0:0:
332,192,18913,1,0,0:0:0:0:
486,192,19077,1,0,0:0:0:0:
281,192,19077,1,0,0:0:0:0:
25,192,19077,1,0,0:0:0:0:
179,192,19077,1,0,0:0:0:0:
384,192,19241,1,0,0:0:0:0:
435,192,19241,1,0,0:0:0:0:
25,192,19405,1,0,0:0:0:0:
281,192,19405,1,0,0:0:0:0:
332,192,19405,1,0,0:0:0:0:
486,192,19405,1,0,0:0:0:0:
179,192,19405,1,0,0:0:0:0:
384,192,19569,1,0,0:0:0:0:
435,192,19569,1,0,0:0:0:0:
25,192,19733,1,0,0:0:0:0:
486,192,19733,1,0,0:0:0:0:
332,192,19733,1,0,0:0:0:0:
179,192,19733,1,0,0:0:0:0:
384,192,19897,1,0,0:0:0:0:
281,192,19897,1,0,0:0:0:0:
435,192,20061,128,0,20552:0:0:0:0:
486,192,20061,1,0,0:0:0:0:
25,192,20061,1,0,0:0:0:0:
230,192,20225,1,0,0:0:0:0:
332,192,20225,1,0,0:0:0:0:
179,192,20225,1,0,0:0:0:0:
281,192,20388,1,0,0:0:0:0:
76,192,20388,1,0,0:0:0:0:
179,192,20388,1,0,0:0:0:0:
384,192,20552,128,0,20880:0:0:0:0:
128,192,20552,1,0,0:0:0:0:
332,192,20634,1,0,0:0:0:0:
25,192,20716,1,0,0:0:0:0:
230,192,20716,1,0,0:0:0:0:
281,192,20880,128,0,21208:0:0:0:0:
179,192,20880,1,0,0:0:0:0:
76,192,20880,1,0,0:0:0:0:
25,192,21044,1,0,0:0:0:0:
128,192,21044,1,0,0:0:0:0:
230,192,21044,1,0,0:0:0:0:
179,192,21208,1,0,0:0:0:0:
76,192,21208,1,0,0:0:0:0:
128,192,21372,1,0,0:0:0:0:
332,192,21372,128,0,21864:0:0:0:0:
486,192,21372,128,0,22684:0:0:0:0:
25,192,21372,128,0,22028:0:0:0:0:
281,192,21864,1,0,0:0:0:0:
230,192,21905,1,0,0:0:0:0:
179,192,21946,1,0,0:0:0:0:
128,192,21987,1,0,0:0:0:0:
76,192,22028,128,0,23339:0:0:0:0:
179,192,22520,1,0,0:0:0:0:
230,192,22561,1,0,0:0:0:0:
281,192,22602,1,0,0:0:0:0:
332,192,22643,1,0,0:0:0:0:
384,192,22684,1,0,0:0:0:0:
435,192,22684,128,0,23339:0:0:0:0:
230,192,23257,1,0,0:0:0:0:
281,192,23257,1,0,0:0:0:0:
179,192,23298,1,0,0:0:0:0:
332,192,23298,1,0,0:0:0:0:
128,192,23339,1,0,0:0:0:0:
384,192,23339,1,0,0:0:0:0:
486,192,23339,1,0,0:0:0:0:
25,192,23339,1,0,0:0:0:0:
25,192,23503,1,0,0:0:0:0:
128,192,23503,1,0,0:0:0:0:
179,192,23503,1,0,0:0:0:0:
384,192,23503,1,0,0:0:0:0:
332,192,23503,1,0,0:0:0:0:
486,192,23503,1,0,0:0:0:0:
384,192,23913,1,0,0:0:0:0:
332,192,23954,1,0,0:0:0:0:
230,192,23995,128,0,24979:0:0:0:0:
76,192,23995,128,0,24979:0:0:0:0:
281,192,23995,1,0,0:0:0:0:
435,192,23995,1,0,0:0:0:0:
128,192,25307,128,0,25798:0:0:0:0:
384,192,25307,1,0,0:0:0:0:
486,192,25307,1,0,0:0:0:0:
25,192,25634,128,0,27274:0:0:0:0:
76,192,25798,128,0,27274:0:0:0:0:
435,192,25798,1,0,0:0:0:0:
332,192,25798,1,0,0:0:0:0:
179,192,26126,128,0,27274:0:0:0:0:
486,192,26290,1,0,0:0:0:0:
230,192,26454,128,0,27274:0:0:0:0:
384,192,26618,1,0,0:0:0:0:
281,192,26618,1,0,0:0:0:0:
435,192,26618,1,0,0:0:0:0:
76,192,27602,128,0,27929:0:0:0:0:
128,192,27929,128,0,28421:0:0:0:0:
332,192,27929,1,0,0:0:0:0:
435,192,27929,1,0,0:0:0:0:
179,192,28421,128,0,28749:0:0:0:0:
384,192,28421,1,0,0:0:0:0:
486,192,28421,1,0,0:0:0:0:
76,192,28749,128,0,28913:0:0:0:0:
128,192,28913,1,0,0:0:0:0:
332,192,28913,1,0,0:0:0:0:
486,192,28913,1,0,0:0:0:0:
25,192,28913,128,0,29077:0:0:0:0:
230,192,28913,1,0,0:0:0:0:
76,192,29077,128,0,29241:0:0:0:0:
179,192,29077,1,0,0:0:0:0:
25,192,29241,1,0,0:0:0:0:
435,192,29241,1,0,0:0:0:0:
486,192,29241,1,0,0:0:0:0:
384,192,29241,1,0,0:0:0:0:
128,192,29241,128,0,29569:0:0:0:0:
230,192,29241,1,0,0:0:0:0:
179,192,29569,1,0,0:0:0:0:
76,192,29569,1,0,0:0:0:0:
281,192,29569,1,0,0:0:0:0:
332,192,29569,1,0,0:0:0:0:
128,192,29733,1,0,0:0:0:0:
25,192,29733,128,0,30225:0:0:0:0:
435,192,29897,1,0,0:0:0:0:
486,192,29897,1,0,0:0:0:0:
384,192,29897,1,0,0:0:0:0:
230,192,29897,1,0,0:0:0:0:
76,192,29897,1,0,0:0:0:0:
486,192,30061,1,0,0:0:0:0:
435,192,30061,1,0,0:0:0:0:
179,192,30061,1,0,0:0:0:0:
230,192,30225,1,0,0:0:0:0:
128,192,30225,1,0,0:0:0:0:
332,192,30225,1,0,0:0:0:0:
281,192,30225,1,0,0:0:0:0:
435,192,30388,1,0,0:0:0:0:
486,192,30388,1,0,0:0:0:0:
230,192,30388,128,0,30880:0:0:0:0:
25,192,30388,128,0,30880:0:0:0:0:
281,192,30552,1,0,0:0:0:0:
384,192,30552,1,0,0:0:0:0:
179,192,30716,1,0,0:0:0:0:
76,192,30716,1,0,0:0:0:0:
332,192,30880,1,0,0:0:0:0:
435,192,30880,1,0,0:0:0:0:
128,192,30880,1,0,0:0:0:0:
281,192,31044,1,0,0:0:0:0:
179,192,31044,128,0,31372:0:0:0:0:
76,192,31208,1,0,0:0:0:0:
25,192,31208,1,0,0:0:0:0:
435,192,31208,1,0,0:0:0:0:
384,192,31372,1,0,0:0:0:0:
281,192,31372,1,0,0:0:0:0:
25,192,31372,1,0,0:0:0:0:
332,192,31536,128,0,31864:0:0:0:0:
486,192,31536,1,0,0:0:0:0:
76,192,31536,1,0,0:0:0:0:
128,192,31536,1,0,0:0:0:0:
230,192,31536,1,0,0:0:0:0:
486,192,31864,128,0,32356:0:0:0:0:
230,192,31864,1,0,0:0:0:0:
25,192,31864,1,0,0:0:0:0:
179,192,31864,128,0,32192:0:0:0:0:
384,192,31864,1,0,0:0:0:0:
128,192,32192,1,0,0:0:0:0:
230,192,32192,1,0,0:0:0:0:
281,192,32192,1,0,0:0:0:0:
332,192,32192,1,0,0:0:0:0:
25,192,32356,128,0,32848:0:0:0:0:
384,192,32356,1,0,0:0:0:0:
435,192,32356,1,0,0:0:0:0:
76,192,32356,1,0,0:0:0:0:
332,192,32520,1,0,0:0:0:0:
281,192,32520,1,0,0:0:0:0:
179,192,32684,1,0,0:0:0:0:
128,192,32684,1,0,0:0:0:0:
230,192,32848,128,0,33503:0:0:0:0:
384,192,32848,1,0,0:0:0:0:
435,192,32848,1,0,0:0:0:0:
435,192,33011,1,0,0:0:0:0:
281,192,33011,1,0,0:0:0:0:
76,192,33011,128,0,33503:0:0:0:0:
179,192,33339,1,0,0:0:0:0:
128,192,33339,1,0,0:0:0:0:
25,192,33339,1,0,0:0:0:0:
435,192,33503,1,0,0:0:0:0:
486,192,33503,1,0,0:0:0:0:
281,192,33503,1,0,0:0:0:0:
384,192,33831,1,0,0:0:0:0:
435,192,33831,1,0,0:0:0:0:
25,192,33831,1,0,0:0:0:0:
76,192,33913,1,0,0:0:0:0:
179,192,33995,1,0,0:0:0:0:
128,192,33995,1,0,0:0:0:0:
281,192,34077,1,0,0:0:0:0:
332,192,34077,1,0,0:0:0:0:
435,192,34159,1,0,0:0:0:0:
486,192,34159,1,0,0:0:0:0:
76,192,34241,1,0,0:0:0:0:
128,192,34241,1,0,0:0:0:0:
230,192,34241,1,0,0:0:0:0:
384,192,34323,1,0,0:0:0:0:
332,192,34323,1,0,0:0:0:0:
25,192,34323,1,0,0:0:0:0:
179,192,34405,1,0,0:0:0:0:
128,192,34487,1,0,0:0:0:0:
435,192,34487,128,0,35470:0:0:0:0:
128,192,34815,1,0,0:0:0:0:
76,192,34815,1,0,0:0:0:0:
128,192,35143,1,0,0:0:0:0:
230,192,35143,1,0,0:0:0:0:
128,192,35470,1,0,0:0:0:0:
76,192,35470,1,0,0:0:0:0:
128,192,35798,1,0,0:0:0:0:
230,192,35798,1,0,0:0:0:0:
281,192,35798,128,0,36290:0:0:0:0:
128,192,36126,1,0,0:0:0:0:
76,192,36126,1,0,0:0:0:0:
384,192,36290,128,0,36782:0:0:0:0:
128,192,36454,1,0,0:0:0:0:
230,192,36454,1,0,0:0:0:0:
128,192,36782,1,0,0:0:0:0:
76,192,36782,1,0,0:0:0:0:
486,192,36782,128,0,37110:0:0:0:0:
76,192,37110,1,0,0:0:0:0:
179,192,37110,1,0,0:0:0:0:
332,192,37110,128,0,37766:0:0:0:0:
76,192,37438,1,0,0:0:0:0:
25,192,37438,1,0,0:0:0:0:
76,192,37766,1,0,0:0:0:0:
179,192,37766,1,0,0:0:0:0:
76,192,38093,1,0,0:0:0:0:
25,192,38093,1,0,0:0:0:0:
76,192,38421,1,0,0:0:0:0:
179,192,38421,1,0,0:0:0:0:
332,192,38421,128,0,38585:0:0:0:0:
435,192,38421,128,0,38585:0:0:0:0:
76,192,38749,1,0,0:0:0:0:
25,192,38749,1,0,0:0:0:0:
384,192,38913,128,0,39077:0:0:0:0:
76,192,39077,1,0,0:0:0:0:
179,192,39077,1,0,0:0:0:0:
281,192,39077,128,0,39405:0:0:0:0:
486,192,39077,1,0,0:0:0:0:
384,192,39241,1,0,0:0:0:0:
128,192,39241,1,0,0:0:0:0:
76,192,39405,1,0,0:0:0:0:
25,192,39405,1,0,0:0:0:0:
179,192,39405,1,0,0:0:0:0:
435,192,39405,128,0,39487:0:0:0:0:
230,192,39733,128,0,40880:0:0:0:0:
332,192,39733,128,0,40880:0:0:0:0:
128,192,39733,1,0,0:0:0:0:
76,192,39733,1,0,0:0:0:0:
435,192,39733,1,0,0:0:0:0:
384,192,39733,1,0,0:0:0:0:
384,192,40061,1,0,0:0:0:0:
486,192,40061,1,0,0:0:0:0:
76,192,40061,1,0,0:0:0:0:
25,192,40061,1,0,0:0:0:0:
128,192,40061,1,0,0:0:0:0:
179,192,40388,1,0,0:0:0:0:
76,192,40388,1,0,0:0:0:0:
435,192,40388,1,0,0:0:0:0:
281,192,40388,1,0,0:0:0:0:
128,192,40552,1,0,0:0:0:0:
435,192,40552,1,0,0:0:0:0:
384,192,40552,1,0,0:0:0:0:
179,192,40716,1,0,0:0:0:0:
25,192,40716,1,0,0:0:0:0:
486,192,40716,1,0,0:0:0:0:
281,192,40716,1,0,0:0:0:0:
25,192,40880,1,0,0:0:0:0:
128,192,40880,1,0,0:0:0:0:
384,192,40880,1,0,0:0:0:0:
435,192,41044,128,0,41372:0:0:0:0:
281,192,41044,128,0,41372:0:0:0:0:
332,192,41208,1,0,0:0:0:0:
76,192,41208,1,0,0:0:0:0:
25,192,41208,1,0,0:0:0:0:
179,192,41208,1,0,0:0:0:0:
332,192,41372,1,0,0:0:0:0:
486,192,41372,1,0,0:0:0:0:
230,192,41372,1,0,0:0:0:0:
179,192,41536,128,0,42028:0:0:0:0:
25,192,41536,128,0,42028:0:0:0:0:
281,192,41700,1,0,0:0:0:0:
384,192,41700,1,0,0:0:0:0:
435,192,41700,1,0,0:0:0:0:
128,192,41700,1,0,0:0:0:0:
281,192,41864,1,0,0:0:0:0:
332,192,41864,1,0,0:0:0:0:
76,192,41864,1,0,0:0:0:0:
230,192,41864,1,0,0:0:0:0:
230,192,42028,1,0,0:0:0:0:
384,192,42028,1,0,0:0:0:0:
128,192,42028,1,0,0:0:0:0:
332,192,42356,128,0,42684:0:0:0:0:
486,192,42356,128,0,42684:0:0:0:0:
179,192,42356,1,0,0:0:0:0:
230,192,42356,1,0,0:0:0:0:
76,192,42356,1,0,0:0:0:0:
128,192,42684,1,0,0:0:0:0:
179,192,42684,1,0,0:0:0:0:
281,192,42684,1,0,0:0:0:0:
384,192,42684,1,0,0:0:0:0:
230,192,42848,128,0,43175:0:0:0:0:
76,192,42848,128,0,43175:0:0:0:0:
332,192,43011,1,0,0:0:0:0:
435,192,43011,1,0,0:0:0:0:
179,192,43011,1,0,0:0:0:0:
332,192,43175,1,0,0:0:0:0:
435,192,43175,1,0,0:0:0:0:
179,192,43175,1,0,0:0:0:0:
128,192,43339,128,0,43503:0:0:0:0:
384,192,43339,128,0,43503:0:0:0:0:
486,192,43503,128,0,44323:0:0:0:0:
25,192,43503,128,0,43913:0:0:0:0:
281,192,43503,1,0,0:0:0:0:
332,192,43667,1,0,0:0:0:0:
384,192,43667,1,0,0:0:0:0:
76,192,43667,1,0,0:0:0:0:
128,192,43667,1,0,0:0:0:0:
435,192,43831,1,0,0:0:0:0:
179,192,43831,1,0,0:0:0:0:
230,192,43995,1,0,0:0:0:0:
384,192,43995,1,0,0:0:0:0:
128,192,43995,1,0,0:0:0:0:
25,192,43995,1,0,0:0:0:0:
281,192,43995,1,0,0:0:0:0:
332,192,44159,1,0,0:0:0:0:
76,192,44159,1,0,0:0:0:0:
179,192,44323,1,0,0:0:0:0:
25,192,44323,1,0,0:0:0:0:
128,192,44323,1,0,0:0:0:0:
435,192,44405,1,0,0:0:0:0:
486,192,44405,1,0,0:0:0:0:
230,192,44405,1,0,0:0:0:0:
332,192,44487,1,0,0:0:0:0:
281,192,44487,1,0,0:0:0:0:
128,192,44569,1,0,0:0:0:0:
179,192,44569,1,0,0:0:0:0:
435,192,44651,1,0,0:0:0:0:
486,192,44651,1,0,0:0:0:0:
76,192,44651,1,0,0:0:0:0:
25,192,44651,1,0,0:0:0:0:
230,192,44651,1,0,0:0:0:0:
384,192,44733,1,0,0:0:0:0:
332,192,44733,1,0,0:0:0:0:
76,192,44815,1,0,0:0:0:0:
128,192,44815,1,0,0:0:0:0:
281,192,44815,1,0,0:0:0:0:
25,192,44897,1,0,0:0:0:0:
179,192,44897,1,0,0:0:0:0:
435,192,44979,1,0,0:0:0:0:
230,192,44979,1,0,0:0:0:0:
332,192,44979,1,0,0:0:0:0:
128,192,45143,1,0,0:0:0:0:
179,192,45307,1,0,0:0:0:0:
384,192,45307,1,0,0:0:0:0:
281,192,45307,1,0,0:0:0:0:
76,192,45307,1,0,0:0:0:0:
128,192,45470,1,0,0:0:0:0:
25,192,45470,1,0,0:0:0:0:
179,192,45634,1,0,0:0:0:0:
332,192,45634,1,0,0:0:0:0:
435,192,45634,1,0,0:0:0:0:
76,192,45634,1,0,0:0:0:0:
281,192,45798,1,0,0:0:0:0:
384,192,45798,1,0,0:0:0:0:
128,192,45798,1,0,0:0:0:0:
25,192,45798,1,0,0:0:0:0:
179,192,45962,1,0,0:0:0:0:
435,192,45962,1,0,0:0:0:0:
332,192,45962,1,0,0:0:0:0:
76,192,45962,1,0,0:0:0:0:
281,192,46126,1,0,0:0:0:0:
384,192,46126,1,0,0:0:0:0:
25,192,46126,1,0,0:0:0:0:
128,192,46126,1,0,0:0:0:0:
179,192,46290,1,0,0:0:0:0:
435,192,46290,1,0,0:0:0:0:
486,192,46290,1,0,0:0:0:0:
76,192,46290,1,0,0:0:0:0:
384,192,46454,1,0,0:0:0:0:
332,192,46454,1,0,0:0:0:0:
230,192,46454,1,0,0:0:0:0:
128,192,46454,1,0,0:0:0:0:
435,192,46618,1,0,0:0:0:0:
486,192,46618,1,0,0:0:0:0:
179,192,46618,1,0,0:0:0:0:
76,192,46618,1,0,0:0:0:0:
332,192,46782,1,0,0:0:0:0:
281,192,46782,1,0,0:0:0:0:
25,192,46782,1,0,0:0:0:0:
128,192,46782,1,0,0:0:0:0:
179,192,46946,1,0,0:0:0:0:
230,192,46946,1,0,0:0:0:0:
384,192,46946,1,0,0:0:0:0:
435,192,46946,1,0,0:0:0:0:
486,192,46946,1,0,0:0:0:0:
76,192,46946,1,0,0:0:0:0:
128,192,47274,1,0,0:0:0:0:
25,192,47274,1,0,0:0:0:0:
332,192,47274,1,0,0:0:0:0:
384,192,47274,1,0,0:0:0:0:
435,192,47274,1,0,0:0:0:0:
179,192,47274,1,0,0:0:0:0:
76,192,47602,1,0,0:0:0:0:
281,192,47602,1,0,0:0:0:0:
179,192,47602,1,0,0:0:0:0:
435,192,47602,1,0,0:0:0:0:
128,192,47766,1,0,0:0:0:0:
25,192,47766,1,0,0:0:0:0:
332,192,47766,1,0,0:0:0:0:
230,192,47929,1,0,0:0:0:0:
76,192,47929,1,0,0:0:0:0:
384,192,47929,1,0,0:0:0:0:
486,192,47929,1,0,0:0:0:0:
435,192,48093,1,0,0:0:0:0:
179,192,48093,1,0,0:0:0:0:
25,192,48093,1,0,0:0:0:0:
332,192,48093,1,0,0:0:0:0:
128,192,48257,1,0,0:0:0:0:
230,192,48257,1,0,0:0:0:0:
384,192,48257,1,0,0:0:0:0:
486,192,48257,1,0,0:0:0:0:
435,192,48421,1,0,0:0:0:0:
179,192,48421,1,0,0:0:0:0:
76,192,48421,1,0,0:0:0:0:
332,192,48421,1,0,0:0:0:0:
128,192,48585,1,0,0:0:0:0:
230,192,48585,1,0,0:0:0:0:
486,192,48585,1,0,0:0:0:0:
384,192,48585,1,0,0:0:0:0:
435,192,48749,1,0,0:0:0:0:
179,192,48749,1,0,0:0:0:0:
76,192,48749,1,0,0:0:0:0:
332,192,48749,1,0,0:0:0:0:
25,192,48913,1,0,0:0:0:0:
230,192,48913,1,0,0:0:0:0:
384,192,48913,1,0,0:0:0:0:
486,192,48913,1,0,0:0:0:0:
332,192,49077,1,0,0:0:0:0:
128,192,49077,1,0,0:0:0:0:
179,192,49077,1,0,0:0:0:0:
435,192,49077,1,0,0:0:0:0:
76,192,49241,1,0,0:0:0:0:
25,192,49241,1,0,0:0:0:0:
230,192,49241,1,0,0:0:0:0:
384,192,49241,1,0,0:0:0:0:
281,192,49241,1,0,0:0:0:0:
435,192,49405,1,0,0:0:0:0:
179,192,49405,1,0,0:0:0:0:
332,192,49405,1,0,0:0:0:0:
128,192,49569,1,0,0:0:0:0:
25,192,49569,1,0,0:0:0:0:
384,192,49569,1,0,0:0:0:0:
486,192,49569,1,0,0:0:0:0:
179,192,49733,1,0,0:0:0:0:
230,192,49733,1,0,0:0:0:0:
332,192,49815,1,0,0:0:0:0:
384,192,49815,1,0,0:0:0:0:
76,192,49897,1,0,0:0:0:0:
128,192,49897,1,0,0:0:0:0:
230,192,49979,1,0,0:0:0:0:
281,192,49979,1,0,0:0:0:0:
384,192,50061,1,0,0:0:0:0:
435,192,50061,1,0,0:0:0:0:
76,192,50143,1,0,0:0:0:0:
25,192,50143,1,0,0:0:0:0:
179,192,50225,1,0,0:0:0:0:
230,192,50225,1,0,0:0:0:0:
332,192,50225,1,0,0:0:0:0:
486,192,50388,1,0,0:0:0:0:
128,192,50388,1,0,0:0:0:0:
435,192,50552,1,0,0:0:0:0:
128,192,50552,1,0,0:0:0:0:
230,192,50552,1,0,0:0:0:0:
281,192,50552,1,0,0:0:0:0:
384,192,50716,1,0,0:0:0:0:
179,192,50716,1,0,0:0:0:0:
76,192,50716,1,0,0:0:0:0:
332,192,50880,1,0,0:0:0:0:
230,192,50880,1,0,0:0:0:0:
128,192,50880,1,0,0:0:0:0:
281,192,51044,1,0,0:0:0:0:
179,192,51044,1,0,0:0:0:0:
25,192,51044,1,0,0:0:0:0:
25,192,51208,1,0,0:0:0:0:
76,192,51208,1,0,0:0:0:0:
332,192,51208,1,0,0:0:0:0:
384,192,51208,1,0,0:0:0:0:
128,192,51372,1,0,0:0:0:0:
281,192,51372,1,0,0:0:0:0:
179,192,51536,1,0,0:0:0:0:
230,192,51536,1,0,0:0:0:0:
435,192,51536,1,0,0:0:0:0:
486,192,51536,1,0,0:0:0:0:
332,192,51700,1,0,0:0:0:0:
384,192,51700,1,0,0:0:0:0:
25,192,51700,1,0,0:0:0:0:
76,192,51700,1,0,0:0:0:0:
435,192,51864,1,0,0:0:0:0:
281,192,51864,1,0,0:0:0:0:
128,192,51864,1,0,0:0:0:0:
230,192,51864,1,0,0:0:0:0:
128,192,52028,1,0,0:0:0:0:
25,192,52028,1,0,0:0:0:0:
281,192,52192,1,0,0:0:0:0:
332,192,52192,1,0,0:0:0:0:
76,192,52192,1,0,0:0:0:0:
179,192,52192,1,0,0:0:0:0:
384,192,52356,1,0,0:0:0:0:
435,192,52356,1,0,0:0:0:0:
128,192,52356,1,0,0:0:0:0:
76,192,52356,1,0,0:0:0:0:
230,192,52520,1,0,0:0:0:0:
25,192,52520,1,0,0:0:0:0:
332,192,52520,1,0,0:0:0:0:
486,192,52520,1,0,0:0:0:0:
179,192,52684,1,0,0:0:0:0:
281,192,52684,1,0,0:0:0:0:
230,192,52848,128,0,53503:0:0:0:0:
25,192,52848,128,0,53503:0:0:0:0:
435,192,52848,128,0,53503:0:0:0:0:
128,192,53503,1,0,0:0:0:0:
281,192,53503,1,0,0:0:0:0:
179,192,53585,1,0,0:0:0:0:
332,192,53585,1,0,0:0:0:0:
230,192,53667,1,0,0:0:0:0:
384,192,53667,1,0,0:0:0:0:
128,192,53749,1,0,0:0:0:0:
486,192,53749,1,0,0:0:0:0:
76,192,53831,1,0,0:0:0:0:
435,192,53831,1,0,0:0:0:0:
25,192,53913,1,0,0:0:0:0:
384,192,53913,1,0,0:0:0:0:
128,192,53995,1,0,0:0:0:0:
332,192,53995,1,0,0:0:0:0:
179,192,54077,1,0,0:0:0:0:
384,192,54077,1,0,0:0:0:0:
25,192,54159,1,0,0:0:0:0:
486,192,54159,1,0,0:0:0:0:
230,192,54159,1,0,0:0:0:0:
281,192,54159,1,0,0:0:0:0:
76,192,54323,1,0,0:0:0:0:
179,192,54323,1,0,0:0:0:0:
332,192,54323,1,0,0:0:0:0:
435,192,54323,1,0,0:0:0:0:
128,192,54815,1,0,0:0:0:0:
384,192,54815,1,0,0:0:0:0:
230,192,54815,1,0,0:0:0:0:
281,192,54815,1,0,0:0:0:0:
128,192,54979,1,0,0:0:0:0:
384,192,54979,1,0,0:0:0:0:
25,192,54979,1,0,0:0:0:0:
486,192,54979,1,0,0:0:0:0:
281,192,55470,1,0,0:0:0:0:
332,192,55470,1,0,0:0:0:0:
435,192,55470,1,0,0:0:0:0:
486,192,55470,1,0,0:0:0:0:
25,192,55470,128,0,55798:0:0:0:0:
128,192,55470,1,0,0:0:0:0:
230,192,55634,1,0,0:0:0:0:
179,192,55634,1,0,0:0:0:0:
384,192,55798,1,0,0:0:0:0:
435,192,55798,1,0,0:0:0:0:
128,192,55798,1,0,0:0:0:0:
281,192,55962,1,0,0:0:0:0:
25,192,55962,1,0,0:0:0:0:
332,192,55962,1,0,0:0:0:0:
128,192,55962,128,0,56126:0:0:0:0:
486,192,56126,1,0,0:0:0:0:
435,192,56126,1,0,0:0:0:0:
179,192,56126,1,0,0:0:0:0:
230,192,56290,128,0,56618:0:0:0:0:
76,192,56290,1,0,0:0:0:0:
384,192,56290,1,0,0:0:0:0:
281,192,56290,1,0,0:0:0:0:
128,192,56454,1,0,0:0:0:0:
25,192,56454,1,0,0:0:0:0:
486,192,56454,1,0,0:0:0:0:
332,192,56454,1,0,0:0:0:0:
179,192,56618,1,0,0:0:0:0:
332,192,56618,1,0,0:0:0:0:
384,192,56618,128,0,57110:0:0:0:0:
230,192,56782,1,0,0:0:0:0:
76,192,56782,1,0,0:0:0:0:
128,192,56782,1,0,0:0:0:0:
25,192,56946,1,0,0:0:0:0:
281,192,56946,128,0,57110:0:0:0:0:
128,192,57110,1,0,0:0:0:0:
25,192,57110,1,0,0:0:0:0:
435,192,57110,1,0,0:0:0:0:
486,192,57110,1,0,0:0:0:0:
179,192,57274,128,0,57602:0:0:0:0:
332,192,57274,1,0,0:0:0:0:
230,192,57438,1,0,0:0:0:0:
76,192,57438,1,0,0:0:0:0:
435,192,57438,1,0,0:0:0:0:
332,192,57602,128,0,57766:0:0:0:0:
128,192,57602,1,0,0:0:0:0:
384,192,57602,1,0,0:0:0:0:
435,192,57766,128,0,57929:0:0:0:0:
25,192,57766,1,0,0:0:0:0:
179,192,57766,1,0,0:0:0:0:
486,192,57766,1,0,0:0:0:0:
179,192,58093,1,0,0:0:0:0:
76,192,58093,1,0,0:0:0:0:
25,192,58093,1,0,0:0:0:0:
486,192,58093,128,0,58421:0:0:0:0:
332,192,58093,1,0,0:0:0:0:
384,192,58257,1,0,0:0:0:0:
281,192,58257,1,0,0:0:0:0:
128,192,58421,1,0,0:0:0:0:
25,192,58421,1,0,0:0:0:0:
230,192,58421,1,0,0:0:0:0:
435,192,58585,1,0,0:0:0:0:
332,192,58585,1,0,0:0:0:0:
179,192,58585,128,0,58749:0:0:0:0:
384,192,58749,1,0,0:0:0:0:
128,192,58749,1,0,0:0:0:0:
76,192,58749,1,0,0:0:0:0:
281,192,58749,1,0,0:0:0:0:
332,192,58913,128,0,59241:0:0:0:0:
179,192,58913,1,0,0:0:0:0:
25,192,58913,1,0,0:0:0:0:
230,192,58913,1,0,0:0:0:0:
435,192,59077,1,0,0:0:0:0:
486,192,59077,1,0,0:0:0:0:
128,192,59077,1,0,0:0:0:0:
281,192,59077,1,0,0:0:0:0:
179,192,59241,1,0,0:0:0:0:
230,192,59241,1,0,0:0:0:0:
76,192,59241,128,0,59569:0:0:0:0:
332,192,59405,1,0,0:0:0:0:
435,192,59405,1,0,0:0:0:0:
128,192,59405,1,0,0:0:0:0:
384,192,59569,1,0,0:0:0:0:
230,192,59569,1,0,0:0:0:0:
332,192,59733,1,0,0:0:0:0:
25,192,59733,1,0,0:0:0:0:
128,192,59733,1,0,0:0:0:0:
435,192,59897,1,0,0:0:0:0:
179,192,59897,128,0,60388:0:0:0:0:
281,192,59897,1,0,0:0:0:0:
76,192,60061,1,0,0:0:0:0:
230,192,60061,1,0,0:0:0:0:
332,192,60061,1,0,0:0:0:0:
25,192,60225,1,0,0:0:0:0:
486,192,60225,1,0,0:0:0:0:
128,192,60388,1,0,0:0:0:0:
384,192,60388,1,0,0:0:0:0:
281,192,60388,1,0,0:0:0:0:
230,192,60552,1,0,0:0:0:0:
281,192,60716,128,0,61372:0:0:0:0:
486,192,60716,128,0,61372:0:0:0:0:
179,192,60716,1,0,0:0:0:0:
76,192,60716,1,0,0:0:0:0:
435,192,60716,1,0,0:0:0:0:
76,192,61044,128,0,61536:0:0:0:0:
25,192,61044,1,0,0:0:0:0:
384,192,61044,1,0,0:0:0:0:
230,192,61044,1,0,0:0:0:0:
332,192,61208,1,0,0:0:0:0:
179,192,61208,128,0,61536:0:0:0:0:
384,192,61372,1,0,0:0:0:0:
435,192,61372,1,0,0:0:0:0:
25,192,61372,1,0,0:0:0:0:
128,192,61372,1,0,0:0:0:0:
332,192,61536,1,0,0:0:0:0:
281,192,61536,1,0,0:0:0:0:
230,192,61536,1,0,0:0:0:0:
486,192,61700,1,0,0:0:0:0:
76,192,61700,1,0,0:0:0:0:
179,192,61700,1,0,0:0:0:0:
384,192,61700,128,0,62028:0:0:0:0:
128,192,61700,128,0,61946:0:0:0:0:
25,192,62028,128,0,62684:0:0:0:0:
435,192,62028,1,0,0:0:0:0:
230,192,62028,128,0,62684:0:0:0:0:
332,192,62028,1,0,0:0:0:0:
281,192,62192,1,0,0:0:0:0:
384,192,62192,1,0,0:0:0:0:
76,192,62356,1,0,0:0:0:0:
486,192,62356,1,0,0:0:0:0:
332,192,62356,128,0,62848:0:0:0:0:
435,192,62520,128,0,62848:0:0:0:0:
179,192,62520,1,0,0:0:0:0:
76,192,62684,1,0,0:0:0:0:
486,192,62684,1,0,0:0:0:0:
281,192,62684,1,0,0:0:0:0:
128,192,62684,1,0,0:0:0:0:
384,192,62848,1,0,0:0:0:0:
230,192,62848,1,0,0:0:0:0:
179,192,62848,1,0,0:0:0:0:
25,192,63011,1,0,0:0:0:0:
332,192,63011,1,0,0:0:0:0:
76,192,63011,1,0,0:0:0:0:
435,192,63011,1,0,0:0:0:0:
179,192,63339,128,0,63995:0:0:0:0:
281,192,63339,128,0,63995:0:0:0:0:
435,192,63339,1,0,0:0:0:0:
486,192,63339,1,0,0:0:0:0:
128,192,63339,1,0,0:0:0:0:
384,192,63503,1,0,0:0:0:0:
25,192,63503,1,0,0:0:0:0:
230,192,63503,1,0,0:0:0:0:
332,192,63667,1,0,0:0:0:0:
486,192,63667,1,0,0:0:0:0:
76,192,63667,1,0,0:0:0:0:
435,192,63831,1,0,0:0:0:0:
128,192,63831,1,0,0:0:0:0:
384,192,63995,1,0,0:0:0:0:
486,192,63995,1,0,0:0:0:0:
25,192,63995,1,0,0:0:0:0:
230,192,63995,1,0,0:0:0:0:
281,192,64159,1,0,0:0:0:0:
179,192,64159,1,0,0:0:0:0:
128,192,64159,1,0,0:0:0:0:
332,192,64323,1,0,0:0:0:0:
435,192,64323,1,0,0:0:0:0:
230,192,64323,1,0,0:0:0:0:
25,192,64323,1,0,0:0:0:0:
435,192,64487,1,0,0:0:0:0:
332,192,64487,1,0,0:0:0:0:
76,192,64487,1,0,0:0:0:0:
384,192,64651,1,0,0:0:0:0:
486,192,64651,1,0,0:0:0:0:
179,192,64651,1,0,0:0:0:0:
128,192,64651,1,0,0:0:0:0:
486,192,64815,1,0,0:0:0:0:
281,192,64815,1,0,0:0:0:0:
230,192,64815,1,0,0:0:0:0:
76,192,64815,1,0,0:0:0:0:
332,192,64979,1,0,0:0:0:0:
25,192,64979,1,0,0:0:0:0:
128,192,64979,1,0,0:0:0:0:
435,192,65143,1,0,0:0:0:0:
179,192,65143,1,0,0:0:0:0:
384,192,65307,1,0,0:0:0:0:
281,192,65307,1,0,0:0:0:0:
128,192,65307,1,0,0:0:0:0:
179,192,65388,1,0,0:0:0:0:
332,192,65470,1,0,0:0:0:0:
230,192,65470,1,0,0:0:0:0:
76,192,65470,1,0,0:0:0:0:
25,192,65552,1,0,0:0:0:0:
486,192,65552,1,0,0:0:0:0:
179,192,65634,1,0,0:0:0:0:
435,192,65634,1,0,0:0:0:0:
128,192,65716,1,0,0:0:0:0:
384,192,65716,1,0,0:0:0:0:
76,192,65798,1,0,0:0:0:0:
332,192,65798,1,0,0:0:0:0:
281,192,65880,1,0,0:0:0:0:
230,192,65962,1,0,0:0:0:0:
179,192,65962,1,0,0:0:0:0:
384,192,65962,128,0,66290:0:0:0:0:
486,192,65962,1,0,0:0:0:0:
25,192,65962,1,0,0:0:0:0:
25,192,66290,1,0,0:0:0:0:
486,192,66290,1,0,0:0:0:0:
128,192,66290,1,0,0:0:0:0:
281,192,66290,1,0,0:0:0:0:
435,192,66454,1,0,0:0:0:0:
332,192,66454,1,0,0:0:0:0:
179,192,66454,128,0,66782:0:0:0:0:
76,192,66618,1,0,0:0:0:0:
230,192,66618,1,0,0:0:0:0:
384,192,66618,1,0,0:0:0:0:
435,192,66782,1,0,0:0:0:0:
128,192,66782,1,0,0:0:0:0:
281,192,66782,1,0,0:0:0:0:
486,192,66782,128,0,66946:0:0:0:0:
281,192,66946,1,0,0:0:0:0:
332,192,66946,1,0,0:0:0:0:
25,192,66946,1,0,0:0:0:0:
179,192,66946,1,0,0:0:0:0:
128,192,67110,128,0,67602:0:0:0:0:
384,192,67110,1,0,0:0:0:0:
230,192,67110,1,0,0:0:0:0:
486,192,67438,1,0,0:0:0:0:
230,192,67438,128,0,67602:0:0:0:0:
76,192,67438,1,0,0:0:0:0:
25,192,67602,1,0,0:0:0:0:
332,192,67602,1,0,0:0:0:0:
435,192,67602,1,0,0:0:0:0:
332,192,67766,128,0,68093:0:0:0:0:
281,192,67766,1,0,0:0:0:0:
179,192,67766,1,0,0:0:0:0:
76,192,67766,128,0,67929:0:0:0:0:
281,192,67929,1,0,0:0:0:0:
384,192,68093,1,0,0:0:0:0:
128,192,68093,1,0,0:0:0:0:
76,192,68093,1,0,0:0:0:0:
486,192,68257,1,0,0:0:0:0:
332,192,68257,1,0,0:0:0:0:
179,192,68257,1,0,0:0:0:0:
25,192,68257,1,0,0:0:0:0:
281,192,68585,1,0,0:0:0:0:
25,192,68585,1,0,0:0:0:0:
435,192,68585,128,0,68913:0:0:0:0:
76,192,68585,1,0,0:0:0:0:
179,192,68749,1,0,0:0:0:0:
384,192,68913,1,0,0:0:0:0:
486,192,68913,1,0,0:0:0:0:
281,192,68913,1,0,0:0:0:0:
25,192,68913,1,0,0:0:0:0:
128,192,69077,1,0,0:0:0:0:
332,192,69077,128,0,69241:0:0:0:0:
230,192,69077,1,0,0:0:0:0:
128,192,69241,1,0,0:0:0:0:
384,192,69241,1,0,0:0:0:0:
179,192,69241,1,0,0:0:0:0:
25,192,69405,128,0,69733:0:0:0:0:
332,192,69405,1,0,0:0:0:0:
435,192,69405,1,0,0:0:0:0:
76,192,69405,1,0,0:0:0:0:
230,192,69569,1,0,0:0:0:0:
179,192,69569,1,0,0:0:0:0:
384,192,69569,1,0,0:0:0:0:
435,192,69733,1,0,0:0:0:0:
281,192,69733,1,0,0:0:0:0:
128,192,69733,1,0,0:0:0:0:
486,192,69733,128,0,70061:0:0:0:0:
76,192,70061,1,0,0:0:0:0:
179,192,70061,1,0,0:0:0:0:
384,192,70061,1,0,0:0:0:0:
332,192,70061,1,0,0:0:0:0:
230,192,70225,1,0,0:0:0:0:
25,192,70225,1,0,0:0:0:0:
486,192,70225,1,0,0:0:0:0:
281,192,70225,1,0,0:0:0:0:
76,192,70388,1,0,0:0:0:0:
384,192,70388,128,0,70880:0:0:0:0:
128,192,70388,1,0,0:0:0:0:
281,192,70552,1,0,0:0:0:0:
179,192,70552,1,0,0:0:0:0:
332,192,70716,1,0,0:0:0:0:
25,192,70716,1,0,0:0:0:0:
435,192,70880,1,0,0:0:0:0:
281,192,70880,1,0,0:0:0:0:
76,192,70880,1,0,0:0:0:0:
179,192,70880,1,0,0:0:0:0:
332,192,71208,1,0,0:0:0:0:
230,192,71208,1,0,0:0:0:0:
128,192,71208,1,0,0:0:0:0:
179,192,71208,1,0,0:0:0:0:
435,192,71372,1,0,0:0:0:0:
332,192,71536,1,0,0:0:0:0:
76,192,71536,1,0,0:0:0:0:
25,192,71536,1,0,0:0:0:0:
230,192,71536,1,0,0:0:0:0:
486,192,71700,1,0,0:0:0:0:
281,192,71864,1,0,0:0:0:0:
179,192,71864,1,0,0:0:0:0:
76,192,71864,1,0,0:0:0:0:
128,192,71864,1,0,0:0:0:0:
332,192,72028,1,0,0:0:0:0:
281,192,72192,1,0,0:0:0:0:
435,192,72192,1,0,0:0:0:0:
25,192,72192,1,0,0:0:0:0:
128,192,72192,1,0,0:0:0:0:
486,192,72356,128,0,72684:0:0:0:0:
332,192,72520,1,0,0:0:0:0:
230,192,72520,1,0,0:0:0:0:
25,192,72520,1,0,0:0:0:0:
76,192,72520,1,0,0:0:0:0:
179,192,72684,1,0,0:0:0:0:
435,192,72684,128,0,73011:0:0:0:0:
384,192,72848,1,0,0:0:0:0:
128,192,72848,1,0,0:0:0:0:
25,192,72848,1,0,0:0:0:0:
332,192,73011,1,0,0:0:0:0:
230,192,73011,1,0,0:0:0:0:
76,192,73175,1,0,0:0:0:0:
25,192,73175,1,0,0:0:0:0:
486,192,73339,1,0,0:0:0:0:
179,192,73339,1,0,0:0:0:0:
230,192,73339,1,0,0:0:0:0:
128,192,73503,1,0,0:0:0:0:
76,192,73503,1,0,0:0:0:0:
25,192,73503,1,0,0:0:0:0:
384,192,73503,128,0,74651:0:0:0:0:
281,192,73667,128,0,74651:0:0:0:0:
435,192,73831,1,0,0:0:0:0:
179,192,73831,1,0,0:0:0:0:
128,192,73831,1,0,0:0:0:0:
486,192,73831,1,0,0:0:0:0:
25,192,73995,1,0,0:0:0:0:
486,192,74159,1,0,0:0:0:0:
435,192,74159,1,0,0:0:0:0:
128,192,74159,1,0,0:0:0:0:
230,192,74159,1,0,0:0:0:0:
25,192,74323,1,0,0:0:0:0:
486,192,74487,1,0,0:0:0:0:
179,192,74487,1,0,0:0:0:0:
230,192,74487,1,0,0:0:0:0:
435,192,74487,1,0,0:0:0:0:
128,192,74651,1,0,0:0:0:0:
332,192,74815,1,0,0:0:0:0:
435,192,74815,1,0,0:0:0:0:
76,192,74815,1,0,0:0:0:0:
25,192,74815,1,0,0:0:0:0:
384,192,74979,1,0,0:0:0:0:
179,192,74979,1,0,0:0:0:0:
230,192,74979,1,0,0:0:0:0:
435,192,75143,1,0,0:0:0:0:
128,192,75143,1,0,0:0:0:0:
25,192,75143,1,0,0:0:0:0:
281,192,75143,1,0,0:0:0:0:
332,192,75307,1,0,0:0:0:0:
179,192,75307,1,0,0:0:0:0:
25,192,75470,1,0,0:0:0:0:
230,192,75470,1,0,0:0:0:0:
281,192,75634,1,0,0:0:0:0:
384,192,75634,1,0,0:0:0:0:
179,192,75634,1,0,0:0:0:0:
76,192,75798,1,0,0:0:0:0:
281,192,75962,1,0,0:0:0:0:
435,192,75962,1,0,0:0:0:0:
128,192,75962,1,0,0:0:0:0:
25,192,75962,1,0,0:0:0:0:
332,192,76044,1,0,0:0:0:0:
179,192,76044,1,0,0:0:0:0:
230,192,76126,1,0,0:0:0:0:
76,192,76126,1,0,0:0:0:0:
384,192,76208,1,0,0:0:0:0:
486,192,76208,1,0,0:0:0:0:
281,192,76290,1,0,0:0:0:0:
179,192,76290,1,0,0:0:0:0:
128,192,76454,128,0,76618:0:0:0:0:
230,192,76454,128,0,76782:0:0:0:0:
332,192,76454,128,0,76782:0:0:0:0:
25,192,76618,128,0,76782:0:0:0:0:
384,192,76782,128,0,76946:0:0:0:0:
281,192,76782,128,0,77110:0:0:0:0:
179,192,76782,128,0,77110:0:0:0:0:
76,192,76782,1,0,0:0:0:0:
486,192,76946,128,0,77110:0:0:0:0:
230,192,77110,128,0,77274:0:0:0:0:
128,192,77110,128,0,77438:0:0:0:0:
25,192,77110,128,0,77438:0:0:0:0:
332,192,77274,128,0,77438:0:0:0:0:
435,192,77438,128,0,77602:0:0:0:0:
179,192,77438,128,0,77766:0:0:0:0:
76,192,77438,128,0,77766:0:0:0:0:
384,192,77438,1,0,0:0:0:0:
281,192,77602,128,0,77766:0:0:0:0:
128,192,77766,128,0,77929:0:0:0:0:
486,192,77766,128,0,78093:0:0:0:0:
384,192,77766,128,0,78093:0:0:0:0:
230,192,77929,128,0,78093:0:0:0:0:
435,192,78093,128,0,78421:0:0:0:0:
332,192,78093,128,0,78421:0:0:0:0:
25,192,78093,128,0,78257:0:0:0:0:
128,192,78093,1,0,0:0:0:0:
179,192,78257,128,0,78421:0:0:0:0:
384,192,78421,128,0,78749:0:0:0:0:
281,192,78421,128,0,78749:0:0:0:0:
76,192,78421,128,0,78749:0:0:0:0:
179,192,78585,1,0,0:0:0:0:
230,192,78749,128,0,79077:0:0:0:0:
128,192,78749,128,0,79077:0:0:0:0:
179,192,78749,1,0,0:0:0:0:
332,192,78749,128,0,79077:0:0:0:0:
486,192,79077,128,0,79241:0:0:0:0:
179,192,79077,128,0,79569:0:0:0:0:
25,192,79077,1,0,0:0:0:0:
384,192,79241,1,0,0:0:0:0:
281,192,79241,1,0,0:0:0:0:
332,192,79405,1,0,0:0:0:0:
435,192,79405,1,0,0:0:0:0:
76,192,79405,1,0,0:0:0:0:
230,192,79569,1,0,0:0:0:0:
128,192,79569,1,0,0:0:0:0:
384,192,79733,1,0,0:0:0:0:
486,192,79733,1,0,0:0:0:0:
179,192,79733,1,0,0:0:0:0:
76,192,79897,1,0,0:0:0:0:
25,192,79897,1,0,0:0:0:0:
332,192,79897,1,0,0:0:0:0:
435,192,80061,1,0,0:0:0:0:
384,192,80061,1,0,0:0:0:0:
179,192,80061,1,0,0:0:0:0:
486,192,80225,1,0,0:0:0:0:
25,192,80225,1,0,0:0:0:0:
384,192,80388,1,0,0:0:0:0:
332,192,80388,1,0,0:0:0:0:
230,192,80388,1,0,0:0:0:0:
76,192,80388,1,0,0:0:0:0:
486,192,80552,1,0,0:0:0:0:
76,192,80552,1,0,0:0:0:0:
384,192,80716,1,0,0:0:0:0:
332,192,80716,1,0,0:0:0:0:
76,192,80716,1,0,0:0:0:0:
230,192,80716,1,0,0:0:0:0:
486,192,80880,1,0,0:0:0:0:
76,192,80880,1,0,0:0:0:0:
435,192,81044,1,0,0:0:0:0:
332,192,81044,1,0,0:0:0:0:
179,192,81044,1,0,0:0:0:0:
76,192,81044,1,0,0:0:0:0:
486,192,81208,1,0,0:0:0:0:
25,192,81208,1,0,0:0:0:0:
384,192,81372,1,0,0:0:0:0:
281,192,81372,1,0,0:0:0:0:
230,192,81372,1,0,0:0:0:0:
128,192,81372,1,0,0:0:0:0:
486,192,81536,1,0,0:0:0:0:
25,192,81536,1,0,0:0:0:0:
435,192,81700,1,0,0:0:0:0:
332,192,81700,1,0,0:0:0:0:
179,192,81700,1,0,0:0:0:0:
76,192,81700,1,0,0:0:0:0:
435,192,81864,1,0,0:0:0:0:
128,192,81864,1,0,0:0:0:0:
435,192,82028,1,0,0:0:0:0:
332,192,82028,1,0,0:0:0:0:
128,192,82028,1,0,0:0:0:0:
435,192,82192,1,0,0:0:0:0:
128,192,82192,1,0,0:0:0:0:
384,192,82356,1,0,0:0:0:0:
435,192,82356,1,0,0:0:0:0:
230,192,82356,1,0,0:0:0:0:
25,192,82356,1,0,0:0:0:0:
281,192,82520,1,0,0:0:0:0:
435,192,82520,1,0,0:0:0:0:
179,192,82520,1,0,0:0:0:0:
384,192,82684,1,0,0:0:0:0:
435,192,82684,1,0,0:0:0:0:
76,192,82684,1,0,0:0:0:0:
435,192,82848,1,0,0:0:0:0:
486,192,82848,1,0,0:0:0:0:
230,192,82848,1,0,0:0:0:0:
25,192,82848,1,0,0:0:0:0:
384,192,83011,1,0,0:0:0:0:
332,192,83011,1,0,0:0:0:0:
128,192,83011,1,0,0:0:0:0:
179,192,83011,1,0,0:0:0:0:
281,192,83257,1,0,0:0:0:0:
435,192,83339,1,0,0:0:0:0:
486,192,83339,1,0,0:0:0:0:
128,192,83339,1,0,0:0:0:0:
76,192,83421,1,0,0:0:0:0:
230,192,83421,1,0,0:0:0:0:
332,192,83503,1,0,0:0:0:0:
384,192,83503,1,0,0:0:0:0:
179,192,83503,1,0,0:0:0:0:
435,192,83667,1,0,0:0:0:0:
486,192,83667,1,0,0:0:0:0:
25,192,83667,1,0,0:0:0:0:
76,192,83667,1,0,0:0:0:0:
332,192,83749,1,0,0:0:0:0:
384,192,83749,1,0,0:0:0:0:
128,192,83749,1,0,0:0:0:0:
179,192,83749,1,0,0:0:0:0:
230,192,83831,1,0,0:0:0:0:
281,192,83831,1,0,0:0:0:0:
435,192,83913,1,0,0:0:0:0:
486,192,83913,1,0,0:0:0:0:
76,192,83995,1,0,0:0:0:0:
25,192,83995,1,0,0:0:0:0:
384,192,84077,1,0,0:0:0:0:
332,192,84077,1,0,0:0:0:0:
128,192,84159,1,0,0:0:0:0:
179,192,84159,1,0,0:0:0:0:
435,192,84241,1,0,0:0:0:0:
486,192,84241,1,0,0:0:0:0:
76,192,84323,1,0,0:0:0:0:
25,192,84323,1,0,0:0:0:0:
281,192,84651,1,0,0:0:0:0:
384,192,84651,1,0,0:0:0:0:
486,192,84651,1,0,0:0:0:0:
179,192,84979,1,0,0:0:0:0:
76,192,84979,1,0,0:0:0:0:
128,192,85143,1,0,0:0:0:0:
25,192,85143,1,0,0:0:0:0:
486,192,85307,1,0,0:0:0:0:
281,192,85307,1,0,0:0:0:0:
332,192,85307,1,0,0:0:0:0:
230,192,85634,1,0,0:0:0:0:
76,192,85634,1,0,0:0:0:0:
384,192,85634,1,0,0:0:0:0:
179,192,85798,1,0,0:0:0:0:
128,192,85798,1,0,0:0:0:0:
25,192,85798,1,0,0:0:0:0:
281,192,85962,1,0,0:0:0:0:
384,192,85962,1,0,0:0:0:0:
435,192,85962,1,0,0:0:0:0:
25,192,86290,1,0,0:0:0:0:
230,192,86290,1,0,0:0:0:0:
76,192,86454,1,0,0:0:0:0:
128,192,86454,1,0,0:0:0:0:
179,192,86454,1,0,0:0:0:0:
486,192,86618,1,0,0:0:0:0:
435,192,86618,1,0,0:0:0:0:
384,192,86618,1,0,0:0:0:0:
332,192,86946,1,0,0:0:0:0:
179,192,86946,1,0,0:0:0:0:
25,192,86946,1,0,0:0:0:0:
230,192,87110,1,0,0:0:0:0:
128,192,87110,1,0,0:0:0:0:
281,192,87274,1,0,0:0:0:0:
384,192,87274,1,0,0:0:0:0:
486,192,87274,1,0,0:0:0:0:
128,192,87438,1,0,0:0:0:0:
25,192,87438,1,0,0:0:0:0:
332,192,87602,1,0,0:0:0:0:
486,192,87602,1,0,0:0:0:0:
179,192,87602,1,0,0:0:0:0:
281,192,87766,1,0,0:0:0:0:
384,192,87766,1,0,0:0:0:0:
230,192,87929,1,0,0:0:0:0:
128,192,87929,1,0,0:0:0:0:
25,192,87929,1,0,0:0:0:0:
435,192,88257,1,0,0:0:0:0:
486,192,88257,1,0,0:0:0:0:
332,192,88257,1,0,0:0:0:0:
384,192,88421,1,0,0:0:0:0:
179,192,88421,1,0,0:0:0:0:
76,192,88421,1,0,0:0:0:0:
281,192,88585,1,0,0:0:0:0:
179,192,88585,1,0,0:0:0:0:
76,192,88585,1,0,0:0:0:0:
25,192,88585,1,0,0:0:0:0:
332,192,88749,1,0,0:0:0:0:
230,192,88913,1,0,0:0:0:0:
332,192,88913,1,0,0:0:0:0:
435,192,88913,1,0,0:0:0:0:
179,192,88913,1,0,0:0:0:0:
128,192,89077,1,0,0:0:0:0:
25,192,89077,1,0,0:0:0:0:
281,192,89241,1,0,0:0:0:0:
332,192,89241,1,0,0:0:0:0:
384,192,89241,1,0,0:0:0:0:
25,192,89569,1,0,0:0:0:0:
128,192,89569,1,0,0:0:0:0:
76,192,89569,128,0,89897:0:0:0:0:
281,192,89569,1,0,0:0:0:0:
230,192,89733,1,0,0:0:0:0:
332,192,89733,1,0,0:0:0:0:
384,192,89897,1,0,0:0:0:0:
486,192,89897,1,0,0:0:0:0:
179,192,89897,128,0,90225:0:0:0:0:
281,192,90061,1,0,0:0:0:0:
25,192,90061,128,0,90716:0:0:0:0:
332,192,90225,1,0,0:0:0:0:
435,192,90225,1,0,0:0:0:0:
486,192,90225,1,0,0:0:0:0:
230,192,90225,1,0,0:0:0:0:
128,192,90225,1,0,0:0:0:0:
384,192,90388,1,0,0:0:0:0:
332,192,90552,1,0,0:0:0:0:
435,192,90552,1,0,0:0:0:0:
486,192,90552,1,0,0:0:0:0:
76,192,90552,1,0,0:0:0:0:
179,192,90552,1,0,0:0:0:0:
128,192,90716,1,0,0:0:0:0:
281,192,90880,1,0,0:0:0:0:
486,192,90880,128,0,91208:0:0:0:0:
76,192,90880,1,0,0:0:0:0:
332,192,91044,128,0,91208:0:0:0:0:
179,192,91044,1,0,0:0:0:0:
435,192,91208,128,0,91372:0:0:0:0:
25,192,91208,1,0,0:0:0:0:
76,192,91208,1,0,0:0:0:0:
230,192,91372,1,0,0:0:0:0:
384,192,91372,128,0,92028:0:0:0:0:
25,192,91536,1,0,0:0:0:0:
179,192,91536,1,0,0:0:0:0:
128,192,91536,1,0,0:0:0:0:
281,192,91536,1,0,0:0:0:0:
76,192,91700,1,0,0:0:0:0:
332,192,91700,1,0,0:0:0:0:
128,192,91864,1,0,0:0:0:0:
281,192,91864,1,0,0:0:0:0:
179,192,91864,1,0,0:0:0:0:
25,192,91864,1,0,0:0:0:0:
486,192,91864,1,0,0:0:0:0:
332,192,92028,1,0,0:0:0:0:
435,192,92192,1,0,0:0:0:0:
486,192,92192,1,0,0:0:0:0:
230,192,92192,128,0,92233:0:0:0:0:
128,192,92192,128,0,92233:0:0:0:0:
384,192,92356,1,0,0:0:0:0:
76,192,92356,128,0,92397:0:0:0:0:
179,192,92356,128,0,92397:0:0:0:0:
281,192,92520,1,0,0:0:0:0:
332,192,92520,1,0,0:0:0:0:
128,192,92520,128,0,92561:0:0:0:0:
25,192,92520,128,0,92561:0:0:0:0:
179,192,92684,1,0,0:0:0:0:
384,192,92684,128,0,92725:0:0:0:0:
486,192,92684,128,0,92725:0:0:0:0:
76,192,92848,1,0,0:0:0:0:
25,192,92848,1,0,0:0:0:0:
435,192,92848,128,0,92888:0:0:0:0:
332,192,92848,128,0,92888:0:0:0:0:
128,192,93011,1,0,0:0:0:0:
384,192,93011,128,0,93052:0:0:0:0:
281,192,93011,128,0,93052:0:0:0:0:
179,192,93175,1,0,0:0:0:0:
230,192,93175,1,0,0:0:0:0:
486,192,93175,128,0,93503:0:0:0:0:
76,192,93339,1,0,0:0:0:0:
332,192,93339,128,0,93503:0:0:0:0:
128,192,93503,1,0,0:0:0:0:
435,192,93503,1,0,0:0:0:0:
230,192,93667,1,0,0:0:0:0:
332,192,93667,1,0,0:0:0:0:
486,192,93831,1,0,0:0:0:0:
76,192,93831,1,0,0:0:0:0:
179,192,93831,1,0,0:0:0:0:
435,192,93831,1,0,0:0:0:0:
128,192,93995,1,0,0:0:0:0:
230,192,93995,1,0,0:0:0:0:
25,192,94159,1,0,0:0:0:0:
332,192,94159,1,0,0:0:0:0:
384,192,94159,1,0,0:0:0:0:
128,192,94323,1,0,0:0:0:0:
435,192,94323,1,0,0:0:0:0:
486,192,94323,1,0,0:0:0:0:
25,192,94487,1,0,0:0:0:0:
332,192,94487,1,0,0:0:0:0:
281,192,94487,1,0,0:0:0:0:
128,192,94651,1,0,0:0:0:0:
384,192,94651,1,0,0:0:0:0:
435,192,94651,1,0,0:0:0:0:
179,192,94815,128,0,95798:0:0:0:0:
25,192,94815,128,0,95798:0:0:0:0:
332,192,95307,1,0,0:0:0:0:
486,192,95470,1,0,0:0:0:0:
332,192,95634,1,0,0:0:0:0:
179,192,96126,128,0,96454:0:0:0:0:
128,192,96454,128,0,96618:0:0:0:0:
435,192,96618,1,0,0:0:0:0:
76,192,96618,128,0,96946:0:0:0:0:
486,192,96782,1,0,0:0:0:0:
435,192,96946,1,0,0:0:0:0:
128,192,96946,128,0,97274:0:0:0:0:
230,192,97274,128,0,98093:0:0:0:0:
281,192,97929,1,0,0:0:0:0:
486,192,98093,1,0,0:0:0:0:
281,192,98257,1,0,0:0:0:0:
25,192,98421,128,0,98749:0:0:0:0:
281,192,98749,128,0,99733:0:0:0:0:
76,192,98749,128,0,99241:0:0:0:0:
179,192,99241,128,0,99733:0:0:0:0:
128,192,99733,1,0,0:0:0:0:
230,192,99733,1,0,0:0:0:0:
384,192,99733,1,0,0:0:0:0:
435,192,99733,1,0,0:0:0:0:
486,192,99733,1,0,0:0:0:0:
384,192,100061,1,0,0:0:0:0:
435,192,100061,1,0,0:0:0:0:
76,192,100061,1,0,0:0:0:0:
179,192,100061,128,0,100388:0:0:0:0:
281,192,100061,128,0,100388:0:0:0:0:
486,192,100388,1,0,0:0:0:0:
384,192,100388,1,0,0:0:0:0:
230,192,100388,128,0,100470:0:0:0:0:
25,192,100388,128,0,100470:0:0:0:0:
128,192,100388,1,0,0:0:0:0:
435,192,100716,1,0,0:0:0:0:
281,192,100716,128,0,100798:0:0:0:0:
179,192,100716,128,0,100798:0:0:0:0:
76,192,100716,1,0,0:0:0:0:
128,192,100880,128,0,100962:0:0:0:0:
230,192,100880,128,0,100962:0:0:0:0:
332,192,100880,1,0,0:0:0:0:
486,192,101044,1,0,0:0:0:0:
128,192,101044,128,0,101700:0:0:0:0:
25,192,101044,128,0,101700:0:0:0:0:
384,192,101044,1,0,0:0:0:0:
179,192,101208,128,0,101372:0:0:0:0:
281,192,101208,128,0,101372:0:0:0:0:
486,192,101372,128,0,101700:0:0:0:0:
384,192,101372,128,0,101700:0:0:0:0:
179,192,101536,1,0,0:0:0:0:
179,192,101700,1,0,0:0:0:0:
281,192,101700,1,0,0:0:0:0:
435,192,101700,1,0,0:0:0:0:
435,192,101864,128,0,102192:0:0:0:0:
332,192,101864,128,0,102192:0:0:0:0:
384,192,102028,1,0,0:0:0:0:
128,192,102028,128,0,102520:0:0:0:0:
230,192,102028,128,0,102520:0:0:0:0:
76,192,102192,1,0,0:0:0:0:
179,192,102356,1,0,0:0:0:0:
281,192,102356,1,0,0:0:0:0:
332,192,102356,1,0,0:0:0:0:
486,192,102356,1,0,0:0:0:0:
25,192,102356,1,0,0:0:0:0:
179,192,102684,128,0,103011:0:0:0:0:
25,192,102684,128,0,103011:0:0:0:0:
486,192,102684,1,0,0:0:0:0:
435,192,102684,1,0,0:0:0:0:
332,192,102684,1,0,0:0:0:0:
384,192,103011,1,0,0:0:0:0:
332,192,103011,1,0,0:0:0:0:
230,192,103011,1,0,0:0:0:0:
128,192,103011,1,0,0:0:0:0:
281,192,103175,128,0,103503:0:0:0:0:
486,192,103175,128,0,103503:0:0:0:0:
179,192,103339,1,0,0:0:0:0:
76,192,103339,1,0,0:0:0:0:
435,192,103339,1,0,0:0:0:0:
179,192,103503,1,0,0:0:0:0:
76,192,103503,1,0,0:0:0:0:
384,192,103503,1,0,0:0:0:0:
332,192,103667,128,0,103831:0:0:0:0:
230,192,103667,128,0,103831:0:0:0:0:
128,192,103831,128,0,104323:0:0:0:0:
435,192,103831,128,0,104323:0:0:0:0:
281,192,103831,1,0,0:0:0:0:
384,192,104159,1,0,0:0:0:0:
179,192,104159,1,0,0:0:0:0:
230,192,104323,1,0,0:0:0:0:
76,192,104323,1,0,0:0:0:0:
486,192,104323,1,0,0:0:0:0:
332,192,104323,1,0,0:0:0:0:
332,192,104651,1,0,0:0:0:0:
486,192,104651,1,0,0:0:0:0:
25,192,104651,1,0,0:0:0:0:
76,192,104651,1,0,0:0:0:0:
435,192,104815,1,0,0:0:0:0:
179,192,104815,1,0,0:0:0:0:
384,192,104897,1,0,0:0:0:0:
230,192,104897,1,0,0:0:0:0:
332,192,104979,1,0,0:0:0:0:
128,192,104979,1,0,0:0:0:0:
384,192,105061,1,0,0:0:0:0:
179,192,105061,1,0,0:0:0:0:
76,192,105143,1,0,0:0:0:0:
435,192,105143,1,0,0:0:0:0:
128,192,105225,1,0,0:0:0:0:
486,192,105225,1,0,0:0:0:0:
25,192,105307,1,0,0:0:0:0:
384,192,105307,1,0,0:0:0:0:
230,192,105307,1,0,0:0:0:0:
281,192,105307,1,0,0:0:0:0:
486,192,105470,1,0,0:0:0:0:
76,192,105470,1,0,0:0:0:0:
435,192,105634,1,0,0:0:0:0:
128,192,105634,1,0,0:0:0:0:
230,192,105634,1,0,0:0:0:0:
332,192,105798,1,0,0:0:0:0:
25,192,105798,1,0,0:0:0:0:
435,192,105962,1,0,0:0:0:0:
128,192,105962,1,0,0:0:0:0:
76,192,105962,1,0,0:0:0:0:
332,192,106126,1,0,0:0:0:0:
179,192,106126,1,0,0:0:0:0:
281,192,106290,1,0,0:0:0:0:
128,192,106290,1,0,0:0:0:0:
25,192,106290,1,0,0:0:0:0:
384,192,106454,1,0,0:0:0:0:
179,192,106454,1,0,0:0:0:0:
230,192,106618,1,0,0:0:0:0:
486,192,106618,1,0,0:0:0:0:
281,192,106618,1,0,0:0:0:0:
76,192,106782,1,0,0:0:0:0:
332,192,106782,1,0,0:0:0:0:
179,192,106946,1,0,0:0:0:0:
435,192,106946,1,0,0:0:0:0:
486,192,106946,1,0,0:0:0:0:
128,192,107110,1,0,0:0:0:0:
332,192,107110,1,0,0:0:0:0:
76,192,107274,1,0,0:0:0:0:
384,192,107274,1,0,0:0:0:0:
486,192,107274,1,0,0:0:0:0:
179,192,107438,1,0,0:0:0:0:
281,192,107438,1,0,0:0:0:0:
128,192,107602,1,0,0:0:0:0:
332,192,107602,1,0,0:0:0:0:
486,192,107602,1,0,0:0:0:0:
25,192,107766,1,0,0:0:0:0:
281,192,107766,1,0,0:0:0:0:
384,192,107929,1,0,0:0:0:0:
332,192,107929,1,0,0:0:0:0:
230,192,107929,1,0,0:0:0:0:
128,192,107929,1,0,0:0:0:0:
486,192,108093,1,0,0:0:0:0:
76,192,108093,1,0,0:0:0:0:
435,192,108257,1,0,0:0:0:0:
230,192,108257,1,0,0:0:0:0:
179,192,108257,1,0,0:0:0:0:
332,192,108421,1,0,0:0:0:0:
76,192,108421,1,0,0:0:0:0:
435,192,108585,1,0,0:0:0:0:
25,192,108585,1,0,0:0:0:0:
230,192,108585,1,0,0:0:0:0:
332,192,108749,1,0,0:0:0:0:
179,192,108749,1,0,0:0:0:0:
281,192,108913,1,0,0:0:0:0:
230,192,108913,1,0,0:0:0:0:
76,192,108913,1,0,0:0:0:0:
384,192,109077,1,0,0:0:0:0:
179,192,109077,1,0,0:0:0:0:
281,192,109241,1,0,0:0:0:0:
128,192,109241,1,0,0:0:0:0:
332,192,109241,1,0,0:0:0:0:
76,192,109405,1,0,0:0:0:0:
435,192,109405,1,0,0:0:0:0:
179,192,109569,1,0,0:0:0:0:
486,192,109569,1,0,0:0:0:0:
281,192,109569,1,0,0:0:0:0:
128,192,109733,1,0,0:0:0:0:
384,192,109733,1,0,0:0:0:0:
435,192,109897,1,0,0:0:0:0:
25,192,109897,1,0,0:0:0:0:
76,192,109897,1,0,0:0:0:0:
486,192,109897,1,0,0:0:0:0:
128,192,109979,1,0,0:0:0:0:
384,192,109979,1,0,0:0:0:0:
230,192,110061,1,0,0:0:0:0:
281,192,110061,1,0,0:0:0:0:
332,192,110225,1,0,0:0:0:0:
486,192,110225,1,0,0:0:0:0:
76,192,110225,1,0,0:0:0:0:
179,192,110225,1,0,0:0:0:0:
25,192,110225,1,0,0:0:0:0:
435,192,110225,1,0,0:0:0:0:
25,192,110552,128,0,111208:0:0:0:0:
230,192,110552,128,0,110880:0:0:0:0:
128,192,110552,128,0,110880:0:0:0:0:
179,192,110880,1,0,0:0:0:0:
76,192,110880,1,0,0:0:0:0:
332,192,110880,1,0,0:0:0:0:
384,192,110880,1,0,0:0:0:0:
281,192,111044,1,0,0:0:0:0:
435,192,111044,1,0,0:0:0:0:
332,192,111208,1,0,0:0:0:0:
384,192,111208,1,0,0:0:0:0:
230,192,111208,1,0,0:0:0:0:
128,192,111208,1,0,0:0:0:0:
332,192,111372,1,0,0:0:0:0:
128,192,111372,1,0,0:0:0:0:
25,192,111372,1,0,0:0:0:0:
76,192,111536,1,0,0:0:0:0:
435,192,111536,1,0,0:0:0:0:
179,192,111536,1,0,0:0:0:0:
179,192,111700,1,0,0:0:0:0:
486,192,111700,128,0,112274:0:0:0:0:
281,192,111700,128,0,112028:0:0:0:0:
384,192,111700,128,0,112028:0:0:0:0:
76,192,111700,1,0,0:0:0:0:
76,192,112028,1,0,0:0:0:0:
179,192,112028,1,0,0:0:0:0:
128,192,112028,1,0,0:0:0:0:
435,192,112192,1,0,0:0:0:0:
332,192,112192,1,0,0:0:0:0:
230,192,112192,1,0,0:0:0:0:
179,192,112520,1,0,0:0:0:0:
25,192,112520,1,0,0:0:0:0:
332,192,112520,1,0,0:0:0:0:
435,192,112520,1,0,0:0:0:0:
179,192,112684,1,0,0:0:0:0:
25,192,112684,1,0,0:0:0:0:
332,192,112684,1,0,0:0:0:0:
179,192,112848,1,0,0:0:0:0:
128,192,112848,1,0,0:0:0:0:
25,192,112848,1,0,0:0:0:0:
486,192,112848,1,0,0:0:0:0:
435,192,112848,1,0,0:0:0:0:
128,192,113011,1,0,0:0:0:0:
25,192,113011,1,0,0:0:0:0:
332,192,113175,1,0,0:0:0:0:
230,192,113175,1,0,0:0:0:0:
281,192,113175,128,0,113503:0:0:0:0:
179,192,113175,128,0,113503:0:0:0:0:
384,192,113175,128,0,113503:0:0:0:0:
25,192,113503,1,0,0:0:0:0:
76,192,113503,1,0,0:0:0:0:
128,192,113503,1,0,0:0:0:0:
332,192,113503,1,0,0:0:0:0:
435,192,113503,1,0,0:0:0:0:
486,192,113503,1,0,0:0:0:0:
179,192,113831,1,0,0:0:0:0:
128,192,113831,1,0,0:0:0:0:
76,192,113831,1,0,0:0:0:0:
332,192,113831,1,0,0:0:0:0:
486,192,113831,1,0,0:0:0:0:
76,192,113995,1,0,0:0:0:0:
25,192,113995,1,0,0:0:0:0:
486,192,113995,1,0,0:0:0:0:
435,192,113995,1,0,0:0:0:0:
179,192,114159,1,0,0:0:0:0:
230,192,114159,1,0,0:0:0:0:
435,192,114159,1,0,0:0:0:0:
486,192,114159,1,0,0:0:0:0:
179,192,114323,1,0,0:0:0:0:
332,192,114323,1,0,0:0:0:0:
230,192,114323,128,0,114815:0:0:0:0:
281,192,114323,128,0,114815:0:0:0:0:
384,192,114323,128,0,114815:0:0:0:0:
128,192,114323,128,0,114815:0:0:0:0:
76,192,114651,5,0,0:0:0:0:
435,192,114651,1,0,0:0:0:0:
179,192,114815,1,0,0:0:0:0:
25,192,114815,1,0,0:0:0:0:
332,192,114815,1,0,0:0:0:0:
486,192,114815,1,0,0:0:0:0:
76,192,115143,1,0,0:0:0:0:
128,192,115143,1,0,0:0:0:0:
384,192,115143,1,0,0:0:0:0:
435,192,115143,1,0,0:0:0:0:
281,192,115225,1,0,0:0:0:0:
230,192,115225,1,0,0:0:0:0:
25,192,115307,1,0,0:0:0:0:
486,192,115307,1,0,0:0:0:0:
384,192,115388,1,0,0:0:0:0:
332,192,115388,1,0,0:0:0:0:
179,192,115470,1,0,0:0:0:0:
128,192,115470,1,0,0:0:0:0:
281,192,115552,1,0,0:0:0:0:
230,192,115634,1,0,0:0:0:0:
281,192,115716,1,0,0:0:0:0:
230,192,115798,1,0,0:0:0:0:
25,192,115798,1,0,0:0:0:0:
384,192,115798,1,0,0:0:0:0:
281,192,115962,1,0,0:0:0:0:
76,192,116126,1,0,0:0:0:0:
179,192,116126,1,0,0:0:0:0:
486,192,116126,1,0,0:0:0:0:
332,192,116126,1,0,0:0:0:0:
384,192,116290,1,0,0:0:0:0:
435,192,116290,1,0,0:0:0:0:
332,192,116454,1,0,0:0:0:0:
25,192,116454,1,0,0:0:0:0:
230,192,116454,1,0,0:0:0:0:
486,192,116454,1,0,0:0:0:0:
384,192,116618,1,0,0:0:0:0:
179,192,116618,1,0,0:0:0:0:
76,192,116618,1,0,0:0:0:0:
435,192,116618,1,0,0:0:0:0:
332,192,116782,1,0,0:0:0:0:
25,192,116782,1,0,0:0:0:0:
230,192,116782,1,0,0:0:0:0:
486,192,116782,1,0,0:0:0:0:
384,192,116946,1,0,0:0:0:0:
179,192,116946,1,0,0:0:0:0:
76,192,116946,1,0,0:0:0:0:
435,192,116946,1,0,0:0:0:0:
332,192,117110,1,0,0:0:0:0:
25,192,117110,1,0,0:0:0:0:
230,192,117110,1,0,0:0:0:0:
486,192,117110,1,0,0:0:0:0:
128,192,117274,1,0,0:0:0:0:
179,192,117274,1,0,0:0:0:0:
384,192,117274,1,0,0:0:0:0:
435,192,117274,1,0,0:0:0:0:
25,192,117438,1,0,0:0:0:0:
230,192,117438,1,0,0:0:0:0:
486,192,117438,1,0,0:0:0:0:
281,192,117438,1,0,0:0:0:0:
384,192,117602,1,0,0:0:0:0:
76,192,117602,1,0,0:0:0:0:
128,192,117602,1,0,0:0:0:0:
435,192,117602,1,0,0:0:0:0:
25,192,117766,1,0,0:0:0:0:
179,192,117766,1,0,0:0:0:0:
230,192,117766,1,0,0:0:0:0:
486,192,117766,1,0,0:0:0:0:
332,192,117766,1,0,0:0:0:0:
230,192,118093,1,0,0:0:0:0:
25,192,118093,1,0,0:0:0:0:
76,192,118093,1,0,0:0:0:0:
435,192,118093,1,0,0:0:0:0:
281,192,118093,1,0,0:0:0:0:
281,192,118421,1,0,0:0:0:0:
486,192,118421,1,0,0:0:0:0:
128,192,118421,1,0,0:0:0:0:
230,192,118585,1,0,0:0:0:0:
435,192,118749,1,0,0:0:0:0:
332,192,118749,1,0,0:0:0:0:
25,192,118749,1,0,0:0:0:0:
179,192,118749,1,0,0:0:0:0:
128,192,118913,1,0,0:0:0:0:
76,192,118913,1,0,0:0:0:0:
179,192,119077,1,0,0:0:0:0:
486,192,119077,1,0,0:0:0:0:
281,192,119077,1,0,0:0:0:0:
25,192,119077,1,0,0:0:0:0:
128,192,119241,1,0,0:0:0:0:
332,192,119241,1,0,0:0:0:0:
435,192,119241,1,0,0:0:0:0:
76,192,119241,1,0,0:0:0:0:
179,192,119405,1,0,0:0:0:0:
486,192,119405,1,0,0:0:0:0:
281,192,119405,1,0,0:0:0:0:
25,192,119405,1,0,0:0:0:0:
128,192,119569,1,0,0:0:0:0:
332,192,119569,1,0,0:0:0:0:
435,192,119569,1,0,0:0:0:0:
76,192,119569,1,0,0:0:0:0:
179,192,119733,1,0,0:0:0:0:
486,192,119733,1,0,0:0:0:0:
281,192,119733,1,0,0:0:0:0:
25,192,119733,1,0,0:0:0:0:
384,192,119897,1,0,0:0:0:0:
332,192,119897,1,0,0:0:0:0:
128,192,119897,1,0,0:0:0:0:
76,192,119897,1,0,0:0:0:0:
486,192,120061,1,0,0:0:0:0:
281,192,120061,1,0,0:0:0:0:
25,192,120061,1,0,0:0:0:0:
230,192,120061,1,0,0:0:0:0:
128,192,120225,1,0,0:0:0:0:
435,192,120225,1,0,0:0:0:0:
384,192,120225,1,0,0:0:0:0:
76,192,120225,1,0,0:0:0:0:
486,192,120388,1,0,0:0:0:0:
332,192,120388,1,0,0:0:0:0:
281,192,120388,1,0,0:0:0:0:
25,192,120388,1,0,0:0:0:0:
179,192,120388,1,0,0:0:0:0:
281,192,120716,1,0,0:0:0:0:
486,192,120716,1,0,0:0:0:0:
435,192,120716,1,0,0:0:0:0:
76,192,120716,1,0,0:0:0:0:
230,192,120716,1,0,0:0:0:0:
384,192,121044,128,0,122028:0:0:0:0:
486,192,121044,1,0,0:0:0:0:
179,192,121044,1,0,0:0:0:0:
128,192,121044,1,0,0:0:0:0:
435,192,121208,1,0,0:0:0:0:
230,192,121208,1,0,0:0:0:0:
332,192,121372,1,0,0:0:0:0:
76,192,121372,1,0,0:0:0:0:
128,192,121372,1,0,0:0:0:0:
25,192,121372,1,0,0:0:0:0:
281,192,121536,1,0,0:0:0:0:
128,192,121536,1,0,0:0:0:0:
179,192,121536,1,0,0:0:0:0:
435,192,121700,1,0,0:0:0:0:
76,192,121700,1,0,0:0:0:0:
25,192,121700,1,0,0:0:0:0:
230,192,121700,1,0,0:0:0:0:
332,192,121864,1,0,0:0:0:0:
179,192,121864,1,0,0:0:0:0:
128,192,121864,1,0,0:0:0:0:
281,192,122028,1,0,0:0:0:0:
128,192,122028,1,0,0:0:0:0:
179,192,122028,1,0,0:0:0:0:
230,192,122028,1,0,0:0:0:0:
486,192,122192,1,0,0:0:0:0:
128,192,122192,1,0,0:0:0:0:
76,192,122192,1,0,0:0:0:0:
435,192,122356,1,0,0:0:0:0:
179,192,122356,1,0,0:0:0:0:
25,192,122356,1,0,0:0:0:0:
230,192,122356,128,0,123339:0:0:0:0:
332,192,122520,1,0,0:0:0:0:
76,192,122520,1,0,0:0:0:0:
128,192,122520,1,0,0:0:0:0:
281,192,122684,1,0,0:0:0:0:
179,192,122684,1,0,0:0:0:0:
25,192,122684,1,0,0:0:0:0:
486,192,122848,1,0,0:0:0:0:
128,192,122848,1,0,0:0:0:0:
76,192,122848,1,0,0:0:0:0:
384,192,123011,1,0,0:0:0:0:
179,192,123011,1,0,0:0:0:0:
332,192,123175,1,0,0:0:0:0:
76,192,123175,1,0,0:0:0:0:
25,192,123175,1,0,0:0:0:0:
281,192,123339,1,0,0:0:0:0:
128,192,123339,1,0,0:0:0:0:
179,192,123339,1,0,0:0:0:0:
435,192,123339,1,0,0:0:0:0:
332,192,123667,1,0,0:0:0:0:
25,192,123667,1,0,0:0:0:0:
486,192,123831,1,0,0:0:0:0:
128,192,123831,1,0,0:0:0:0:
281,192,123913,1,0,0:0:0:0:
76,192,123913,1,0,0:0:0:0:
486,192,123995,1,0,0:0:0:0:
25,192,123995,1,0,0:0:0:0:
281,192,124077,1,0,0:0:0:0:
179,192,124077,1,0,0:0:0:0:
435,192,124159,1,0,0:0:0:0:
230,192,124159,1,0,0:0:0:0:
332,192,124241,1,0,0:0:0:0:
179,192,124241,1,0,0:0:0:0:
435,192,124323,1,0,0:0:0:0:
128,192,124323,1,0,0:0:0:0:
332,192,124405,1,0,0:0:0:0:
76,192,124405,1,0,0:0:0:0:
486,192,124487,1,0,0:0:0:0:
25,192,124487,1,0,0:0:0:0:
435,192,124569,1,0,0:0:0:0:
76,192,124569,1,0,0:0:0:0:
384,192,124651,1,0,0:0:0:0:
128,192,124651,1,0,0:0:0:0:
332,192,124733,1,0,0:0:0:0:
179,192,124733,1,0,0:0:0:0:
281,192,124815,1,0,0:0:0:0:
230,192,124815,1,0,0:0:0:0:
332,192,124897,1,0,0:0:0:0:
179,192,124897,1,0,0:0:0:0:
486,192,124979,1,0,0:0:0:0:
25,192,124979,1,0,0:0:0:0:
384,192,124979,1,0,0:0:0:0:
128,192,124979,1,0,0:0:0:0:
332,192,125143,1,0,0:0:0:0:
179,192,125143,1,0,0:0:0:0:
435,192,125143,1,0,0:0:0:0:
76,192,125143,1,0,0:0:0:0:
281,192,125634,1,0,0:0:0:0:
384,192,125634,1,0,0:0:0:0:
230,192,125634,1,0,0:0:0:0:
128,192,125634,1,0,0:0:0:0:
179,192,125798,1,0,0:0:0:0:
76,192,125798,1,0,0:0:0:0:
332,192,125798,1,0,0:0:0:0:
435,192,125798,1,0,0:0:0:0:
230,192,126290,1,0,0:0:0:0:
179,192,126290,1,0,0:0:0:0:
76,192,126290,1,0,0:0:0:0:
25,192,126290,1,0,0:0:0:0:
486,192,126290,128,0,126618:0:0:0:0:
384,192,126290,1,0,0:0:0:0:
281,192,126454,1,0,0:0:0:0:
332,192,126454,1,0,0:0:0:0:
128,192,126618,1,0,0:0:0:0:
76,192,126618,1,0,0:0:0:0:
384,192,126618,1,0,0:0:0:0:
230,192,126782,1,0,0:0:0:0:
486,192,126782,1,0,0:0:0:0:
179,192,126782,1,0,0:0:0:0:
384,192,126782,128,0,126946:0:0:0:0:
25,192,126946,1,0,0:0:0:0:
76,192,126946,1,0,0:0:0:0:
332,192,126946,1,0,0:0:0:0:
281,192,127110,128,0,127438:0:0:0:0:
435,192,127110,1,0,0:0:0:0:
128,192,127110,1,0,0:0:0:0:
230,192,127110,1,0,0:0:0:0:
384,192,127274,1,0,0:0:0:0:
486,192,127274,1,0,0:0:0:0:
25,192,127274,1,0,0:0:0:0:
179,192,127274,1,0,0:0:0:0:
332,192,127438,1,0,0:0:0:0:
179,192,127438,1,0,0:0:0:0:
128,192,127438,128,0,127929:0:0:0:0:
281,192,127602,1,0,0:0:0:0:
435,192,127602,1,0,0:0:0:0:
384,192,127602,1,0,0:0:0:0:
486,192,127766,1,0,0:0:0:0:
230,192,127766,128,0,127929:0:0:0:0:
384,192,127929,1,0,0:0:0:0:
486,192,127929,1,0,0:0:0:0:
76,192,127929,1,0,0:0:0:0:
25,192,127929,1,0,0:0:0:0:
332,192,128093,128,0,128421:0:0:0:0:
179,192,128093,1,0,0:0:0:0:
281,192,128257,1,0,0:0:0:0:
435,192,128257,1,0,0:0:0:0:
76,192,128257,1,0,0:0:0:0:
179,192,128421,128,0,128585:0:0:0:0:
384,192,128421,1,0,0:0:0:0:
128,192,128421,1,0,0:0:0:0:
76,192,128585,128,0,128749:0:0:0:0:
486,192,128585,1,0,0:0:0:0:
332,192,128585,1,0,0:0:0:0:
25,192,128585,1,0,0:0:0:0:
332,192,128913,1,0,0:0:0:0:
435,192,128913,1,0,0:0:0:0:
486,192,128913,1,0,0:0:0:0:
25,192,128913,128,0,129241:0:0:0:0:
179,192,128913,1,0,0:0:0:0:
128,192,129077,1,0,0:0:0:0:
230,192,129077,1,0,0:0:0:0:
384,192,129241,1,0,0:0:0:0:
486,192,129241,1,0,0:0:0:0:
281,192,129241,1,0,0:0:0:0:
76,192,129405,1,0,0:0:0:0:
179,192,129405,1,0,0:0:0:0:
332,192,129405,128,0,129569:0:0:0:0:
128,192,129569,1,0,0:0:0:0:
384,192,129569,1,0,0:0:0:0:
435,192,129569,1,0,0:0:0:0:
230,192,129569,1,0,0:0:0:0:
179,192,129733,128,0,130061:0:0:0:0:
332,192,129733,1,0,0:0:0:0:
486,192,129733,1,0,0:0:0:0:
281,192,129733,1,0,0:0:0:0:
76,192,129897,1,0,0:0:0:0:
25,192,129897,1,0,0:0:0:0:
384,192,129897,1,0,0:0:0:0:
230,192,129897,1,0,0:0:0:0:
332,192,130061,1,0,0:0:0:0:
281,192,130061,1,0,0:0:0:0:
435,192,130061,128,0,130388:0:0:0:0:
179,192,130225,1,0,0:0:0:0:
76,192,130225,1,0,0:0:0:0:
384,192,130225,1,0,0:0:0:0:
128,192,130388,1,0,0:0:0:0:
281,192,130388,1,0,0:0:0:0:
179,192,130552,1,0,0:0:0:0:
486,192,130552,1,0,0:0:0:0:
384,192,130552,1,0,0:0:0:0:
76,192,130716,1,0,0:0:0:0:
332,192,130716,128,0,131208:0:0:0:0:
230,192,130716,1,0,0:0:0:0:
435,192,130880,1,0,0:0:0:0:
281,192,130880,1,0,0:0:0:0:
179,192,130880,1,0,0:0:0:0:
486,192,131044,1,0,0:0:0:0:
25,192,131044,1,0,0:0:0:0:
384,192,131208,1,0,0:0:0:0:
128,192,131208,1,0,0:0:0:0:
230,192,131208,1,0,0:0:0:0:
230,192,131536,128,0,132192:0:0:0:0:
25,192,131536,128,0,132192:0:0:0:0:
332,192,131536,1,0,0:0:0:0:
435,192,131536,1,0,0:0:0:0:
384,192,131700,1,0,0:0:0:0:
486,192,131700,1,0,0:0:0:0:
76,192,131864,1,0,0:0:0:0:
281,192,131864,1,0,0:0:0:0:
435,192,131864,128,0,132356:0:0:0:0:
179,192,132028,1,0,0:0:0:0:
332,192,132028,128,0,132356:0:0:0:0:
128,192,132192,1,0,0:0:0:0:
76,192,132192,1,0,0:0:0:0:
281,192,132192,1,0,0:0:0:0:
486,192,132192,1,0,0:0:0:0:
179,192,132356,1,0,0:0:0:0:
230,192,132356,1,0,0:0:0:0:
384,192,132356,1,0,0:0:0:0:
76,192,132520,1,0,0:0:0:0:
25,192,132520,1,0,0:0:0:0:
435,192,132520,1,0,0:0:0:0:
332,192,132520,1,0,0:0:0:0:
486,192,132848,128,0,133503:0:0:0:0:
76,192,132848,1,0,0:0:0:0:
281,192,132848,128,0,133503:0:0:0:0:
179,192,132848,1,0,0:0:0:0:
230,192,133011,1,0,0:0:0:0:
128,192,133011,1,0,0:0:0:0:
435,192,133175,1,0,0:0:0:0:
25,192,133175,1,0,0:0:0:0:
179,192,133175,128,0,133667:0:0:0:0:
76,192,133339,128,0,133667:0:0:0:0:
332,192,133339,1,0,0:0:0:0:
435,192,133503,1,0,0:0:0:0:
25,192,133503,1,0,0:0:0:0:
230,192,133503,1,0,0:0:0:0:
384,192,133503,1,0,0:0:0:0:
128,192,133667,1,0,0:0:0:0:
281,192,133667,1,0,0:0:0:0:
332,192,133667,1,0,0:0:0:0:
486,192,133831,1,0,0:0:0:0:
179,192,133831,1,0,0:0:0:0:
435,192,133831,1,0,0:0:0:0:
76,192,133831,1,0,0:0:0:0:
332,192,134159,128,0,134815:0:0:0:0:
230,192,134159,128,0,134815:0:0:0:0:
76,192,134159,1,0,0:0:0:0:
25,192,134159,1,0,0:0:0:0:
384,192,134159,1,0,0:0:0:0:
128,192,134323,1,0,0:0:0:0:
486,192,134323,1,0,0:0:0:0:
179,192,134487,1,0,0:0:0:0:
25,192,134487,1,0,0:0:0:0:
384,192,134487,1,0,0:0:0:0:
76,192,134651,1,0,0:0:0:0:
435,192,134651,1,0,0:0:0:0:
128,192,134815,1,0,0:0:0:0:
25,192,134815,1,0,0:0:0:0:
486,192,134815,1,0,0:0:0:0:
281,192,134815,1,0,0:0:0:0:
230,192,134979,1,0,0:0:0:0:
332,192,134979,1,0,0:0:0:0:
384,192,134979,1,0,0:0:0:0:
179,192,135143,1,0,0:0:0:0:
76,192,135143,1,0,0:0:0:0:
281,192,135143,1,0,0:0:0:0:
486,192,135143,1,0,0:0:0:0:
76,192,135307,1,0,0:0:0:0:
179,192,135307,1,0,0:0:0:0:
435,192,135307,1,0,0:0:0:0:
128,192,135470,1,0,0:0:0:0:
25,192,135470,1,0,0:0:0:0:
332,192,135470,1,0,0:0:0:0:
384,192,135470,1,0,0:0:0:0:
25,192,135634,1,0,0:0:0:0:
230,192,135634,1,0,0:0:0:0:
281,192,135634,1,0,0:0:0:0:
435,192,135634,1,0,0:0:0:0:
179,192,135798,1,0,0:0:0:0:
486,192,135798,1,0,0:0:0:0:
384,192,135798,1,0,0:0:0:0:
76,192,135962,1,0,0:0:0:0:
332,192,135962,1,0,0:0:0:0:
128,192,136126,1,0,0:0:0:0:
230,192,136126,1,0,0:0:0:0:
384,192,136126,1,0,0:0:0:0:
332,192,136208,1,0,0:0:0:0:
179,192,136290,1,0,0:0:0:0:
281,192,136290,1,0,0:0:0:0:
435,192,136290,1,0,0:0:0:0:
486,192,136372,1,0,0:0:0:0:
25,192,136372,1,0,0:0:0:0:
332,192,136454,1,0,0:0:0:0:
76,192,136454,1,0,0:0:0:0:
384,192,136536,1,0,0:0:0:0:
128,192,136536,1,0,0:0:0:0:
435,192,136618,1,0,0:0:0:0:
179,192,136618,1,0,0:0:0:0:
281,192,136782,1,0,0:0:0:0:
332,192,136782,1,0,0:0:0:0:
128,192,136782,128,0,137110:0:0:0:0:
25,192,136782,1,0,0:0:0:0:
486,192,136782,1,0,0:0:0:0:
486,192,137110,1,0,0:0:0:0:
25,192,137110,1,0,0:0:0:0:
384,192,137110,1,0,0:0:0:0:
230,192,137110,1,0,0:0:0:0:
76,192,137274,1,0,0:0:0:0:
179,192,137274,1,0,0:0:0:0:
332,192,137274,128,0,137602:0:0:0:0:
435,192,137438,1,0,0:0:0:0:
281,192,137438,1,0,0:0:0:0:
128,192,137438,1,0,0:0:0:0:
76,192,137602,1,0,0:0:0:0:
384,192,137602,1,0,0:0:0:0:
230,192,137602,1,0,0:0:0:0:
25,192,137602,128,0,137766:0:0:0:0:
230,192,137766,1,0,0:0:0:0:
179,192,137766,1,0,0:0:0:0:
486,192,137766,1,0,0:0:0:0:
332,192,137766,1,0,0:0:0:0:
76,192,137929,1,0,0:0:0:0:
384,192,137929,128,0,138421:0:0:0:0:
128,192,137929,1,0,0:0:0:0:
281,192,137929,1,0,0:0:0:0:
25,192,138257,1,0,0:0:0:0:
281,192,138257,128,0,138421:0:0:0:0:
435,192,138257,1,0,0:0:0:0:
486,192,138421,1,0,0:0:0:0:
179,192,138421,1,0,0:0:0:0:
76,192,138421,1,0,0:0:0:0:
179,192,138585,128,0,138913:0:0:0:0:
230,192,138585,1,0,0:0:0:0:
332,192,138585,1,0,0:0:0:0:
435,192,138585,128,0,138749:0:0:0:0:
230,192,138749,1,0,0:0:0:0:
128,192,138913,1,0,0:0:0:0:
384,192,138913,1,0,0:0:0:0:
435,192,138913,1,0,0:0:0:0:
25,192,139077,1,0,0:0:0:0:
179,192,139077,1,0,0:0:0:0:
332,192,139077,1,0,0:0:0:0:
486,192,139077,1,0,0:0:0:0:
230,192,139405,1,0,0:0:0:0:
486,192,139405,1,0,0:0:0:0:
76,192,139405,128,0,139733:0:0:0:0:
435,192,139405,1,0,0:0:0:0:
332,192,139569,1,0,0:0:0:0:
128,192,139733,1,0,0:0:0:0:
25,192,139733,1,0,0:0:0:0:
230,192,139733,1,0,0:0:0:0:
486,192,139733,1,0,0:0:0:0:
384,192,139897,1,0,0:0:0:0:
179,192,139897,128,0,140061:0:0:0:0:
281,192,139897,1,0,0:0:0:0:
384,192,140061,1,0,0:0:0:0:
128,192,140061,1,0,0:0:0:0:
332,192,140061,1,0,0:0:0:0:
486,192,140225,128,0,140552:0:0:0:0:
179,192,140225,1,0,0:0:0:0:
76,192,140225,1,0,0:0:0:0:
435,192,140225,1,0,0:0:0:0:
281,192,140388,1,0,0:0:0:0:
332,192,140388,1,0,0:0:0:0:
128,192,140388,1,0,0:0:0:0:
76,192,140552,1,0,0:0:0:0:
230,192,140552,1,0,0:0:0:0:
384,192,140552,1,0,0:0:0:0:
25,192,140552,128,0,140880:0:0:0:0:
435,192,140880,1,0,0:0:0:0:
332,192,140880,1,0,0:0:0:0:
128,192,140880,1,0,0:0:0:0:
179,192,140880,1,0,0:0:0:0:
281,192,141044,1,0,0:0:0:0:
486,192,141044,1,0,0:0:0:0:
25,192,141044,1,0,0:0:0:0:
230,192,141044,1,0,0:0:0:0:
435,192,141208,1,0,0:0:0:0:
128,192,141208,128,0,141700:0:0:0:0:
384,192,141208,1,0,0:0:0:0:
230,192,141372,1,0,0:0:0:0:
332,192,141372,1,0,0:0:0:0:
179,192,141536,1,0,0:0:0:0:
486,192,141536,1,0,0:0:0:0:
76,192,141700,1,0,0:0:0:0:
230,192,141700,1,0,0:0:0:0:
435,192,141700,1,0,0:0:0:0:
332,192,141700,1,0,0:0:0:0:
179,192,142028,1,0,0:0:0:0:
281,192,142028,1,0,0:0:0:0:
384,192,142028,1,0,0:0:0:0:
332,192,142028,1,0,0:0:0:0:
76,192,142192,1,0,0:0:0:0:
179,192,142356,1,0,0:0:0:0:
435,192,142356,1,0,0:0:0:0:
486,192,142356,1,0,0:0:0:0:
281,192,142356,1,0,0:0:0:0:
25,192,142520,1,0,0:0:0:0:
230,192,142684,1,0,0:0:0:0:
332,192,142684,1,0,0:0:0:0:
435,192,142684,1,0,0:0:0:0:
384,192,142684,1,0,0:0:0:0:
179,192,142848,1,0,0:0:0:0:
281,192,142848,1,0,0:0:0:0:
332,192,142848,1,0,0:0:0:0:
230,192,143011,1,0,0:0:0:0:
76,192,143011,1,0,0:0:0:0:
486,192,143011,1,0,0:0:0:0:
384,192,143011,1,0,0:0:0:0:
25,192,143175,128,0,143503:0:0:0:0:
179,192,143339,1,0,0:0:0:0:
281,192,143339,1,0,0:0:0:0:
486,192,143339,1,0,0:0:0:0:
435,192,143339,1,0,0:0:0:0:
332,192,143503,1,0,0:0:0:0:
76,192,143503,128,0,143831:0:0:0:0:
128,192,143667,1,0,0:0:0:0:
384,192,143667,1,0,0:0:0:0:
486,192,143667,1,0,0:0:0:0:
179,192,143831,1,0,0:0:0:0:
281,192,143831,1,0,0:0:0:0:
435,192,143995,1,0,0:0:0:0:
486,192,143995,1,0,0:0:0:0:
25,192,144159,1,0,0:0:0:0:
332,192,144159,1,0,0:0:0:0:
281,192,144159,1,0,0:0:0:0:
384,192,144323,1,0,0:0:0:0:
435,192,144323,1,0,0:0:0:0:
486,192,144323,1,0,0:0:0:0:
128,192,144323,128,0,145470:0:0:0:0:
230,192,144487,128,0,145470:0:0:0:0:
76,192,144651,1,0,0:0:0:0:
332,192,144651,1,0,0:0:0:0:
384,192,144651,1,0,0:0:0:0:
179,192,144815,1,0,0:0:0:0:
435,192,144815,1,0,0:0:0:0:
486,192,144815,1,0,0:0:0:0:
25,192,144979,1,0,0:0:0:0:
76,192,144979,1,0,0:0:0:0:
384,192,144979,1,0,0:0:0:0:
281,192,144979,1,0,0:0:0:0:
179,192,145143,1,0,0:0:0:0:
25,192,145307,1,0,0:0:0:0:
332,192,145307,1,0,0:0:0:0:
281,192,145307,1,0,0:0:0:0:
25,192,145470,1,0,0:0:0:0:
384,192,145470,1,0,0:0:0:0:
179,192,145634,1,0,0:0:0:0:
76,192,145634,1,0,0:0:0:0:
435,192,145634,1,0,0:0:0:0:
486,192,145634,1,0,0:0:0:0:
128,192,145798,1,0,0:0:0:0:
332,192,145798,1,0,0:0:0:0:
281,192,145798,1,0,0:0:0:0:
76,192,145962,1,0,0:0:0:0:
384,192,145962,1,0,0:0:0:0:
486,192,145962,1,0,0:0:0:0:
230,192,145962,1,0,0:0:0:0:
332,192,146208,1,0,0:0:0:0:
25,192,146208,1,0,0:0:0:0:
128,192,146208,1,0,0:0:0:0:
486,192,146290,1,0,0:0:0:0:
281,192,146290,1,0,0:0:0:0:
179,192,146290,1,0,0:0:0:0:
230,192,146454,1,0,0:0:0:0:
128,192,146454,1,0,0:0:0:0:
435,192,146454,1,0,0:0:0:0:
332,192,146782,1,0,0:0:0:0:
486,192,146782,1,0,0:0:0:0:
76,192,146782,1,0,0:0:0:0:
25,192,146782,1,0,0:0:0:0:
281,192,146946,1,0,0:0:0:0:
384,192,146946,1,0,0:0:0:0:
179,192,146946,1,0,0:0:0:0:
230,192,147110,1,0,0:0:0:0:
76,192,147110,1,0,0:0:0:0:
435,192,147110,1,0,0:0:0:0:
128,192,147274,1,0,0:0:0:0:
332,192,147274,1,0,0:0:0:0:
384,192,147274,1,0,0:0:0:0:
281,192,147274,1,0,0:0:0:0:
179,192,147274,1,0,0:0:0:0:
179,192,149077,1,0,0:0:0:0:
332,192,149159,1,0,0:0:0:0:
76,192,149241,1,0,0:0:0:0:
435,192,149241,1,0,0:0:0:0:
332,192,149897,1,0,0:0:0:0:
332,192,150388,1,0,0:0:0:0:
179,192,150470,1,0,0:0:0:0:
435,192,150552,1,0,0:0:0:0:
76,192,150716,1,0,0:0:0:0:
179,192,150962,1,0,0:0:0:0:
179,192,151208,1,0,0:0:0:0:
435,192,151208,1,0,0:0:0:0:
230,192,152028,128,0,152520:0:0:0:0:
332,192,152520,1,0,0:0:0:0:
384,192,152520,1,0,0:0:0:0:
435,192,152520,1,0,0:0:0:0:
76,192,152520,1,0,0:0:0:0:
128,192,152520,1,0,0:0:0:0:
179,192,152520,1,0,0:0:0:0:
25,192,152684,1,0,0:0:0:0:
76,192,152684,1,0,0:0:0:0:
435,192,152684,1,0,0:0:0:0:
486,192,152684,1,0,0:0:0:0:
281,192,152684,128,0,155143:0:0:0:0:
230,192,152684,128,0,155143:0:0:0:0:
25,192,155143,128,0,157766:0:0:0:0:
486,192,155143,128,0,157766:0:0:0:0:
179,192,156454,1,0,0:0:0:0:
230,192,156454,1,0,0:0:0:0:
281,192,156454,1,0,0:0:0:0:
332,192,156454,1,0,0:0:0:0:
76,192,156618,1,0,0:0:0:0:
128,192,156618,1,0,0:0:0:0:
179,192,156700,1,0,0:0:0:0:
281,192,156700,1,0,0:0:0:0:
332,192,156782,1,0,0:0:0:0:
384,192,156782,1,0,0:0:0:0:
435,192,156782,1,0,0:0:0:0:
179,192,156946,1,0,0:0:0:0:
128,192,156946,1,0,0:0:0:0:
76,192,156946,1,0,0:0:0:0:
435,192,157110,1,0,0:0:0:0:
230,192,157110,1,0,0:0:0:0:
384,192,157110,1,0,0:0:0:0:
76,192,157274,1,0,0:0:0:0:
281,192,157274,1,0,0:0:0:0:
332,192,157438,1,0,0:0:0:0:
384,192,157438,1,0,0:0:0:0:
179,192,157438,1,0,0:0:0:0:
128,192,157438,1,0,0:0:0:0:
281,192,157766,128,0,157929:0:0:0:0:
384,192,157766,128,0,157929:0:0:0:0:
179,192,157766,1,0,0:0:0:0:
128,192,157929,1,0,0:0:0:0:
76,192,157929,1,0,0:0:0:0:
332,192,158093,128,0,158257:0:0:0:0:
435,192,158093,128,0,158257:0:0:0:0:
179,192,158093,1,0,0:0:0:0:
25,192,158093,1,0,0:0:0:0:
230,192,158257,128,0,158585:0:0:0:0:
128,192,158257,128,0,158585:0:0:0:0:
486,192,158421,1,0,0:0:0:0:
332,192,158421,1,0,0:0:0:0:
76,192,158421,1,0,0:0:0:0:
179,192,158585,128,0,158749:0:0:0:0:
384,192,158585,128,0,158749:0:0:0:0:
435,192,158585,1,0,0:0:0:0:
281,192,158749,128,0,158913:0:0:0:0:
76,192,158749,128,0,158913:0:0:0:0:
230,192,158913,128,0,159077:0:0:0:0:
332,192,158913,128,0,159077:0:0:0:0:
25,192,159077,128,0,159241:0:0:0:0:
128,192,159077,128,0,159241:0:0:0:0:
435,192,159077,1,0,0:0:0:0:
384,192,159241,128,0,159405:0:0:0:0:
486,192,159241,128,0,159569:0:0:0:0:
25,192,159405,128,0,159569:0:0:0:0:
230,192,159405,128,0,159569:0:0:0:0:
179,192,159405,1,0,0:0:0:0:
281,192,159569,1,0,0:0:0:0:
76,192,159733,128,0,159897:0:0:0:0:
435,192,159733,128,0,159897:0:0:0:0:
179,192,159733,1,0,0:0:0:0:
332,192,159733,1,0,0:0:0:0:
128,192,159897,1,0,0:0:0:0:
384,192,159897,1,0,0:0:0:0:
230,192,160061,1,0,0:0:0:0:
25,192,160061,1,0,0:0:0:0:
281,192,160061,1,0,0:0:0:0:
486,192,160061,1,0,0:0:0:0:
179,192,160061,128,0,160225:0:0:0:0:
332,192,160061,128,0,160225:0:0:0:0:
128,192,160225,1,0,0:0:0:0:
384,192,160225,1,0,0:0:0:0:
76,192,160388,1,0,0:0:0:0:
179,192,160388,1,0,0:0:0:0:
435,192,160388,1,0,0:0:0:0:
486,192,160388,1,0,0:0:0:0:
384,192,160388,128,0,160470:0:0:0:0:
128,192,160388,128,0,160470:0:0:0:0:
230,192,160716,128,0,160880:0:0:0:0:
25,192,160716,128,0,160880:0:0:0:0:
281,192,160880,128,0,161044:0:0:0:0:
486,192,160880,128,0,161044:0:0:0:0:
128,192,161044,128,0,161208:0:0:0:0:
76,192,161044,128,0,161208:0:0:0:0:
179,192,161044,1,0,0:0:0:0:
384,192,161208,128,0,161372:0:0:0:0:
435,192,161208,128,0,161372:0:0:0:0:
230,192,161372,128,0,161536:0:0:0:0:
281,192,161372,128,0,161536:0:0:0:0:
179,192,161372,1,0,0:0:0:0:
76,192,161536,128,0,161700:0:0:0:0:
25,192,161536,128,0,161864:0:0:0:0:
486,192,161700,128,0,161864:0:0:0:0:
332,192,161700,128,0,161864:0:0:0:0:
179,192,161700,1,0,0:0:0:0:
230,192,161864,1,0,0:0:0:0:
384,192,162028,128,0,162192:0:0:0:0:
128,192,162028,128,0,162192:0:0:0:0:
435,192,162028,1,0,0:0:0:0:
76,192,162028,1,0,0:0:0:0:
332,192,162192,1,0,0:0:0:0:
179,192,162192,1,0,0:0:0:0:
281,192,162356,1,0,0:0:0:0:
435,192,162356,1,0,0:0:0:0:
230,192,162356,1,0,0:0:0:0:
76,192,162356,1,0,0:0:0:0:
486,192,162356,128,0,162520:0:0:0:0:
25,192,162356,128,0,162520:0:0:0:0:
384,192,162520,1,0,0:0:0:0:
128,192,162520,1,0,0:0:0:0:
281,192,162684,1,0,0:0:0:0:
332,192,162684,1,0,0:0:0:0:
76,192,162684,1,0,0:0:0:0:
179,192,162684,1,0,0:0:0:0:
128,192,162684,128,0,162766:0:0:0:0:
384,192,162684,128,0,162766:0:0:0:0:
332,192,163011,1,0,0:0:0:0:
230,192,163011,1,0,0:0:0:0:
128,192,163011,1,0,0:0:0:0:
128,192,163175,1,0,0:0:0:0:
230,192,163175,1,0,0:0:0:0:
179,192,163339,128,0,163503:0:0:0:0:
76,192,163339,128,0,163503:0:0:0:0:
332,192,163339,1,0,0:0:0:0:
435,192,163339,1,0,0:0:0:0:
281,192,163503,128,0,163831:0:0:0:0:
384,192,163503,128,0,163831:0:0:0:0:
25,192,163503,1,0,0:0:0:0:
179,192,163667,1,0,0:0:0:0:
435,192,163667,1,0,0:0:0:0:
332,192,163831,128,0,163995:0:0:0:0:
230,192,163831,128,0,163995:0:0:0:0:
76,192,163831,1,0,0:0:0:0:
128,192,163995,128,0,164159:0:0:0:0:
435,192,163995,128,0,164159:0:0:0:0:
281,192,164159,128,0,164323:0:0:0:0:
179,192,164159,128,0,164323:0:0:0:0:
486,192,164323,128,0,164487:0:0:0:0:
384,192,164323,128,0,164487:0:0:0:0:
76,192,164323,1,0,0:0:0:0:
128,192,164487,128,0,164651:0:0:0:0:
25,192,164487,128,0,164815:0:0:0:0:
486,192,164651,128,0,164815:0:0:0:0:
281,192,164651,128,0,164815:0:0:0:0:
230,192,164651,1,0,0:0:0:0:
179,192,164815,1,0,0:0:0:0:
435,192,164979,128,0,165143:0:0:0:0:
76,192,164979,128,0,165143:0:0:0:0:
384,192,164979,1,0,0:0:0:0:
128,192,164979,1,0,0:0:0:0:
281,192,165143,1,0,0:0:0:0:
230,192,165143,1,0,0:0:0:0:
384,192,165307,1,0,0:0:0:0:
486,192,165307,1,0,0:0:0:0:
128,192,165307,1,0,0:0:0:0:
25,192,165307,1,0,0:0:0:0:
332,192,165307,128,0,165470:0:0:0:0:
179,192,165307,128,0,165470:0:0:0:0:
435,192,165634,1,0,0:0:0:0:
332,192,165634,1,0,0:0:0:0:
76,192,165634,1,0,0:0:0:0:
25,192,165634,1,0,0:0:0:0:
128,192,165634,128,0,165716:0:0:0:0:
384,192,165634,128,0,165716:0:0:0:0:
179,192,165962,128,0,166126:0:0:0:0:
486,192,165962,128,0,166126:0:0:0:0:
281,192,166126,128,0,166290:0:0:0:0:
25,192,166126,128,0,166290:0:0:0:0:
384,192,166290,128,0,166454:0:0:0:0:
435,192,166290,128,0,166454:0:0:0:0:
230,192,166290,1,0,0:0:0:0:
128,192,166454,128,0,166618:0:0:0:0:
76,192,166454,128,0,166618:0:0:0:0:
281,192,166618,128,0,166782:0:0:0:0:
332,192,166618,128,0,166782:0:0:0:0:
179,192,166618,1,0,0:0:0:0:
435,192,166782,128,0,166946:0:0:0:0:
486,192,166782,128,0,167110:0:0:0:0:
25,192,166946,128,0,167110:0:0:0:0:
179,192,166946,128,0,167110:0:0:0:0:
332,192,166946,1,0,0:0:0:0:
230,192,167110,5,0,0:0:0:0:
230,192,167274,128,0,167438:0:0:0:0:
486,192,167274,128,0,167438:0:0:0:0:
435,192,167274,1,0,0:0:0:0:
179,192,167274,1,0,0:0:0:0:
128,192,167438,1,0,0:0:0:0:
384,192,167438,1,0,0:0:0:0:
76,192,167602,1,0,0:0:0:0:
332,192,167602,1,0,0:0:0:0:
25,192,167602,128,0,167766:0:0:0:0:
281,192,167602,128,0,167766:0:0:0:0:
128,192,167766,1,0,0:0:0:0:
384,192,167766,1,0,0:0:0:0:
230,192,167929,1,0,0:0:0:0:
179,192,167929,1,0,0:0:0:0:
435,192,167929,1,0,0:0:0:0:
332,192,167929,1,0,0:0:0:0:
384,192,167929,128,0,168175:0:0:0:0:
128,192,167929,128,0,168175:0:0:0:0:
486,192,168257,128,0,168339:0:0:0:0:
332,192,168257,128,0,168339:0:0:0:0:
384,192,168421,128,0,168503:0:0:0:0:
230,192,168421,128,0,168503:0:0:0:0:
281,192,168585,128,0,168667:0:0:0:0:
128,192,168585,128,0,168667:0:0:0:0:
384,192,168749,128,0,168831:0:0:0:0:
486,192,168749,128,0,168831:0:0:0:0:
332,192,168913,128,0,168995:0:0:0:0:
230,192,168913,128,0,168995:0:0:0:0:
179,192,169077,128,0,169159:0:0:0:0:
76,192,169077,128,0,169159:0:0:0:0:
230,192,169241,128,0,169323:0:0:0:0:
384,192,169241,128,0,169323:0:0:0:0:
128,192,169405,128,0,169487:0:0:0:0:
281,192,169405,128,0,169487:0:0:0:0:
179,192,169569,128,0,169651:0:0:0:0:
25,192,169569,128,0,169651:0:0:0:0:
332,192,169733,128,0,169815:0:0:0:0:
435,192,169733,128,0,169815:0:0:0:0:
281,192,169897,128,0,169979:0:0:0:0:
179,192,169897,128,0,169979:0:0:0:0:
25,192,170061,128,0,170143:0:0:0:0:
128,192,170061,128,0,170143:0:0:0:0:
76,192,170225,128,0,170388:0:0:0:0:
230,192,170225,128,0,170388:0:0:0:0:
384,192,170225,128,0,170388:0:0:0:0:
332,192,170552,128,0,170634:0:0:0:0:
179,192,170552,128,0,170634:0:0:0:0:
486,192,170552,128,0,170634:0:0:0:0:
435,192,170880,128,0,172192:0:0:0:0:
281,192,170880,128,0,171208:0:0:0:0:
230,192,171208,128,0,171372:0:0:0:0:
179,192,171208,128,0,171372:0:0:0:0:
332,192,171372,128,0,171536:0:0:0:0:
384,192,171372,128,0,171536:0:0:0:0:
281,192,171454,1,0,0:0:0:0:
179,192,171454,1,0,0:0:0:0:
76,192,171536,128,0,171700:0:0:0:0:
128,192,171536,128,0,171700:0:0:0:0:
230,192,171700,128,0,171864:0:0:0:0:
281,192,171700,128,0,171864:0:0:0:0:
25,192,171864,128,0,172356:0:0:0:0:
76,192,171864,128,0,172356:0:0:0:0:
281,192,172028,1,0,0:0:0:0:
332,192,172028,1,0,0:0:0:0:
128,192,172356,128,0,172520:0:0:0:0:
179,192,172356,128,0,172520:0:0:0:0:
281,192,172520,128,0,172684:0:0:0:0:
384,192,172520,128,0,172684:0:0:0:0:
230,192,172684,128,0,172848:0:0:0:0:
179,192,172684,128,0,172848:0:0:0:0:
332,192,172848,128,0,173011:0:0:0:0:
435,192,172848,128,0,173011:0:0:0:0:
281,192,172848,1,0,0:0:0:0:
76,192,173011,128,0,173175:0:0:0:0:
25,192,173011,128,0,173175:0:0:0:0:
384,192,173175,128,0,173339:0:0:0:0:
486,192,173175,128,0,173339:0:0:0:0:
230,192,173175,1,0,0:0:0:0:
76,192,173339,128,0,173667:0:0:0:0:
128,192,173339,128,0,173667:0:0:0:0:
230,192,173503,1,0,0:0:0:0:
281,192,173503,1,0,0:0:0:0:
332,192,173503,128,0,173995:0:0:0:0:
384,192,173667,128,0,173831:0:0:0:0:
179,192,173831,128,0,173995:0:0:0:0:
25,192,173831,128,0,173995:0:0:0:0:
128,192,173995,128,0,174159:0:0:0:0:
281,192,173995,128,0,174159:0:0:0:0:
435,192,174077,1,0,0:0:0:0:
230,192,174077,1,0,0:0:0:0:
332,192,174159,128,0,174323:0:0:0:0:
486,192,174159,128,0,174323:0:0:0:0:
230,192,174323,128,0,174487:0:0:0:0:
25,192,174323,128,0,174487:0:0:0:0:
128,192,174487,128,0,174651:0:0:0:0:
281,192,174487,128,0,174651:0:0:0:0:
76,192,174487,1,0,0:0:0:0:
332,192,174651,1,0,0:0:0:0:
384,192,174651,128,0,174815:0:0:0:0:
435,192,174651,128,0,174815:0:0:0:0:
281,192,174815,128,0,174979:0:0:0:0:
230,192,174815,128,0,174979:0:0:0:0:
332,192,174979,1,0,0:0:0:0:
128,192,174979,128,0,175143:0:0:0:0:
76,192,174979,128,0,175143:0:0:0:0:
435,192,175143,128,0,175307:0:0:0:0:
486,192,175143,128,0,175307:0:0:0:0:
384,192,175143,1,0,0:0:0:0:
281,192,175307,128,0,175470:0:0:0:0:
230,192,175307,128,0,175470:0:0:0:0:
76,192,175470,128,0,175634:0:0:0:0:
25,192,175470,128,0,175634:0:0:0:0:
179,192,175470,1,0,0:0:0:0:
332,192,175634,128,0,175798:0:0:0:0:
384,192,175634,128,0,175798:0:0:0:0:
179,192,175798,128,0,175962:0:0:0:0:
128,192,175798,128,0,175962:0:0:0:0:
435,192,175798,1,0,0:0:0:0:
230,192,175962,128,0,176126:0:0:0:0:
281,192,175962,128,0,176126:0:0:0:0:
76,192,176126,128,0,176290:0:0:0:0:
25,192,176126,128,0,176290:0:0:0:0:
435,192,176126,128,0,176454:0:0:0:0:
486,192,176126,128,0,176454:0:0:0:0:
179,192,176290,128,0,176454:0:0:0:0:
230,192,176290,128,0,176454:0:0:0:0:
332,192,176454,128,0,176618:0:0:0:0:
384,192,176454,128,0,176618:0:0:0:0:
128,192,176618,128,0,176782:0:0:0:0:
25,192,176618,128,0,176782:0:0:0:0:
281,192,176782,1,0,0:0:0:0:
230,192,176782,1,0,0:0:0:0:
332,192,176782,1,0,0:0:0:0:
179,192,176782,1,0,0:0:0:0:
486,192,176864,128,0,177028:0:0:0:0:
435,192,176864,128,0,177028:0:0:0:0:
179,192,177110,1,0,0:0:0:0:
128,192,177110,1,0,0:0:0:0:
76,192,177274,1,0,0:0:0:0:
128,192,177274,1,0,0:0:0:0:
384,192,177274,128,0,177356:0:0:0:0:
435,192,177274,128,0,177356:0:0:0:0:
384,192,177602,128,0,177684:0:0:0:0:
332,192,177602,128,0,177684:0:0:0:0:
230,192,177602,1,0,0:0:0:0:
179,192,177602,1,0,0:0:0:0:
25,192,177766,1,0,0:0:0:0:
76,192,177766,1,0,0:0:0:0:
332,192,177929,128,0,178011:0:0:0:0:
281,192,177929,128,0,178011:0:0:0:0:
128,192,177929,1,0,0:0:0:0:
230,192,178093,1,0,0:0:0:0:
25,192,178093,1,0,0:0:0:0:
486,192,178093,1,0,0:0:0:0:
435,192,178093,1,0,0:0:0:0:
230,192,178257,128,0,178421:0:0:0:0:
179,192,178257,128,0,178421:0:0:0:0:
384,192,178257,1,0,0:0:0:0:
332,192,178257,1,0,0:0:0:0:
76,192,178585,1,0,0:0:0:0:
179,192,178667,1,0,0:0:0:0:
332,192,178749,5,0,0:0:0:0:
435,192,178749,1,0,0:0:0:0:
486,192,178749,1,0,0:0:0:0:
230,192,178749,1,0,0:0:0:0:
76,192,178913,1,0,0:0:0:0:
25,192,178913,1,0,0:0:0:0:
128,192,178913,1,0,0:0:0:0:
230,192,179077,1,0,0:0:0:0:
179,192,179077,1,0,0:0:0:0:
281,192,179077,1,0,0:0:0:0:
384,192,179241,1,0,0:0:0:0:
486,192,179241,1,0,0:0:0:0:
332,192,179241,1,0,0:0:0:0:
230,192,179405,1,0,0:0:0:0:
281,192,179405,1,0,0:0:0:0:
179,192,179405,1,0,0:0:0:0:
128,192,179569,1,0,0:0:0:0:
76,192,179569,1,0,0:0:0:0:
25,192,179569,1,0,0:0:0:0:
281,192,179733,1,0,0:0:0:0:
486,192,179733,1,0,0:0:0:0:
332,192,179733,1,0,0:0:0:0:
230,192,179897,1,0,0:0:0:0:
25,192,179897,1,0,0:0:0:0:
435,192,179897,1,0,0:0:0:0:
76,192,180061,1,0,0:0:0:0:
179,192,180061,1,0,0:0:0:0:
128,192,180061,1,0,0:0:0:0:
281,192,180225,1,0,0:0:0:0:
25,192,180225,1,0,0:0:0:0:
384,192,180225,1,0,0:0:0:0:
230,192,180388,1,0,0:0:0:0:
179,192,180388,1,0,0:0:0:0:
128,192,180388,1,0,0:0:0:0:
332,192,180552,1,0,0:0:0:0:
435,192,180552,1,0,0:0:0:0:
384,192,180552,1,0,0:0:0:0:
230,192,180716,1,0,0:0:0:0:
179,192,180716,1,0,0:0:0:0:
76,192,180716,1,0,0:0:0:0:
332,192,180880,1,0,0:0:0:0:
281,192,180880,1,0,0:0:0:0:
486,192,181044,1,0,0:0:0:0:
25,192,181044,1,0,0:0:0:0:
435,192,181044,1,0,0:0:0:0:
128,192,181044,1,0,0:0:0:0:
179,192,181372,1,0,0:0:0:0:
76,192,181372,1,0,0:0:0:0:
486,192,181372,1,0,0:0:0:0:
179,192,181536,1,0,0:0:0:0:
76,192,181536,1,0,0:0:0:0:
435,192,181536,1,0,0:0:0:0:
76,192,181700,1,0,0:0:0:0:
179,192,181700,1,0,0:0:0:0:
384,192,181700,1,0,0:0:0:0:
332,192,181864,1,0,0:0:0:0:
435,192,181864,1,0,0:0:0:0:
128,192,181864,1,0,0:0:0:0:
435,192,182028,1,0,0:0:0:0:
332,192,182028,1,0,0:0:0:0:
179,192,182028,1,0,0:0:0:0:
332,192,182192,1,0,0:0:0:0:
435,192,182192,1,0,0:0:0:0:
230,192,182192,1,0,0:0:0:0:
128,192,182356,1,0,0:0:0:0:
25,192,182356,1,0,0:0:0:0:
384,192,182356,1,0,0:0:0:0:
128,192,182520,1,0,0:0:0:0:
25,192,182520,1,0,0:0:0:0:
281,192,182520,1,0,0:0:0:0:
25,192,182684,1,0,0:0:0:0:
128,192,182684,1,0,0:0:0:0:
332,192,182684,1,0,0:0:0:0:
384,192,182848,1,0,0:0:0:0:
486,192,182848,1,0,0:0:0:0:
179,192,182848,1,0,0:0:0:0:
384,192,183011,1,0,0:0:0:0:
486,192,183011,1,0,0:0:0:0:
25,192,183011,1,0,0:0:0:0:
384,192,183175,1,0,0:0:0:0:
486,192,183175,1,0,0:0:0:0:
128,192,183175,1,0,0:0:0:0:
179,192,183339,1,0,0:0:0:0:
76,192,183339,1,0,0:0:0:0:
281,192,183339,1,0,0:0:0:0:
128,192,183503,1,0,0:0:0:0:
230,192,183503,1,0,0:0:0:0:
435,192,183503,1,0,0:0:0:0:
179,192,183667,1,0,0:0:0:0:
486,192,183667,1,0,0:0:0:0:
332,192,183667,1,0,0:0:0:0:
25,192,183995,128,0,185307:0:0:0:0:
230,192,183995,1,0,0:0:0:0:
281,192,183995,1,0,0:0:0:0:
128,192,184323,1,0,0:0:0:0:
179,192,184323,1,0,0:0:0:0:
486,192,184323,128,0,184651:0:0:0:0:
76,192,184651,1,0,0:0:0:0:
435,192,184651,128,0,184815:0:0:0:0:
332,192,184815,128,0,184979:0:0:0:0:
179,192,184815,1,0,0:0:0:0:
76,192,184979,1,0,0:0:0:0:
384,192,184979,128,0,185143:0:0:0:0:
281,192,185143,128,0,185307:0:0:0:0:
230,192,185143,1,0,0:0:0:0:
128,192,185307,1,0,0:0:0:0:
384,192,185307,128,0,185634:0:0:0:0:
179,192,185307,1,0,0:0:0:0:
486,192,185470,1,0,0:0:0:0:
76,192,185470,1,0,0:0:0:0:
25,192,185470,1,0,0:0:0:0:
332,192,185552,1,0,0:0:0:0:
128,192,185552,1,0,0:0:0:0:
435,192,185634,1,0,0:0:0:0:
179,192,185634,1,0,0:0:0:0:
230,192,185634,1,0,0:0:0:0:
25,192,185798,1,0,0:0:0:0:
332,192,185798,1,0,0:0:0:0:
384,192,185798,1,0,0:0:0:0:
486,192,185798,1,0,0:0:0:0:
128,192,185798,1,0,0:0:0:0:
25,192,186618,1,0,0:0:0:0:
76,192,186618,1,0,0:0:0:0:
435,192,186618,1,0,0:0:0:0:
384,192,186782,1,0,0:0:0:0:
281,192,186946,1,0,0:0:0:0:
435,192,187110,1,0,0:0:0:0:
384,192,187274,1,0,0:0:0:0:
281,192,187438,1,0,0:0:0:0:
435,192,187602,1,0,0:0:0:0:
384,192,187766,1,0,0:0:0:0:
486,192,187929,1,0,0:0:0:0:
76,192,187929,1,0,0:0:0:0:
179,192,187929,1,0,0:0:0:0:
384,192,188093,1,0,0:0:0:0:
281,192,188257,1,0,0:0:0:0:
435,192,188421,1,0,0:0:0:0:
384,192,188585,1,0,0:0:0:0:
281,192,188749,1,0,0:0:0:0:
332,192,188913,1,0,0:0:0:0:
384,192,189077,1,0,0:0:0:0:
25,192,189241,1,0,0:0:0:0:
230,192,189241,1,0,0:0:0:0:
435,192,189241,1,0,0:0:0:0:
384,192,189405,1,0,0:0:0:0:
281,192,189569,1,0,0:0:0:0:
435,192,189733,1,0,0:0:0:0:
384,192,189897,1,0,0:0:0:0:
281,192,190061,1,0,0:0:0:0:
384,192,190225,1,0,0:0:0:0:
281,192,190388,1,0,0:0:0:0:
486,192,190552,1,0,0:0:0:0:
76,192,190552,1,0,0:0:0:0:
179,192,190552,1,0,0:0:0:0:
435,192,190716,1,0,0:0:0:0:
332,192,190880,1,0,0:0:0:0:
486,192,191044,1,0,0:0:0:0:
230,192,191208,128,0,191317:0:0:0:0:
435,192,191208,1,0,0:0:0:0:
384,192,191317,128,0,191427:0:0:0:0:
128,192,191372,1,0,0:0:0:0:
281,192,191427,128,0,191536:0:0:0:0:
435,192,191536,128,0,191645:0:0:0:0:
25,192,191536,128,0,191645:0:0:0:0:
179,192,191645,128,0,191755:0:0:0:0:
76,192,191755,128,0,191864:0:0:0:0:
230,192,191864,128,0,193175:0:0:0:0:
332,192,191864,1,0,0:0:0:0:
384,192,191864,1,0,0:0:0:0:
486,192,191864,128,0,193175:0:0:0:0:
76,192,192028,1,0,0:0:0:0:
332,192,192192,1,0,0:0:0:0:
384,192,192192,1,0,0:0:0:0:
76,192,192356,1,0,0:0:0:0:
332,192,192520,1,0,0:0:0:0:
384,192,192520,1,0,0:0:0:0:
76,192,192684,1,0,0:0:0:0:
332,192,192848,1,0,0:0:0:0:
384,192,192848,1,0,0:0:0:0:
76,192,193011,1,0,0:0:0:0:
25,192,193175,128,0,193831:0:0:0:0:
128,192,193175,1,0,0:0:0:0:
179,192,193175,1,0,0:0:0:0:
281,192,193175,128,0,193667:0:0:0:0:
435,192,193339,1,0,0:0:0:0:
128,192,193503,1,0,0:0:0:0:
179,192,193503,1,0,0:0:0:0:
435,192,193667,1,0,0:0:0:0:
332,192,193667,128,0,194487:0:0:0:0:
128,192,193831,1,0,0:0:0:0:
179,192,193831,1,0,0:0:0:0:
486,192,193831,128,0,194487:0:0:0:0:
435,192,193995,1,0,0:0:0:0:
76,192,193995,128,0,194487:0:0:0:0:
128,192,194159,1,0,0:0:0:0:
179,192,194159,1,0,0:0:0:0:
230,192,194159,128,0,194487:0:0:0:0:
435,192,194323,1,0,0:0:0:0:
128,192,194487,128,0,195634:0:0:0:0:
384,192,194487,128,0,195634:0:0:0:0:
281,192,194815,1,0,0:0:0:0:
179,192,194815,1,0,0:0:0:0:
486,192,194979,1,0,0:0:0:0:
332,192,194979,1,0,0:0:0:0:
230,192,195143,1,0,0:0:0:0:
76,192,195143,1,0,0:0:0:0:
281,192,195307,1,0,0:0:0:0:
435,192,195307,1,0,0:0:0:0:
179,192,195470,1,0,0:0:0:0:
25,192,195470,1,0,0:0:0:0:
332,192,195470,1,0,0:0:0:0:
486,192,195470,1,0,0:0:0:0:
230,192,195634,1,0,0:0:0:0:
76,192,195634,1,0,0:0:0:0:
332,192,195798,128,0,196126:0:0:0:0:
435,192,195798,128,0,196126:0:0:0:0:
128,192,195798,1,0,0:0:0:0:
281,192,195962,1,0,0:0:0:0:
128,192,196126,1,0,0:0:0:0:
25,192,196126,1,0,0:0:0:0:
332,192,196290,128,0,196618:0:0:0:0:
179,192,196290,128,0,196618:0:0:0:0:
281,192,196290,1,0,0:0:0:0:
128,192,196454,1,0,0:0:0:0:
281,192,196618,1,0,0:0:0:0:
179,192,196782,128,0,196946:0:0:0:0:
76,192,196782,128,0,196946:0:0:0:0:
384,192,196782,1,0,0:0:0:0:
486,192,196782,1,0,0:0:0:0:
230,192,196946,1,0,0:0:0:0:
76,192,197110,128,0,197766:0:0:0:0:
435,192,197110,128,0,197766:0:0:0:0:
128,192,197766,1,0,0:0:0:0:
230,192,197766,1,0,0:0:0:0:
281,192,197766,1,0,0:0:0:0:
384,192,197766,1,0,0:0:0:0:
332,192,197848,1,0,0:0:0:0:
179,192,197848,1,0,0:0:0:0:
76,192,197929,1,0,0:0:0:0:
435,192,197929,1,0,0:0:0:0:
128,192,198093,1,0,0:0:0:0:
25,192,198093,1,0,0:0:0:0:
384,192,198093,1,0,0:0:0:0:
486,192,198093,1,0,0:0:0:0:
76,192,198175,1,0,0:0:0:0:
435,192,198175,1,0,0:0:0:0:
179,192,198257,1,0,0:0:0:0:
332,192,198257,1,0,0:0:0:0:
128,192,198339,1,0,0:0:0:0:
384,192,198339,1,0,0:0:0:0:
281,192,198421,1,0,0:0:0:0:
230,192,198421,1,0,0:0:0:0:
25,192,198421,1,0,0:0:0:0:
486,192,198421,1,0,0:0:0:0:
25,192,198585,1,0,0:0:0:0:
486,192,198585,1,0,0:0:0:0:
179,192,198585,1,0,0:0:0:0:
332,192,198585,1,0,0:0:0:0:
128,192,199077,1,0,0:0:0:0:
384,192,199077,1,0,0:0:0:0:
179,192,199077,1,0,0:0:0:0:
332,192,199077,1,0,0:0:0:0:
76,192,199241,1,0,0:0:0:0:
435,192,199241,1,0,0:0:0:0:
179,192,199241,1,0,0:0:0:0:
332,192,199241,1,0,0:0:0:0:
230,192,199733,128,0,200880:0:0:0:0:
281,192,199733,128,0,200880:0:0:0:0:
76,192,199733,128,0,200880:0:0:0:0:
435,192,199733,128,0,200880:0:0:0:0:
179,192,200880,1,0,0:0:0:0:
332,192,200880,1,0,0:0:0:0:
25,192,202356,128,0,203339:0:0:0:0:
486,192,202356,128,0,203339:0:0:0:0:
332,192,202356,128,0,202848:0:0:0:0:
230,192,202848,1,0,0:0:0:0:
435,192,202848,1,0,0:0:0:0:
384,192,202848,128,0,203175:0:0:0:0:
281,192,202848,128,0,203175:0:0:0:0:
179,192,203175,128,0,203667:0:0:0:0:
128,192,203175,1,0,0:0:0:0:
332,192,203175,1,0,0:0:0:0:
76,192,203339,128,0,203667:0:0:0:0:
281,192,203339,1,0,0:0:0:0:
384,192,203339,1,0,0:0:0:0:
230,192,203339,1,0,0:0:0:0:
25,192,203667,1,0,0:0:0:0:
230,192,203667,1,0,0:0:0:0:
384,192,203667,1,0,0:0:0:0:
486,192,203667,1,0,0:0:0:0:
76,192,203831,1,0,0:0:0:0:
332,192,203831,1,0,0:0:0:0:
25,192,203995,1,0,0:0:0:0:
179,192,203995,1,0,0:0:0:0:
435,192,203995,1,0,0:0:0:0:
486,192,203995,1,0,0:0:0:0:
76,192,204159,1,0,0:0:0:0:
128,192,204159,1,0,0:0:0:0:
384,192,204159,1,0,0:0:0:0:
281,192,204159,1,0,0:0:0:0:
179,192,204487,1,0,0:0:0:0:
230,192,204487,1,0,0:0:0:0:
332,192,204487,1,0,0:0:0:0:
25,192,204569,1,0,0:0:0:0:
384,192,204569,1,0,0:0:0:0:
435,192,204569,1,0,0:0:0:0:
76,192,204651,1,0,0:0:0:0:
128,192,204651,1,0,0:0:0:0:
486,192,204651,1,0,0:0:0:0:
281,192,204651,1,0,0:0:0:0:
179,192,204979,1,0,0:0:0:0:
230,192,204979,1,0,0:0:0:0:
332,192,204979,128,0,205470:0:0:0:0:
384,192,204979,1,0,0:0:0:0:
435,192,204979,1,0,0:0:0:0:
179,192,205307,1,0,0:0:0:0:
128,192,205307,1,0,0:0:0:0:
76,192,205307,1,0,0:0:0:0:
384,192,205307,1,0,0:0:0:0:
486,192,205307,1,0,0:0:0:0:
230,192,205470,128,0,205962:0:0:0:0:
281,192,205634,1,0,0:0:0:0:
76,192,205634,1,0,0:0:0:0:
25,192,205634,1,0,0:0:0:0:
332,192,205634,1,0,0:0:0:0:
179,192,205798,1,0,0:0:0:0:
128,192,205798,1,0,0:0:0:0:
332,192,205962,1,0,0:0:0:0:
384,192,205962,1,0,0:0:0:0:
435,192,205962,1,0,0:0:0:0:
25,192,206290,1,0,0:0:0:0:
435,192,206290,128,0,206782:0:0:0:0:
76,192,206290,1,0,0:0:0:0:
332,192,206290,1,0,0:0:0:0:
384,192,206290,1,0,0:0:0:0:
128,192,206454,1,0,0:0:0:0:
384,192,206618,1,0,0:0:0:0:
76,192,206618,1,0,0:0:0:0:
281,192,206618,1,0,0:0:0:0:
179,192,206618,1,0,0:0:0:0:
25,192,206782,128,0,207274:0:0:0:0:
230,192,206782,1,0,0:0:0:0:
486,192,206946,1,0,0:0:0:0:
179,192,206946,1,0,0:0:0:0:
128,192,206946,1,0,0:0:0:0:
332,192,206946,1,0,0:0:0:0:
76,192,207110,1,0,0:0:0:0:
230,192,207110,1,0,0:0:0:0:
332,192,207274,1,0,0:0:0:0:
435,192,207274,1,0,0:0:0:0:
384,192,207274,1,0,0:0:0:0:
179,192,207274,1,0,0:0:0:0:
128,192,207274,1,0,0:0:0:0:
486,192,207602,128,0,208749:0:0:0:0:
281,192,207602,1,0,0:0:0:0:
76,192,207602,1,0,0:0:0:0:
128,192,207602,1,0,0:0:0:0:
25,192,207766,1,0,0:0:0:0:
179,192,207766,1,0,0:0:0:0:
332,192,207929,1,0,0:0:0:0:
384,192,207929,1,0,0:0:0:0:
76,192,207929,1,0,0:0:0:0:
230,192,207929,1,0,0:0:0:0:
179,192,208093,1,0,0:0:0:0:
332,192,208257,1,0,0:0:0:0:
384,192,208257,1,0,0:0:0:0:
128,192,208257,1,0,0:0:0:0:
230,192,208257,1,0,0:0:0:0:
76,192,208421,128,0,208585:0:0:0:0:
179,192,208585,128,0,208749:0:0:0:0:
332,192,208585,1,0,0:0:0:0:
384,192,208585,1,0,0:0:0:0:
25,192,208585,1,0,0:0:0:0:
281,192,208749,128,0,209897:0:0:0:0:
76,192,208913,1,0,0:0:0:0:
332,192,208913,1,0,0:0:0:0:
128,192,208995,1,0,0:0:0:0:
384,192,208995,1,0,0:0:0:0:
179,192,209077,1,0,0:0:0:0:
435,192,209077,1,0,0:0:0:0:
25,192,209159,1,0,0:0:0:0:
486,192,209159,1,0,0:0:0:0:
76,192,209241,1,0,0:0:0:0:
435,192,209241,1,0,0:0:0:0:
230,192,209323,1,0,0:0:0:0:
384,192,209323,1,0,0:0:0:0:
128,192,209405,1,0,0:0:0:0:
332,192,209405,1,0,0:0:0:0:
486,192,209405,1,0,0:0:0:0:
179,192,209487,1,0,0:0:0:0:
76,192,209569,1,0,0:0:0:0:
435,192,209569,1,0,0:0:0:0:
25,192,209651,1,0,0:0:0:0:
179,192,209733,1,0,0:0:0:0:
384,192,209733,1,0,0:0:0:0:
230,192,209815,1,0,0:0:0:0:
128,192,209897,1,0,0:0:0:0:
332,192,209897,1,0,0:0:0:0:
76,192,209979,1,0,0:0:0:0:
25,192,210061,1,0,0:0:0:0:
435,192,210061,1,0,0:0:0:0:
76,192,210143,1,0,0:0:0:0:
486,192,210225,1,0,0:0:0:0:
384,192,210225,128,0,210552:0:0:0:0:
179,192,210225,1,0,0:0:0:0:
128,192,210225,1,0,0:0:0:0:
128,192,210552,1,0,0:0:0:0:
281,192,210552,1,0,0:0:0:0:
25,192,210552,1,0,0:0:0:0:
486,192,210552,1,0,0:0:0:0:
179,192,210716,128,0,211044:0:0:0:0:
332,192,210716,1,0,0:0:0:0:
435,192,210716,1,0,0:0:0:0:
384,192,210880,1,0,0:0:0:0:
230,192,210880,1,0,0:0:0:0:
76,192,210880,1,0,0:0:0:0:
281,192,211044,1,0,0:0:0:0:
486,192,211044,128,0,211208:0:0:0:0:
435,192,211044,1,0,0:0:0:0:
128,192,211044,1,0,0:0:0:0:
25,192,211208,1,0,0:0:0:0:
179,192,211208,1,0,0:0:0:0:
281,192,211208,1,0,0:0:0:0:
332,192,211208,1,0,0:0:0:0:
384,192,211372,1,0,0:0:0:0:
230,192,211372,1,0,0:0:0:0:
128,192,211372,128,0,211864:0:0:0:0:
435,192,211372,1,0,0:0:0:0:
179,192,211372,1,0,0:0:0:0:
76,192,211700,1,0,0:0:0:0:
230,192,211700,128,0,211864:0:0:0:0:
486,192,211700,1,0,0:0:0:0:
435,192,211864,1,0,0:0:0:0:
332,192,211864,1,0,0:0:0:0:
25,192,211864,1,0,0:0:0:0:
179,192,212028,1,0,0:0:0:0:
76,192,212028,128,0,212192:0:0:0:0:
332,192,212028,128,0,212356:0:0:0:0:
281,192,212028,1,0,0:0:0:0:
281,192,212192,1,0,0:0:0:0:
76,192,212356,1,0,0:0:0:0:
128,192,212356,1,0,0:0:0:0:
384,192,212356,1,0,0:0:0:0:
179,192,212520,1,0,0:0:0:0:
25,192,212520,1,0,0:0:0:0:
486,192,212520,1,0,0:0:0:0:
332,192,212520,1,0,0:0:0:0:
435,192,212848,128,0,213175:0:0:0:0:
76,192,212848,1,0,0:0:0:0:
281,192,212848,1,0,0:0:0:0:
25,192,212848,1,0,0:0:0:0:
179,192,213011,1,0,0:0:0:0:
281,192,213175,1,0,0:0:0:0:
25,192,213175,1,0,0:0:0:0:
384,192,213175,1,0,0:0:0:0:
486,192,213175,1,0,0:0:0:0:
230,192,213339,1,0,0:0:0:0:
332,192,213339,128,0,213503:0:0:0:0:
128,192,213339,1,0,0:0:0:0:
179,192,213503,1,0,0:0:0:0:
384,192,213503,1,0,0:0:0:0:
128,192,213503,1,0,0:0:0:0:
435,192,213667,1,0,0:0:0:0:
76,192,213667,1,0,0:0:0:0:
25,192,213667,128,0,213995:0:0:0:0:
332,192,213667,1,0,0:0:0:0:
384,192,213831,1,0,0:0:0:0:
179,192,213831,1,0,0:0:0:0:
230,192,213831,1,0,0:0:0:0:
128,192,213995,1,0,0:0:0:0:
486,192,213995,128,0,214323:0:0:0:0:
435,192,213995,1,0,0:0:0:0:
281,192,213995,1,0,0:0:0:0:
384,192,214323,1,0,0:0:0:0:
332,192,214323,1,0,0:0:0:0:
76,192,214323,1,0,0:0:0:0:
179,192,214323,1,0,0:0:0:0:
486,192,214487,1,0,0:0:0:0:
281,192,214487,1,0,0:0:0:0:
230,192,214487,1,0,0:0:0:0:
25,192,214487,1,0,0:0:0:0:
128,192,214651,1,0,0:0:0:0:
384,192,214651,128,0,215143:0:0:0:0:
76,192,214651,1,0,0:0:0:0:
179,192,214815,1,0,0:0:0:0:
281,192,214815,1,0,0:0:0:0:
25,192,214979,1,0,0:0:0:0:
332,192,214979,1,0,0:0:0:0:
76,192,215143,1,0,0:0:0:0:
179,192,215143,1,0,0:0:0:0:
435,192,215143,1,0,0:0:0:0:
281,192,215143,1,0,0:0:0:0:
128,192,215470,1,0,0:0:0:0:
179,192,215470,1,0,0:0:0:0:
332,192,215470,1,0,0:0:0:0:
230,192,215470,1,0,0:0:0:0:
435,192,215634,1,0,0:0:0:0:
25,192,215798,1,0,0:0:0:0:
230,192,215798,1,0,0:0:0:0:
332,192,215798,1,0,0:0:0:0:
76,192,215798,1,0,0:0:0:0:
486,192,215962,1,0,0:0:0:0:
76,192,216126,1,0,0:0:0:0:
128,192,216126,1,0,0:0:0:0:
281,192,216126,1,0,0:0:0:0:
179,192,216126,1,0,0:0:0:0:
179,192,216290,1,0,0:0:0:0:
230,192,216290,1,0,0:0:0:0:
332,192,216290,1,0,0:0:0:0:
25,192,216454,1,0,0:0:0:0:
128,192,216454,1,0,0:0:0:0:
281,192,216454,1,0,0:0:0:0:
435,192,216454,1,0,0:0:0:0:
486,192,216618,128,0,216946:0:0:0:0:
25,192,216782,1,0,0:0:0:0:
76,192,216782,1,0,0:0:0:0:
332,192,216782,1,0,0:0:0:0:
230,192,216782,1,0,0:0:0:0:
435,192,216946,128,0,217274:0:0:0:0:
179,192,216946,1,0,0:0:0:0:
25,192,217110,1,0,0:0:0:0:
128,192,217110,1,0,0:0:0:0:
384,192,217110,1,0,0:0:0:0:
230,192,217274,1,0,0:0:0:0:
332,192,217274,1,0,0:0:0:0:
25,192,217438,1,0,0:0:0:0:
76,192,217438,1,0,0:0:0:0:
230,192,217602,1,0,0:0:0:0:
179,192,217602,1,0,0:0:0:0:
486,192,217602,1,0,0:0:0:0:
128,192,217766,128,0,218913:0:0:0:0:
384,192,217766,1,0,0:0:0:0:
435,192,217766,1,0,0:0:0:0:
230,192,217929,128,0,218913:0:0:0:0:
384,192,218093,1,0,0:0:0:0:
332,192,218093,1,0,0:0:0:0:
76,192,218093,1,0,0:0:0:0:
486,192,218257,1,0,0:0:0:0:
435,192,218257,1,0,0:0:0:0:
179,192,218257,1,0,0:0:0:0:
384,192,218421,1,0,0:0:0:0:
281,192,218421,1,0,0:0:0:0:
25,192,218421,1,0,0:0:0:0:
76,192,218421,1,0,0:0:0:0:
179,192,218585,1,0,0:0:0:0:
281,192,218749,1,0,0:0:0:0:
332,192,218749,1,0,0:0:0:0:
25,192,218749,1,0,0:0:0:0:
384,192,218913,1,0,0:0:0:0:
25,192,218913,1,0,0:0:0:0:
435,192,219077,1,0,0:0:0:0:
486,192,219077,1,0,0:0:0:0:
179,192,219077,1,0,0:0:0:0:
76,192,219077,1,0,0:0:0:0:
281,192,219241,1,0,0:0:0:0:
332,192,219241,1,0,0:0:0:0:
128,192,219241,1,0,0:0:0:0:
230,192,219405,1,0,0:0:0:0:
25,192,219405,1,0,0:0:0:0:
384,192,219405,1,0,0:0:0:0:
435,192,219405,1,0,0:0:0:0:
179,192,219487,1,0,0:0:0:0:
76,192,219569,1,0,0:0:0:0:
128,192,219651,1,0,0:0:0:0:
179,192,219733,1,0,0:0:0:0:
281,192,219733,1,0,0:0:0:0:
435,192,219733,1,0,0:0:0:0:
384,192,219815,1,0,0:0:0:0:
332,192,219897,1,0,0:0:0:0:
25,192,219897,1,0,0:0:0:0:
76,192,219979,1,0,0:0:0:0:
128,192,220061,1,0,0:0:0:0:
230,192,220061,1,0,0:0:0:0:
384,192,220143,1,0,0:0:0:0:
486,192,220143,1,0,0:0:0:0:
179,192,220225,1,0,0:0:0:0:
76,192,220225,1,0,0:0:0:0:
332,192,220307,1,0,0:0:0:0:
435,192,220307,1,0,0:0:0:0:
128,192,220388,1,0,0:0:0:0:
25,192,220388,1,0,0:0:0:0:
281,192,220470,1,0,0:0:0:0:
384,192,220470,1,0,0:0:0:0:
230,192,220552,1,0,0:0:0:0:
435,192,220552,1,0,0:0:0:0:
486,192,220634,1,0,0:0:0:0:
179,192,220634,1,0,0:0:0:0:
332,192,220716,1,0,0:0:0:0:
25,192,220716,128,0,221044:0:0:0:0:
128,192,220716,1,0,0:0:0:0:
384,192,220716,1,0,0:0:0:0:
230,192,220880,1,0,0:0:0:0:
179,192,220880,1,0,0:0:0:0:
384,192,221044,1,0,0:0:0:0:
435,192,221044,1,0,0:0:0:0:
128,192,221044,1,0,0:0:0:0:
281,192,221208,1,0,0:0:0:0:
25,192,221208,1,0,0:0:0:0:
332,192,221208,1,0,0:0:0:0:
128,192,221208,128,0,221372:0:0:0:0:
486,192,221372,1,0,0:0:0:0:
435,192,221372,1,0,0:0:0:0:
179,192,221372,1,0,0:0:0:0:
230,192,221536,128,0,221864:0:0:0:0:
76,192,221536,1,0,0:0:0:0:
384,192,221536,1,0,0:0:0:0:
281,192,221536,1,0,0:0:0:0:
128,192,221700,1,0,0:0:0:0:
25,192,221700,1,0,0:0:0:0:
486,192,221700,1,0,0:0:0:0:
332,192,221700,1,0,0:0:0:0:
179,192,221864,1,0,0:0:0:0:
332,192,221864,1,0,0:0:0:0:
384,192,221864,128,0,222356:0:0:0:0:
230,192,222028,1,0,0:0:0:0:
76,192,222028,1,0,0:0:0:0:
128,192,222028,1,0,0:0:0:0:
25,192,222192,1,0,0:0:0:0:
281,192,222192,128,0,222356:0:0:0:0:
128,192,222356,1,0,0:0:0:0:
25,192,222356,1,0,0:0:0:0:
435,192,222356,1,0,0:0:0:0:
486,192,222356,1,0,0:0:0:0:
179,192,222520,128,0,222848:0:0:0:0:
332,192,222520,1,0,0:0:0:0:
230,192,222684,1,0,0:0:0:0:
76,192,222684,1,0,0:0:0:0:
435,192,222684,1,0,0:0:0:0:
332,192,222848,128,0,223011:0:0:0:0:
128,192,222848,1,0,0:0:0:0:
384,192,222848,1,0,0:0:0:0:
435,192,223011,128,0,223175:0:0:0:0:
25,192,223011,1,0,0:0:0:0:
179,192,223011,1,0,0:0:0:0:
486,192,223011,1,0,0:0:0:0:
179,192,223339,1,0,0:0:0:0:
76,192,223339,1,0,0:0:0:0:
25,192,223339,1,0,0:0:0:0:
486,192,223339,128,0,223667:0:0:0:0:
332,192,223339,1,0,0:0:0:0:
384,192,223503,1,0,0:0:0:0:
281,192,223503,1,0,0:0:0:0:
128,192,223667,1,0,0:0:0:0:
25,192,223667,1,0,0:0:0:0:
230,192,223667,1,0,0:0:0:0:
435,192,223831,1,0,0:0:0:0:
332,192,223831,1,0,0:0:0:0:
179,192,223831,128,0,223995:0:0:0:0:
384,192,223995,1,0,0:0:0:0:
128,192,223995,1,0,0:0:0:0:
76,192,223995,1,0,0:0:0:0:
281,192,223995,1,0,0:0:0:0:
332,192,224159,128,0,224487:0:0:0:0:
179,192,224159,1,0,0:0:0:0:
25,192,224159,1,0,0:0:0:0:
230,192,224159,1,0,0:0:0:0:
435,192,224323,1,0,0:0:0:0:
486,192,224323,1,0,0:0:0:0:
128,192,224323,1,0,0:0:0:0:
281,192,224323,1,0,0:0:0:0:
179,192,224487,1,0,0:0:0:0:
230,192,224487,1,0,0:0:0:0:
76,192,224487,128,0,224815:0:0:0:0:
332,192,224651,1,0,0:0:0:0:
435,192,224651,1,0,0:0:0:0:
128,192,224651,1,0,0:0:0:0:
384,192,224815,1,0,0:0:0:0:
230,192,224815,1,0,0:0:0:0:
332,192,224979,1,0,0:0:0:0:
25,192,224979,1,0,0:0:0:0:
128,192,224979,1,0,0:0:0:0:
435,192,225143,1,0,0:0:0:0:
179,192,225143,128,0,225634:0:0:0:0:
281,192,225143,1,0,0:0:0:0:
76,192,225307,1,0,0:0:0:0:
230,192,225307,1,0,0:0:0:0:
332,192,225307,1,0,0:0:0:0:
25,192,225470,1,0,0:0:0:0:
486,192,225470,1,0,0:0:0:0:
128,192,225634,1,0,0:0:0:0:
384,192,225634,1,0,0:0:0:0:
281,192,225634,1,0,0:0:0:0:
230,192,225798,1,0,0:0:0:0:
230,192,225962,128,0,226618:0:0:0:0:
25,192,225962,128,0,226618:0:0:0:0:
332,192,225962,1,0,0:0:0:0:
435,192,225962,1,0,0:0:0:0:
76,192,225962,1,0,0:0:0:0:
435,192,226290,128,0,226782:0:0:0:0:
486,192,226290,1,0,0:0:0:0:
128,192,226290,1,0,0:0:0:0:
281,192,226290,1,0,0:0:0:0:
179,192,226454,1,0,0:0:0:0:
332,192,226454,128,0,226782:0:0:0:0:
128,192,226618,1,0,0:0:0:0:
76,192,226618,1,0,0:0:0:0:
486,192,226618,1,0,0:0:0:0:
384,192,226618,1,0,0:0:0:0:
179,192,226782,1,0,0:0:0:0:
230,192,226782,1,0,0:0:0:0:
281,192,226782,1,0,0:0:0:0:
25,192,226946,1,0,0:0:0:0:
435,192,226946,1,0,0:0:0:0:
332,192,226946,1,0,0:0:0:0:
128,192,226946,128,0,227274:0:0:0:0:
384,192,226946,128,0,227192:0:0:0:0:
486,192,227274,128,0,227929:0:0:0:0:
76,192,227274,1,0,0:0:0:0:
281,192,227274,128,0,227929:0:0:0:0:
179,192,227274,1,0,0:0:0:0:
230,192,227438,1,0,0:0:0:0:
128,192,227438,1,0,0:0:0:0:
435,192,227602,1,0,0:0:0:0:
25,192,227602,1,0,0:0:0:0:
179,192,227602,128,0,228093:0:0:0:0:
76,192,227766,128,0,228093:0:0:0:0:
332,192,227766,1,0,0:0:0:0:
435,192,227929,1,0,0:0:0:0:
25,192,227929,1,0,0:0:0:0:
230,192,227929,1,0,0:0:0:0:
384,192,227929,1,0,0:0:0:0:
128,192,228093,1,0,0:0:0:0:
281,192,228093,1,0,0:0:0:0:
332,192,228093,1,0,0:0:0:0:
486,192,228257,1,0,0:0:0:0:
179,192,228257,1,0,0:0:0:0:
435,192,228257,1,0,0:0:0:0:
76,192,228257,1,0,0:0:0:0:
332,192,228585,128,0,229241:0:0:0:0:
230,192,228585,128,0,229241:0:0:0:0:
76,192,228585,1,0,0:0:0:0:
25,192,228585,1,0,0:0:0:0:
384,192,228585,1,0,0:0:0:0:
128,192,228749,1,0,0:0:0:0:
486,192,228749,1,0,0:0:0:0:
281,192,228749,1,0,0:0:0:0:
179,192,228913,1,0,0:0:0:0:
25,192,228913,1,0,0:0:0:0:
435,192,228913,1,0,0:0:0:0:
76,192,229077,1,0,0:0:0:0:
384,192,229077,1,0,0:0:0:0:
128,192,229241,1,0,0:0:0:0:
25,192,229241,1,0,0:0:0:0:
486,192,229241,1,0,0:0:0:0:
281,192,229241,1,0,0:0:0:0:
230,192,229405,1,0,0:0:0:0:
332,192,229405,1,0,0:0:0:0:
384,192,229405,1,0,0:0:0:0:
179,192,229569,1,0,0:0:0:0:
76,192,229569,1,0,0:0:0:0:
281,192,229569,1,0,0:0:0:0:
486,192,229569,1,0,0:0:0:0:
76,192,229733,1,0,0:0:0:0:
179,192,229733,1,0,0:0:0:0:
435,192,229733,1,0,0:0:0:0:
128,192,229897,1,0,0:0:0:0:
25,192,229897,1,0,0:0:0:0:
332,192,229897,1,0,0:0:0:0:
384,192,229897,1,0,0:0:0:0:
25,192,230061,1,0,0:0:0:0:
230,192,230061,1,0,0:0:0:0:
281,192,230061,1,0,0:0:0:0:
435,192,230061,1,0,0:0:0:0:
179,192,230225,1,0,0:0:0:0:
486,192,230225,1,0,0:0:0:0:
384,192,230225,1,0,0:0:0:0:
76,192,230388,1,0,0:0:0:0:
332,192,230388,1,0,0:0:0:0:
128,192,230552,1,0,0:0:0:0:
230,192,230552,1,0,0:0:0:0:
384,192,230552,1,0,0:0:0:0:
332,192,230634,1,0,0:0:0:0:
179,192,230716,1,0,0:0:0:0:
281,192,230716,1,0,0:0:0:0:
435,192,230716,1,0,0:0:0:0:
486,192,230798,1,0,0:0:0:0:
25,192,230798,1,0,0:0:0:0:
332,192,230880,1,0,0:0:0:0:
76,192,230880,1,0,0:0:0:0:
384,192,230962,1,0,0:0:0:0:
128,192,230962,1,0,0:0:0:0:
435,192,231044,1,0,0:0:0:0:
179,192,231044,1,0,0:0:0:0:
230,192,231126,1,0,0:0:0:0:
281,192,231208,1,0,0:0:0:0:
332,192,231208,1,0,0:0:0:0:
128,192,231208,128,0,231536:0:0:0:0:
25,192,231208,1,0,0:0:0:0:
486,192,231208,1,0,0:0:0:0:
486,192,231536,1,0,0:0:0:0:
25,192,231536,1,0,0:0:0:0:
384,192,231536,1,0,0:0:0:0:
230,192,231536,1,0,0:0:0:0:
76,192,231700,1,0,0:0:0:0:
179,192,231700,1,0,0:0:0:0:
332,192,231700,128,0,232028:0:0:0:0:
435,192,231864,1,0,0:0:0:0:
281,192,231864,1,0,0:0:0:0:
128,192,231864,1,0,0:0:0:0:
76,192,232028,1,0,0:0:0:0:
384,192,232028,1,0,0:0:0:0:
230,192,232028,1,0,0:0:0:0:
25,192,232028,128,0,232192:0:0:0:0:
230,192,232192,1,0,0:0:0:0:
179,192,232192,1,0,0:0:0:0:
486,192,232192,1,0,0:0:0:0:
332,192,232192,1,0,0:0:0:0:
76,192,232356,1,0,0:0:0:0:
332,192,232356,1,0,0:0:0:0:
384,192,232356,128,0,232848:0:0:0:0:
128,192,232356,1,0,0:0:0:0:
281,192,232356,1,0,0:0:0:0:
25,192,232684,1,0,0:0:0:0:
281,192,232684,128,0,232848:0:0:0:0:
435,192,232684,1,0,0:0:0:0:
486,192,232848,1,0,0:0:0:0:
179,192,232848,1,0,0:0:0:0:
76,192,232848,1,0,0:0:0:0:
179,192,233011,128,0,233339:0:0:0:0:
230,192,233011,1,0,0:0:0:0:
332,192,233011,1,0,0:0:0:0:
435,192,233011,128,0,233175:0:0:0:0:
230,192,233175,1,0,0:0:0:0:
128,192,233339,1,0,0:0:0:0:
384,192,233339,1,0,0:0:0:0:
435,192,233339,1,0,0:0:0:0:
25,192,233503,1,0,0:0:0:0:
179,192,233503,1,0,0:0:0:0:
332,192,233503,1,0,0:0:0:0:
486,192,233503,1,0,0:0:0:0:
230,192,233831,1,0,0:0:0:0:
486,192,233831,1,0,0:0:0:0:
76,192,233831,128,0,234159:0:0:0:0:
435,192,233831,1,0,0:0:0:0:
332,192,233995,1,0,0:0:0:0:
128,192,234159,1,0,0:0:0:0:
25,192,234159,1,0,0:0:0:0:
230,192,234159,1,0,0:0:0:0:
486,192,234159,1,0,0:0:0:0:
384,192,234323,1,0,0:0:0:0:
179,192,234323,128,0,234487:0:0:0:0:
281,192,234323,1,0,0:0:0:0:
384,192,234487,1,0,0:0:0:0:
128,192,234487,1,0,0:0:0:0:
332,192,234487,1,0,0:0:0:0:
486,192,234651,128,0,234979:0:0:0:0:
179,192,234651,1,0,0:0:0:0:
76,192,234651,1,0,0:0:0:0:
435,192,234651,1,0,0:0:0:0:
281,192,234815,1,0,0:0:0:0:
332,192,234815,1,0,0:0:0:0:
128,192,234815,1,0,0:0:0:0:
76,192,234979,1,0,0:0:0:0:
230,192,234979,1,0,0:0:0:0:
384,192,234979,1,0,0:0:0:0:
25,192,234979,128,0,235307:0:0:0:0:
435,192,235307,1,0,0:0:0:0:
332,192,235307,1,0,0:0:0:0:
128,192,235307,1,0,0:0:0:0:
179,192,235307,1,0,0:0:0:0:
281,192,235470,1,0,0:0:0:0:
486,192,235470,1,0,0:0:0:0:
25,192,235470,1,0,0:0:0:0:
230,192,235470,1,0,0:0:0:0:
435,192,235634,1,0,0:0:0:0:
128,192,235634,128,0,236126:0:0:0:0:
384,192,235634,1,0,0:0:0:0:
230,192,235798,1,0,0:0:0:0:
332,192,235798,1,0,0:0:0:0:
179,192,235962,1,0,0:0:0:0:
486,192,235962,1,0,0:0:0:0:
76,192,236126,1,0,0:0:0:0:
230,192,236126,1,0,0:0:0:0:
435,192,236126,1,0,0:0:0:0:
332,192,236126,1,0,0:0:0:0:
179,192,236454,1,0,0:0:0:0:
281,192,236454,1,0,0:0:0:0:
384,192,236454,1,0,0:0:0:0:
332,192,236454,1,0,0:0:0:0:
76,192,236618,1,0,0:0:0:0:
179,192,236782,1,0,0:0:0:0:
435,192,236782,1,0,0:0:0:0:
486,192,236782,1,0,0:0:0:0:
281,192,236782,1,0,0:0:0:0:
25,192,236946,1,0,0:0:0:0:
230,192,237110,1,0,0:0:0:0:
332,192,237110,1,0,0:0:0:0:
435,192,237110,1,0,0:0:0:0:
384,192,237110,1,0,0:0:0:0:
179,192,237274,1,0,0:0:0:0:
281,192,237274,1,0,0:0:0:0:
332,192,237274,1,0,0:0:0:0:
230,192,237438,1,0,0:0:0:0:
76,192,237438,1,0,0:0:0:0:
486,192,237438,1,0,0:0:0:0:
384,192,237438,1,0,0:0:0:0:
25,192,237602,128,0,237929:0:0:0:0:
179,192,237766,1,0,0:0:0:0:
281,192,237766,1,0,0:0:0:0:
486,192,237766,1,0,0:0:0:0:
435,192,237766,1,0,0:0:0:0:
332,192,237929,1,0,0:0:0:0:
76,192,237929,128,0,238257:0:0:0:0:
128,192,238093,1,0,0:0:0:0:
384,192,238093,1,0,0:0:0:0:
486,192,238093,1,0,0:0:0:0:
179,192,238257,1,0,0:0:0:0:
281,192,238257,1,0,0:0:0:0:
435,192,238421,1,0,0:0:0:0:
486,192,238421,1,0,0:0:0:0:
25,192,238585,1,0,0:0:0:0:
332,192,238585,1,0,0:0:0:0:
281,192,238585,1,0,0:0:0:0:
384,192,238749,1,0,0:0:0:0:
435,192,238749,1,0,0:0:0:0:
486,192,238749,1,0,0:0:0:0:
128,192,238749,128,0,239897:0:0:0:0:
230,192,238913,128,0,239897:0:0:0:0:
76,192,239077,1,0,0:0:0:0:
332,192,239077,1,0,0:0:0:0:
384,192,239077,1,0,0:0:0:0:
179,192,239241,1,0,0:0:0:0:
435,192,239241,1,0,0:0:0:0:
486,192,239241,1,0,0:0:0:0:
25,192,239405,1,0,0:0:0:0:
76,192,239405,1,0,0:0:0:0:
384,192,239405,1,0,0:0:0:0:
281,192,239405,1,0,0:0:0:0:
179,192,239569,1,0,0:0:0:0:
25,192,239733,1,0,0:0:0:0:
332,192,239733,1,0,0:0:0:0:
281,192,239733,1,0,0:0:0:0:
25,192,239897,1,0,0:0:0:0:
384,192,239897,1,0,0:0:0:0:
179,192,240061,1,0,0:0:0:0:
76,192,240061,1,0,0:0:0:0:
435,192,240061,1,0,0:0:0:0:
486,192,240061,1,0,0:0:0:0:
128,192,240225,1,0,0:0:0:0:
332,192,240225,1,0,0:0:0:0:
281,192,240225,1,0,0:0:0:0:
76,192,240388,1,0,0:0:0:0:
384,192,240388,1,0,0:0:0:0:
486,192,240388,1,0,0:0:0:0:
230,192,240388,1,0,0:0:0:0:
179,192,240552,1,0,0:0:0:0:
332,192,240552,1,0,0:0:0:0:
486,192,240716,1,0,0:0:0:0:
281,192,240716,1,0,0:0:0:0:
230,192,240880,1,0,0:0:0:0:
128,192,240880,1,0,0:0:0:0:
332,192,240880,1,0,0:0:0:0:
435,192,241044,1,0,0:0:0:0:
230,192,241208,1,0,0:0:0:0:
76,192,241208,1,0,0:0:0:0:
384,192,241208,1,0,0:0:0:0:
486,192,241208,1,0,0:0:0:0:
179,192,241290,1,0,0:0:0:0:
332,192,241290,1,0,0:0:0:0:
281,192,241372,1,0,0:0:0:0:
435,192,241372,1,0,0:0:0:0:
128,192,241454,1,0,0:0:0:0:
25,192,241454,1,0,0:0:0:0:
230,192,241536,1,0,0:0:0:0:
332,192,241536,1,0,0:0:0:0:
384,192,241700,128,0,241864:0:0:0:0:
281,192,241700,128,0,242028:0:0:0:0:
179,192,241700,128,0,242028:0:0:0:0:
486,192,241864,128,0,242028:0:0:0:0:
128,192,242028,128,0,242192:0:0:0:0:
230,192,242028,128,0,242356:0:0:0:0:
332,192,242028,128,0,242356:0:0:0:0:
435,192,242028,1,0,0:0:0:0:
25,192,242192,128,0,242356:0:0:0:0:
281,192,242356,128,0,242520:0:0:0:0:
384,192,242356,128,0,242684:0:0:0:0:
486,192,242356,128,0,242684:0:0:0:0:
179,192,242520,128,0,242684:0:0:0:0:
76,192,242684,128,0,242848:0:0:0:0:
332,192,242684,128,0,243011:0:0:0:0:
435,192,242684,128,0,243011:0:0:0:0:
128,192,242684,1,0,0:0:0:0:
230,192,242848,128,0,243011:0:0:0:0:
384,192,243011,128,0,243175:0:0:0:0:
25,192,243011,128,0,243339:0:0:0:0:
128,192,243011,128,0,243339:0:0:0:0:
281,192,243175,128,0,243339:0:0:0:0:
76,192,243339,128,0,243667:0:0:0:0:
179,192,243339,128,0,243667:0:0:0:0:
486,192,243339,128,0,243503:0:0:0:0:
384,192,243339,1,0,0:0:0:0:
332,192,243503,128,0,243667:0:0:0:0:
128,192,243667,128,0,243995:0:0:0:0:
230,192,243667,128,0,243995:0:0:0:0:
435,192,243667,128,0,243995:0:0:0:0:
332,192,243831,1,0,0:0:0:0:
281,192,243995,128,0,244323:0:0:0:0:
384,192,243995,128,0,244323:0:0:0:0:
332,192,243995,1,0,0:0:0:0:
179,192,243995,128,0,244323:0:0:0:0:
25,192,244323,128,0,244487:0:0:0:0:
332,192,244323,128,0,244815:0:0:0:0:
486,192,244323,1,0,0:0:0:0:
128,192,244487,1,0,0:0:0:0:
230,192,244487,1,0,0:0:0:0:
435,192,244487,128,0,244979:0:0:0:0:
179,192,244651,1,0,0:0:0:0:
76,192,244651,1,0,0:0:0:0:
384,192,244651,128,0,244979:0:0:0:0:
281,192,244815,1,0,0:0:0:0:
128,192,244979,1,0,0:0:0:0:
25,192,244979,1,0,0:0:0:0:
332,192,244979,1,0,0:0:0:0:
435,192,245143,1,0,0:0:0:0:
486,192,245143,1,0,0:0:0:0:
179,192,245143,1,0,0:0:0:0:
76,192,245307,1,0,0:0:0:0:
128,192,245307,1,0,0:0:0:0:
332,192,245307,1,0,0:0:0:0:
25,192,245470,1,0,0:0:0:0:
486,192,245470,1,0,0:0:0:0:
128,192,245634,1,0,0:0:0:0:
179,192,245634,1,0,0:0:0:0:
281,192,245634,1,0,0:0:0:0:
435,192,245634,1,0,0:0:0:0:
25,192,245798,1,0,0:0:0:0:
332,192,245798,1,0,0:0:0:0:
76,192,245962,1,0,0:0:0:0:
179,192,245962,1,0,0:0:0:0:
435,192,245962,1,0,0:0:0:0:
281,192,245962,1,0,0:0:0:0:
128,192,246126,1,0,0:0:0:0:
332,192,246126,1,0,0:0:0:0:
76,192,246290,1,0,0:0:0:0:
230,192,246290,1,0,0:0:0:0:
332,192,246290,1,0,0:0:0:0:
435,192,246290,1,0,0:0:0:0:
25,192,246454,1,0,0:0:0:0:
332,192,246454,1,0,0:0:0:0:
128,192,246618,1,0,0:0:0:0:
230,192,246618,1,0,0:0:0:0:
281,192,246618,1,0,0:0:0:0:
435,192,246618,1,0,0:0:0:0:
179,192,246782,1,0,0:0:0:0:
435,192,246782,1,0,0:0:0:0:
76,192,246946,1,0,0:0:0:0:
25,192,246946,1,0,0:0:0:0:
384,192,246946,1,0,0:0:0:0:
435,192,246946,1,0,0:0:0:0:
128,192,247110,1,0,0:0:0:0:
332,192,247110,1,0,0:0:0:0:
76,192,247274,1,0,0:0:0:0:
179,192,247274,1,0,0:0:0:0:
384,192,247274,1,0,0:0:0:0:
128,192,247438,1,0,0:0:0:0:
332,192,247438,1,0,0:0:0:0:
179,192,247602,1,0,0:0:0:0:
25,192,247602,1,0,0:0:0:0:
281,192,247602,1,0,0:0:0:0:
486,192,247602,1,0,0:0:0:0:
230,192,247766,1,0,0:0:0:0:
76,192,247766,1,0,0:0:0:0:
332,192,247766,1,0,0:0:0:0:
128,192,247929,1,0,0:0:0:0:
179,192,247929,1,0,0:0:0:0:
384,192,247929,1,0,0:0:0:0:
76,192,248093,1,0,0:0:0:0:
25,192,248093,1,0,0:0:0:0:
486,192,248093,1,0,0:0:0:0:
435,192,248093,1,0,0:0:0:0:
179,192,248257,128,0,248913:0:0:0:0:
384,192,248257,128,0,248913:0:0:0:0:
179,192,249241,1,0,0:0:0:0:
332,192,249241,1,0,0:0:0:0:
128,192,249323,1,0,0:0:0:0:
384,192,249323,1,0,0:0:0:0:
76,192,249405,1,0,0:0:0:0:
435,192,249405,1,0,0:0:0:0:
179,192,249487,1,0,0:0:0:0:
486,192,249487,1,0,0:0:0:0:
230,192,249569,1,0,0:0:0:0:
332,192,249569,1,0,0:0:0:0:
256,192,249569,1,0,0:0:0:0:
142,192,249569,128,0,250225:0:0:0:0:
28,192,249569,128,0,250552:0:0:0:0:
384,192,249733,1,0,0:0:0:0:
426,192,249733,1,0,0:0:0:0:
230,192,249897,1,0,0:0:0:0:
483,192,249897,1,0,0:0:0:0:
256,192,249897,1,0,0:0:0:0:
426,192,250061,1,0,0:0:0:0:
312,192,250061,1,0,0:0:0:0:
369,192,250225,1,0,0:0:0:0:
483,192,250225,1,0,0:0:0:0:
199,192,250225,128,0,250552:0:0:0:0:
281,192,250388,1,0,0:0:0:0:
332,192,250552,1,0,0:0:0:0:
435,192,250552,1,0,0:0:0:0:
483,192,250552,1,0,0:0:0:0:
230,192,250552,128,0,250880:0:0:0:0:
85,192,250552,128,0,250880:0:0:0:0:
281,192,250716,1,0,0:0:0:0:
483,192,250880,128,0,251372:0:0:0:0:
369,192,250880,128,0,251864:0:0:0:0:
199,192,250880,1,0,0:0:0:0:
142,192,250880,1,0,0:0:0:0:
85,192,251044,1,0,0:0:0:0:
28,192,251044,1,0,0:0:0:0:
256,192,251208,1,0,0:0:0:0:
142,192,251208,1,0,0:0:0:0:
179,192,251208,1,0,0:0:0:0:
426,192,251372,128,0,251864:0:0:0:0:
199,192,251372,1,0,0:0:0:0:
76,192,251372,1,0,0:0:0:0:
142,192,251536,1,0,0:0:0:0:
230,192,251536,1,0,0:0:0:0:
76,192,251700,1,0,0:0:0:0:
256,192,251864,128,0,252192:0:0:0:0:
312,192,251864,128,0,252192:0:0:0:0:
28,192,251864,1,0,0:0:0:0:
179,192,251864,1,0,0:0:0:0:
426,192,252192,1,0,0:0:0:0:
483,192,252192,1,0,0:0:0:0:
199,192,252192,128,0,253175:0:0:0:0:
85,192,252192,128,0,252848:0:0:0:0:
312,192,252356,1,0,0:0:0:0:
435,192,252520,1,0,0:0:0:0:
483,192,252520,1,0,0:0:0:0:
256,192,252520,1,0,0:0:0:0:
384,192,252684,1,0,0:0:0:0:
28,192,252766,1,0,0:0:0:0:
142,192,252848,128,0,253503:0:0:0:0:
332,192,252848,1,0,0:0:0:0:
435,192,252848,1,0,0:0:0:0:
312,192,253011,1,0,0:0:0:0:
483,192,253011,1,0,0:0:0:0:
384,192,253011,1,0,0:0:0:0:
230,192,253175,1,0,0:0:0:0:
435,192,253175,1,0,0:0:0:0:
256,192,253175,1,0,0:0:0:0:
312,192,253339,1,0,0:0:0:0:
85,192,253421,1,0,0:0:0:0:
28,192,253503,128,0,254815:0:0:0:0:
369,192,253503,128,0,253667:0:0:0:0:
230,192,253503,128,0,253667:0:0:0:0:
312,192,253667,1,0,0:0:0:0:
199,192,253667,1,0,0:0:0:0:
256,192,253831,128,0,254323:0:0:0:0:
426,192,253831,128,0,254323:0:0:0:0:
85,192,253831,1,0,0:0:0:0:
312,192,253995,1,0,0:0:0:0:
142,192,253995,1,0,0:0:0:0:
179,192,254159,1,0,0:0:0:0:
369,192,254159,1,0,0:0:0:0:
85,192,254159,1,0,0:0:0:0:
142,192,254323,1,0,0:0:0:0:
483,192,254323,1,0,0:0:0:0:
230,192,254487,1,0,0:0:0:0:
85,192,254487,1,0,0:0:0:0:
312,192,254487,1,0,0:0:0:0:
369,192,254487,1,0,0:0:0:0:
369,192,254815,128,0,255798:0:0:0:0:
483,192,254815,128,0,255798:0:0:0:0:
230,192,254815,128,0,255143:0:0:0:0:
85,192,254815,128,0,255143:0:0:0:0:
312,192,254979,1,0,0:0:0:0:
426,192,255143,1,0,0:0:0:0:
142,192,255307,128,0,255634:0:0:0:0:
28,192,255307,128,0,255634:0:0:0:0:
281,192,255307,1,0,0:0:0:0:
426,192,255470,1,0,0:0:0:0:
312,192,255634,1,0,0:0:0:0:
426,192,255798,1,0,0:0:0:0:
85,192,255798,128,0,256126:0:0:0:0:
199,192,255798,128,0,256126:0:0:0:0:
142,192,256126,128,0,257110:0:0:0:0:
28,192,256126,128,0,257110:0:0:0:0:
256,192,256126,128,0,256454:0:0:0:0:
369,192,256126,128,0,256454:0:0:0:0:
199,192,256290,1,0,0:0:0:0:
85,192,256454,1,0,0:0:0:0:
230,192,256618,1,0,0:0:0:0:
312,192,256618,128,0,256946:0:0:0:0:
426,192,256618,128,0,256946:0:0:0:0:
85,192,256782,1,0,0:0:0:0:
199,192,256946,1,0,0:0:0:0:
85,192,257110,1,0,0:0:0:0:
369,192,257110,128,0,257438:0:0:0:0:
483,192,257110,128,0,257438:0:0:0:0:
256,192,257438,128,0,258749:0:0:0:0:
199,192,257438,128,0,258093:0:0:0:0:
312,192,257438,128,0,258093:0:0:0:0:
230,192,257438,128,0,258749:0:0:0:0:
128,192,257602,1,0,0:0:0:0:
384,192,257602,1,0,0:0:0:0:
28,192,257766,1,0,0:0:0:0:
483,192,257766,1,0,0:0:0:0:
76,192,257766,1,0,0:0:0:0:
435,192,257766,1,0,0:0:0:0:
128,192,257929,1,0,0:0:0:0:
384,192,257929,1,0,0:0:0:0:
483,192,258093,1,0,0:0:0:0:
28,192,258093,1,0,0:0:0:0:
76,192,258093,1,0,0:0:0:0:
435,192,258093,1,0,0:0:0:0:
128,192,258257,1,0,0:0:0:0:
384,192,258257,1,0,0:0:0:0:
28,192,258421,1,0,0:0:0:0:
483,192,258421,1,0,0:0:0:0:
179,192,258421,1,0,0:0:0:0:
332,192,258421,1,0,0:0:0:0:
76,192,258585,1,0,0:0:0:0:
435,192,258585,1,0,0:0:0:0:
369,192,258749,1,0,0:0:0:0:
142,192,258749,1,0,0:0:0:0:
25,192,258749,1,0,0:0:0:0:
486,192,258749,1,0,0:0:0:0:
199,192,258913,1,0,0:0:0:0:
256,192,258913,1,0,0:0:0:0:
312,192,258913,1,0,0:0:0:0:
369,192,259077,1,0,0:0:0:0:
483,192,259077,1,0,0:0:0:0:
76,192,259077,1,0,0:0:0:0:
230,192,259077,1,0,0:0:0:0:
199,192,259241,1,0,0:0:0:0:
312,192,259241,1,0,0:0:0:0:
128,192,259241,1,0,0:0:0:0:
256,192,259405,1,0,0:0:0:0:
25,192,259405,1,0,0:0:0:0:
435,192,259405,1,0,0:0:0:0:
230,192,259569,1,0,0:0:0:0:
179,192,259569,1,0,0:0:0:0:
312,192,259651,1,0,0:0:0:0:
369,192,259651,1,0,0:0:0:0:
76,192,259733,1,0,0:0:0:0:
128,192,259733,1,0,0:0:0:0:
230,192,259815,1,0,0:0:0:0:
281,192,259815,1,0,0:0:0:0:
28,192,259897,1,0,0:0:0:0:
384,192,259897,1,0,0:0:0:0:
435,192,259897,1,0,0:0:0:0:
128,192,259979,1,0,0:0:0:0:
486,192,259979,1,0,0:0:0:0:
256,192,260061,128,0,261044:0:0:0:0:
85,192,260061,128,0,260716:0:0:0:0:
179,192,260061,1,0,0:0:0:0:
332,192,260061,1,0,0:0:0:0:
25,192,260225,1,0,0:0:0:0:
435,192,260225,1,0,0:0:0:0:
384,192,260388,1,0,0:0:0:0:
332,192,260388,1,0,0:0:0:0:
230,192,260388,1,0,0:0:0:0:
179,192,260552,1,0,0:0:0:0:
25,192,260716,128,0,261044:0:0:0:0:
332,192,260716,1,0,0:0:0:0:
486,192,260716,1,0,0:0:0:0:
128,192,260880,1,0,0:0:0:0:
384,192,260880,1,0,0:0:0:0:
435,192,260880,1,0,0:0:0:0:
312,192,261044,128,0,261372:0:0:0:0:
179,192,261044,1,0,0:0:0:0:
230,192,261044,1,0,0:0:0:0:
486,192,261044,1,0,0:0:0:0:
426,192,261372,128,0,261864:0:0:0:0:
230,192,261372,128,0,261864:0:0:0:0:
179,192,261372,1,0,0:0:0:0:
76,192,261372,1,0,0:0:0:0:
384,192,261536,1,0,0:0:0:0:
25,192,261536,1,0,0:0:0:0:
128,192,261700,1,0,0:0:0:0:
281,192,261700,1,0,0:0:0:0:
199,192,261864,1,0,0:0:0:0:
76,192,261864,128,0,262356:0:0:0:0:
483,192,261864,128,0,262356:0:0:0:0:
312,192,262028,128,0,262356:0:0:0:0:
384,192,262028,1,0,0:0:0:0:
128,192,262192,1,0,0:0:0:0:
256,192,262356,128,0,263339:0:0:0:0:
25,192,262356,1,0,0:0:0:0:
230,192,262356,1,0,0:0:0:0:
435,192,262356,1,0,0:0:0:0:
369,192,262684,128,0,263339:0:0:0:0:
483,192,262684,1,0,0:0:0:0:
179,192,262684,1,0,0:0:0:0:
76,192,262684,1,0,0:0:0:0:
128,192,262684,1,0,0:0:0:0:
435,192,262848,1,0,0:0:0:0:
483,192,263011,1,0,0:0:0:0:
199,192,263011,128,0,263503:0:0:0:0:
332,192,263011,1,0,0:0:0:0:
230,192,263175,1,0,0:0:0:0:
486,192,263339,1,0,0:0:0:0:
435,192,263339,128,0,263831:0:0:0:0:
25,192,263339,1,0,0:0:0:0:
128,192,263503,128,0,263995:0:0:0:0:
332,192,263503,128,0,263667:0:0:0:0:
76,192,263667,128,0,263831:0:0:0:0:
230,192,263667,1,0,0:0:0:0:
384,192,263831,1,0,0:0:0:0:
256,192,263831,128,0,263995:0:0:0:0:
25,192,263995,128,0,264815:0:0:0:0:
332,192,263995,1,0,0:0:0:0:
486,192,263995,128,0,264815:0:0:0:0:
199,192,263995,1,0,0:0:0:0:
142,192,264159,1,0,0:0:0:0:
281,192,264159,1,0,0:0:0:0:
435,192,264323,1,0,0:0:0:0:
332,192,264323,1,0,0:0:0:0:
230,192,264323,1,0,0:0:0:0:
179,192,264323,1,0,0:0:0:0:
76,192,264487,1,0,0:0:0:0:
312,192,264651,1,0,0:0:0:0:
384,192,264651,1,0,0:0:0:0:
281,192,264651,1,0,0:0:0:0:
179,192,264815,1,0,0:0:0:0:
128,192,264815,1,0,0:0:0:0:
483,192,264979,1,0,0:0:0:0:
28,192,264979,1,0,0:0:0:0:
85,192,264979,1,0,0:0:0:0:
230,192,264979,1,0,0:0:0:0:
384,192,264979,1,0,0:0:0:0:
435,192,264979,1,0,0:0:0:0:
179,192,265143,1,0,0:0:0:0:
332,192,265143,1,0,0:0:0:0:
230,192,265184,1,0,0:0:0:0:
281,192,265184,1,0,0:0:0:0:
128,192,265225,1,0,0:0:0:0:
384,192,265225,1,0,0:0:0:0:
426,192,265266,1,0,0:0:0:0:
85,192,265266,1,0,0:0:0:0:
28,192,265307,128,0,266454:0:0:0:0:
483,192,265307,128,0,266454:0:0:0:0:
369,192,265634,128,0,265962:0:0:0:0:
256,192,265634,128,0,265962:0:0:0:0:
85,192,265798,128,0,266126:0:0:0:0:
199,192,265798,128,0,266126:0:0:0:0:
332,192,265962,1,0,0:0:0:0:
435,192,265962,1,0,0:0:0:0:
384,192,266126,128,0,266290:0:0:0:0:
281,192,266126,128,0,266290:0:0:0:0:
128,192,266290,128,0,266454:0:0:0:0:
230,192,266290,128,0,266454:0:0:0:0:
312,192,266454,128,0,266618:0:0:0:0:
426,192,266454,128,0,266618:0:0:0:0:
179,192,266454,1,0,0:0:0:0:
76,192,266454,1,0,0:0:0:0:
384,192,266782,128,0,266864:0:0:0:0:
128,192,266782,128,0,266864:0:0:0:0:
332,192,266946,128,0,267028:0:0:0:0:
486,192,266946,128,0,267028:0:0:0:0:
179,192,266946,128,0,267028:0:0:0:0:
25,192,266946,128,0,267028:0:0:0:0:
281,192,267110,128,0,267192:0:0:0:0:
435,192,267110,128,0,267192:0:0:0:0:
76,192,267110,128,0,267192:0:0:0:0:
230,192,267110,128,0,267192:0:0:0:0:
142,192,267438,1,0,0:0:0:0:
369,192,267438,1,0,0:0:0:0:
179,192,267438,1,0,0:0:0:0:
332,192,267438,1,0,0:0:0:0:
369,192,267602,1,0,0:0:0:0:
28,192,267602,1,0,0:0:0:0:
483,192,267602,1,0,0:0:0:0:
142,192,267602,1,0,0:0:0:0:
76,192,267766,128,0,273175:0:0:0:0:
179,192,267766,128,0,273175:0:0:0:0:
230,192,267766,128,0,273175:0:0:0:0:
281,192,267766,128,0,273175:0:0:0:0:
332,192,267766,128,0,273175:0:0:0:0:
435,192,267766,128,0,273175:0:0:0:0:
