osu file format v14

[General]
AudioFilename: INNOCENCE.mp3
AudioLeadIn: 0
PreviewTime: 249569
Countdown: 0
SampleSet: Soft
StackLeniency: 0.7
Mode: 3
LetterboxInBreaks: 0
SpecialStyle: 0
WidescreenStoryboard: 1

[Editor]
DistanceSpacing: 1
BeatDivisor: 8
GridSize: 8
TimelineZoom: 2.599999

[Metadata]
Title:INNOCENCE
TitleUnicode:INNOCENCE
Artist:Eir Aoi
ArtistUnicode:藍井エイル
Creator:AWMRone
Version:Anneal Blade
Source:ソードアート・オンライン
Tags:japanese anime sword art online sao alfheim online アルヴヘイム・オンライン alo op2 2nd second opening Fairy Dance Arc フェアリィ・ダンス kirito キリト asuna アスナ j-pop jpop japanese pop Ryosuke Shigenaga 重永亮介 Kayo Shimokawa 下川佳代 Blau BEST -E- SECL-1267 SECL-1216 SECL-2005 SME Records collaboration wilben_chan alipay sk_la wjh123 imperial wolf misterluka ruka [ Reversal ] la
BeatmapID:1845875
BeatmapSetID:875519

[Difficulty]
HPDrainRate:7
CircleSize:4
OverallDifficulty:7
ApproachRate:5
SliderMultiplier:1.4
SliderTickRate:1

[Events]
//Background and Video events
0,0,"BG.jpg",0,0
//Break Periods
//Storyboard Layer 0 (Background)
//Storyboard Layer 1 (Fail)
//Storyboard Layer 2 (Pass)
//Storyboard Layer 3 (Foreground)
//Storyboard Layer 4 (Overlay)
//Storyboard Sound Samples
Sample,2131,0,"normal-hitnormal3.ogg",100

[TimingPoints]
389,327.868852459016,4,2,1,5,1,0

[HitObjects]
448,192,389,5,0,0:0:0:0:
320,192,552,1,0,0:0:0:0:
192,192,716,1,0,0:0:0:0:
64,192,880,1,0,0:0:0:0:
192,192,1208,1,0,0:0:0:0:
64,192,1618,1,0,0:0:0:0:
192,192,1659,1,0,0:0:0:0:
320,192,1700,128,0,2684:0:0:0:0:
64,192,3011,1,0,0:0:0:0:
192,192,3175,1,0,0:0:0:0:
320,192,3339,1,0,0:0:0:0:
448,192,3503,1,0,0:0:0:0:
64,192,4323,1,0,0:0:0:0:
320,192,4323,1,0,0:0:0:0:
64,192,5634,1,0,0:0:0:0:
320,192,5798,1,0,0:0:0:0:
192,192,5962,1,0,0:0:0:0:
448,192,6126,1,0,0:0:0:0:
192,192,6946,1,0,0:0:0:0:
448,192,6946,1,0,0:0:0:0:
448,192,7438,1,0,0:0:0:0:
320,192,7520,1,0,0:0:0:0:
192,192,7602,1,0,0:0:0:0:
64,192,7684,1,0,0:0:0:0:
320,192,8257,1,0,0:0:0:0:
64,192,8257,128,0,9569:0:0:0:0:
192,192,9569,1,0,0:0:0:0:
448,192,9569,128,0,10880:0:0:0:0:
320,192,10061,1,0,0:0:0:0:
192,192,10388,1,0,0:0:0:0:
64,192,10552,1,0,0:0:0:0:
64,192,10880,1,0,0:0:0:0:
320,192,11044,1,0,0:0:0:0:
192,192,11208,1,0,0:0:0:0:
320,192,11372,1,0,0:0:0:0:
64,192,11536,1,0,0:0:0:0:
448,192,11700,1,0,0:0:0:0:
64,192,11864,1,0,0:0:0:0:
320,192,12028,1,0,0:0:0:0:
448,192,12192,1,0,0:0:0:0:
192,192,12192,1,0,0:0:0:0:
320,192,12356,1,0,0:0:0:0:
64,192,12520,1,0,0:0:0:0:
448,192,12520,1,0,0:0:0:0:
192,192,12684,1,0,0:0:0:0:
64,192,12848,1,0,0:0:0:0:
448,192,12848,1,0,0:0:0:0:
320,192,13011,1,0,0:0:0:0:
192,192,13175,1,0,0:0:0:0:
192,192,13339,1,0,0:0:0:0:
320,192,13421,1,0,0:0:0:0:
448,192,13503,1,0,0:0:0:0:
64,192,13503,1,0,0:0:0:0:
192,192,13831,1,0,0:0:0:0:
448,192,13831,1,0,0:0:0:0:
64,192,14159,1,0,0:0:0:0:
64,192,14323,1,0,0:0:0:0:
448,192,14487,1,0,0:0:0:0:
320,192,14487,1,0,0:0:0:0:
64,192,14815,1,0,0:0:0:0:
448,192,15143,1,0,0:0:0:0:
320,192,15143,1,0,0:0:0:0:
192,192,15307,1,0,0:0:0:0:
320,192,15470,1,0,0:0:0:0:
64,192,15634,1,0,0:0:0:0:
448,192,15798,1,0,0:0:0:0:
192,192,15798,1,0,0:0:0:0:
64,192,16126,1,0,0:0:0:0:
320,192,16290,1,0,0:0:0:0:
448,192,16454,1,0,0:0:0:0:
192,192,16454,1,0,0:0:0:0:
192,192,16782,1,0,0:0:0:0:
448,192,16946,1,0,0:0:0:0:
64,192,17110,1,0,0:0:0:0:
192,192,17110,1,0,0:0:0:0:
320,192,17438,1,0,0:0:0:0:
448,192,17766,1,0,0:0:0:0:
64,192,17766,1,0,0:0:0:0:
320,192,17929,1,0,0:0:0:0:
64,192,18093,1,0,0:0:0:0:
192,192,18257,1,0,0:0:0:0:
448,192,18421,1,0,0:0:0:0:
320,192,18421,1,0,0:0:0:0:
448,192,18749,128,0,20061:0:0:0:0:
64,192,18749,1,0,0:0:0:0:
64,192,19077,1,0,0:0:0:0:
192,192,19405,1,0,0:0:0:0:
192,192,19733,1,0,0:0:0:0:
320,192,20061,128,0,20552:0:0:0:0:
64,192,20061,1,0,0:0:0:0:
64,192,20388,1,0,0:0:0:0:
192,192,20552,128,0,21044:0:0:0:0:
448,192,20716,1,0,0:0:0:0:
448,192,21044,128,0,21372:0:0:0:0:
64,192,21372,128,0,23175:0:0:0:0:
192,192,22028,128,0,23175:0:0:0:0:
448,192,22684,128,0,23175:0:0:0:0:
192,192,23339,1,0,0:0:0:0:
448,192,23339,1,0,0:0:0:0:
448,192,23503,1,0,0:0:0:0:
192,192,23503,1,0,0:0:0:0:
64,192,23995,1,0,0:0:0:0:
448,192,23995,1,0,0:0:0:0:
320,192,25307,1,0,0:0:0:0:
192,192,25798,1,0,0:0:0:0:
448,192,26290,1,0,0:0:0:0:
64,192,26618,1,0,0:0:0:0:
320,192,26618,1,0,0:0:0:0:
192,192,27929,1,0,0:0:0:0:
320,192,28421,1,0,0:0:0:0:
192,192,28749,1,0,0:0:0:0:
192,192,28913,1,0,0:0:0:0:
192,192,29077,1,0,0:0:0:0:
64,192,29241,1,0,0:0:0:0:
448,192,29241,1,0,0:0:0:0:
192,192,29405,1,0,0:0:0:0:
448,192,29569,1,0,0:0:0:0:
64,192,29897,1,0,0:0:0:0:
448,192,30225,1,0,0:0:0:0:
320,192,30388,1,0,0:0:0:0:
64,192,30388,1,0,0:0:0:0:
192,192,30552,1,0,0:0:0:0:
448,192,30880,1,0,0:0:0:0:
192,192,31208,1,0,0:0:0:0:
64,192,31372,1,0,0:0:0:0:
448,192,31536,1,0,0:0:0:0:
64,192,31864,1,0,0:0:0:0:
320,192,31864,1,0,0:0:0:0:
192,192,32192,1,0,0:0:0:0:
64,192,32520,1,0,0:0:0:0:
448,192,32848,1,0,0:0:0:0:
64,192,33011,1,0,0:0:0:0:
192,192,33011,1,0,0:0:0:0:
192,192,33503,1,0,0:0:0:0:
320,192,33831,1,0,0:0:0:0:
448,192,33995,1,0,0:0:0:0:
192,192,34159,1,0,0:0:0:0:
448,192,34241,1,0,0:0:0:0:
192,192,34323,1,0,0:0:0:0:
448,192,34405,1,0,0:0:0:0:
64,192,34487,1,0,0:0:0:0:
320,192,34487,1,0,0:0:0:0:
64,192,34815,1,0,0:0:0:0:
64,192,35143,1,0,0:0:0:0:
64,192,35470,1,0,0:0:0:0:
320,192,35798,1,0,0:0:0:0:
64,192,35798,1,0,0:0:0:0:
192,192,36126,1,0,0:0:0:0:
320,192,36290,1,0,0:0:0:0:
448,192,36454,1,0,0:0:0:0:
320,192,36782,1,0,0:0:0:0:
448,192,37110,1,0,0:0:0:0:
192,192,37110,1,0,0:0:0:0:
448,192,37438,1,0,0:0:0:0:
448,192,37766,1,0,0:0:0:0:
448,192,38093,1,0,0:0:0:0:
192,192,38421,1,0,0:0:0:0:
448,192,38421,1,0,0:0:0:0:
192,192,38749,1,0,0:0:0:0:
64,192,39077,1,0,0:0:0:0:
448,192,39077,1,0,0:0:0:0:
192,192,39241,1,0,0:0:0:0:
448,192,39405,1,0,0:0:0:0:
320,192,39405,1,0,0:0:0:0:
64,192,39733,1,0,0:0:0:0:
448,192,39733,1,0,0:0:0:0:
320,192,40061,1,0,0:0:0:0:
192,192,40225,1,0,0:0:0:0:
64,192,40388,1,0,0:0:0:0:
320,192,40716,1,0,0:0:0:0:
192,192,40880,1,0,0:0:0:0:
448,192,40880,1,0,0:0:0:0:
64,192,41044,1,0,0:0:0:0:
448,192,41372,1,0,0:0:0:0:
192,192,41700,1,0,0:0:0:0:
192,192,41864,1,0,0:0:0:0:
448,192,42028,1,0,0:0:0:0:
192,192,42356,1,0,0:0:0:0:
64,192,42356,1,0,0:0:0:0:
448,192,42684,1,0,0:0:0:0:
64,192,43011,1,0,0:0:0:0:
320,192,43175,1,0,0:0:0:0:
448,192,43339,1,0,0:0:0:0:
192,192,43503,1,0,0:0:0:0:
64,192,43831,1,0,0:0:0:0:
320,192,43995,1,0,0:0:0:0:
64,192,44323,1,0,0:0:0:0:
320,192,44487,1,0,0:0:0:0:
448,192,44569,1,0,0:0:0:0:
64,192,44651,1,0,0:0:0:0:
320,192,44733,1,0,0:0:0:0:
192,192,44815,1,0,0:0:0:0:
448,192,44897,1,0,0:0:0:0:
64,192,44979,1,0,0:0:0:0:
192,192,45143,1,0,0:0:0:0:
320,192,45307,1,0,0:0:0:0:
192,192,45470,1,0,0:0:0:0:
320,192,45634,1,0,0:0:0:0:
64,192,45798,1,0,0:0:0:0:
320,192,45962,1,0,0:0:0:0:
192,192,46126,1,0,0:0:0:0:
320,192,46290,1,0,0:0:0:0:
64,192,46454,1,0,0:0:0:0:
320,192,46618,1,0,0:0:0:0:
192,192,46782,1,0,0:0:0:0:
448,192,46946,1,0,0:0:0:0:
64,192,46946,1,0,0:0:0:0:
448,192,47274,1,0,0:0:0:0:
64,192,47274,1,0,0:0:0:0:
64,192,47602,1,0,0:0:0:0:
320,192,47602,1,0,0:0:0:0:
192,192,47766,1,0,0:0:0:0:
320,192,47929,1,0,0:0:0:0:
192,192,48093,1,0,0:0:0:0:
448,192,48257,1,0,0:0:0:0:
192,192,48421,1,0,0:0:0:0:
320,192,48585,1,0,0:0:0:0:
192,192,48790,1,0,0:0:0:0:
448,192,48913,1,0,0:0:0:0:
192,192,49077,1,0,0:0:0:0:
320,192,49241,1,0,0:0:0:0:
192,192,49405,1,0,0:0:0:0:
448,192,49569,1,0,0:0:0:0:
64,192,49569,1,0,0:0:0:0:
448,192,49897,1,0,0:0:0:0:
64,192,49897,1,0,0:0:0:0:
192,192,50225,1,0,0:0:0:0:
448,192,50225,1,0,0:0:0:0:
320,192,50388,1,0,0:0:0:0:
320,192,50552,1,0,0:0:0:0:
64,192,50552,1,0,0:0:0:0:
192,192,50716,1,0,0:0:0:0:
64,192,50880,1,0,0:0:0:0:
448,192,50880,1,0,0:0:0:0:
192,192,51044,1,0,0:0:0:0:
320,192,51208,1,0,0:0:0:0:
64,192,51208,1,0,0:0:0:0:
448,192,51372,1,0,0:0:0:0:
64,192,51536,1,0,0:0:0:0:
192,192,51536,1,0,0:0:0:0:
320,192,51700,1,0,0:0:0:0:
448,192,51864,1,0,0:0:0:0:
192,192,51864,1,0,0:0:0:0:
64,192,52028,1,0,0:0:0:0:
192,192,52192,1,0,0:0:0:0:
448,192,52356,1,0,0:0:0:0:
320,192,52520,1,0,0:0:0:0:
64,192,52520,1,0,0:0:0:0:
192,192,52684,1,0,0:0:0:0:
320,192,52848,128,0,53503:0:0:0:0:
64,192,52848,128,0,53503:0:0:0:0:
64,192,54159,1,0,0:0:0:0:
320,192,54159,1,0,0:0:0:0:
64,192,54323,1,0,0:0:0:0:
320,192,54323,1,0,0:0:0:0:
192,192,54815,1,0,0:0:0:0:
448,192,54815,1,0,0:0:0:0:
448,192,54979,1,0,0:0:0:0:
192,192,54979,1,0,0:0:0:0:
64,192,55470,1,0,0:0:0:0:
448,192,55470,1,0,0:0:0:0:
192,192,55634,1,0,0:0:0:0:
448,192,55798,1,0,0:0:0:0:
320,192,55798,1,0,0:0:0:0:
192,192,55962,1,0,0:0:0:0:
64,192,56126,1,0,0:0:0:0:
320,192,56126,1,0,0:0:0:0:
448,192,56290,1,0,0:0:0:0:
64,192,56454,1,0,0:0:0:0:
192,192,56454,1,0,0:0:0:0:
320,192,56618,1,0,0:0:0:0:
64,192,56782,1,0,0:0:0:0:
448,192,56782,1,0,0:0:0:0:
320,192,56946,1,0,0:0:0:0:
192,192,57110,1,0,0:0:0:0:
448,192,57110,1,0,0:0:0:0:
320,192,57274,1,0,0:0:0:0:
192,192,57438,1,0,0:0:0:0:
64,192,57438,1,0,0:0:0:0:
320,192,57602,1,0,0:0:0:0:
448,192,57766,1,0,0:0:0:0:
192,192,57766,1,0,0:0:0:0:
320,192,57929,1,0,0:0:0:0:
192,192,58093,1,0,0:0:0:0:
320,192,58257,1,0,0:0:0:0:
64,192,58421,1,0,0:0:0:0:
448,192,58421,1,0,0:0:0:0:
320,192,58585,1,0,0:0:0:0:
64,192,58749,1,0,0:0:0:0:
192,192,58749,1,0,0:0:0:0:
320,192,58913,1,0,0:0:0:0:
192,192,59077,1,0,0:0:0:0:
448,192,59077,1,0,0:0:0:0:
64,192,59241,1,0,0:0:0:0:
320,192,59405,1,0,0:0:0:0:
448,192,59405,1,0,0:0:0:0:
192,192,59569,1,0,0:0:0:0:
64,192,59733,1,0,0:0:0:0:
320,192,59733,1,0,0:0:0:0:
192,192,59897,1,0,0:0:0:0:
320,192,60061,1,0,0:0:0:0:
448,192,60061,1,0,0:0:0:0:
64,192,60225,1,0,0:0:0:0:
320,192,60388,1,0,0:0:0:0:
192,192,60388,1,0,0:0:0:0:
64,192,60716,128,0,62028:0:0:0:0:
448,192,60716,1,0,0:0:0:0:
320,192,60880,1,0,0:0:0:0:
192,192,61044,1,0,0:0:0:0:
192,192,61372,1,0,0:0:0:0:
448,192,61372,1,0,0:0:0:0:
320,192,61536,1,0,0:0:0:0:
448,192,61700,1,0,0:0:0:0:
448,192,62028,128,0,63339:0:0:0:0:
320,192,62028,1,0,0:0:0:0:
64,192,62192,1,0,0:0:0:0:
192,192,62356,1,0,0:0:0:0:
64,192,62684,1,0,0:0:0:0:
320,192,62684,1,0,0:0:0:0:
192,192,62848,1,0,0:0:0:0:
320,192,63011,1,0,0:0:0:0:
64,192,63339,1,0,0:0:0:0:
192,192,63339,1,0,0:0:0:0:
320,192,63503,1,0,0:0:0:0:
64,192,63667,1,0,0:0:0:0:
192,192,63667,1,0,0:0:0:0:
448,192,63831,1,0,0:0:0:0:
192,192,63995,1,0,0:0:0:0:
64,192,63995,1,0,0:0:0:0:
320,192,64159,1,0,0:0:0:0:
320,192,64323,1,0,0:0:0:0:
64,192,64323,1,0,0:0:0:0:
448,192,64487,1,0,0:0:0:0:
64,192,64651,1,0,0:0:0:0:
320,192,64651,1,0,0:0:0:0:
448,192,64815,1,0,0:0:0:0:
64,192,64979,1,0,0:0:0:0:
192,192,64979,1,0,0:0:0:0:
448,192,65143,128,0,65307:0:0:0:0:
64,192,65307,1,0,0:0:0:0:
320,192,65307,128,0,65470:0:0:0:0:
192,192,65470,128,0,65634:0:0:0:0:
320,192,65634,1,0,0:0:0:0:
64,192,65634,128,0,65798:0:0:0:0:
448,192,65798,1,0,0:0:0:0:
64,192,65962,128,0,66946:0:0:0:0:
320,192,65962,1,0,0:0:0:0:
192,192,66126,1,0,0:0:0:0:
448,192,66290,1,0,0:0:0:0:
320,192,66290,1,0,0:0:0:0:
192,192,66454,1,0,0:0:0:0:
448,192,66618,1,0,0:0:0:0:
320,192,66782,1,0,0:0:0:0:
448,192,66946,1,0,0:0:0:0:
192,192,66946,1,0,0:0:0:0:
320,192,67110,1,0,0:0:0:0:
448,192,67274,128,0,68257:0:0:0:0:
192,192,67274,1,0,0:0:0:0:
320,192,67438,1,0,0:0:0:0:
64,192,67602,1,0,0:0:0:0:
192,192,67602,1,0,0:0:0:0:
320,192,67766,1,0,0:0:0:0:
64,192,67929,1,0,0:0:0:0:
192,192,68093,1,0,0:0:0:0:
64,192,68257,1,0,0:0:0:0:
320,192,68257,1,0,0:0:0:0:
192,192,68421,1,0,0:0:0:0:
64,192,68585,128,0,69241:0:0:0:0:
448,192,68585,1,0,0:0:0:0:
192,192,68749,1,0,0:0:0:0:
320,192,68913,1,0,0:0:0:0:
448,192,69077,1,0,0:0:0:0:
192,192,69241,128,0,69897:0:0:0:0:
320,192,69405,1,0,0:0:0:0:
448,192,69569,1,0,0:0:0:0:
64,192,69733,1,0,0:0:0:0:
320,192,69897,128,0,70552:0:0:0:0:
448,192,70061,1,0,0:0:0:0:
192,192,70225,1,0,0:0:0:0:
64,192,70388,1,0,0:0:0:0:
448,192,70552,128,0,71208:0:0:0:0:
320,192,70716,1,0,0:0:0:0:
192,192,70880,1,0,0:0:0:0:
320,192,71044,1,0,0:0:0:0:
64,192,71208,1,0,0:0:0:0:
192,192,71372,1,0,0:0:0:0:
448,192,71536,1,0,0:0:0:0:
320,192,71536,1,0,0:0:0:0:
192,192,71700,1,0,0:0:0:0:
64,192,71864,1,0,0:0:0:0:
448,192,71864,1,0,0:0:0:0:
320,192,72028,1,0,0:0:0:0:
320,192,72192,1,0,0:0:0:0:
192,192,72192,1,0,0:0:0:0:
448,192,72356,1,0,0:0:0:0:
64,192,72520,1,0,0:0:0:0:
320,192,72520,1,0,0:0:0:0:
448,192,72684,1,0,0:0:0:0:
64,192,72848,1,0,0:0:0:0:
192,192,72848,1,0,0:0:0:0:
320,192,73011,1,0,0:0:0:0:
448,192,73175,1,0,0:0:0:0:
64,192,73175,1,0,0:0:0:0:
192,192,73339,1,0,0:0:0:0:
448,192,73503,1,0,0:0:0:0:
192,192,73503,1,0,0:0:0:0:
64,192,73667,1,0,0:0:0:0:
448,192,73831,1,0,0:0:0:0:
320,192,73831,1,0,0:0:0:0:
192,192,73995,1,0,0:0:0:0:
320,192,74159,1,0,0:0:0:0:
448,192,74159,1,0,0:0:0:0:
64,192,74323,1,0,0:0:0:0:
320,192,74487,1,0,0:0:0:0:
448,192,74487,1,0,0:0:0:0:
192,192,74651,1,0,0:0:0:0:
320,192,74815,1,0,0:0:0:0:
448,192,74815,1,0,0:0:0:0:
64,192,74979,1,0,0:0:0:0:
448,192,75143,1,0,0:0:0:0:
192,192,75143,1,0,0:0:0:0:
192,192,75470,1,0,0:0:0:0:
64,192,75470,1,0,0:0:0:0:
320,192,75634,1,0,0:0:0:0:
448,192,75798,1,0,0:0:0:0:
64,192,75962,1,0,0:0:0:0:
192,192,76126,1,0,0:0:0:0:
448,192,76126,1,0,0:0:0:0:
320,192,76290,1,0,0:0:0:0:
448,192,76454,1,0,0:0:0:0:
64,192,76454,128,0,76618:0:0:0:0:
192,192,76618,128,0,76782:0:0:0:0:
320,192,76782,128,0,76946:0:0:0:0:
64,192,76782,1,0,0:0:0:0:
448,192,76946,128,0,77110:0:0:0:0:
64,192,77110,128,0,77274:0:0:0:0:
448,192,77274,128,0,77438:0:0:0:0:
192,192,77438,128,0,77602:0:0:0:0:
64,192,77438,1,0,0:0:0:0:
320,192,77602,128,0,77766:0:0:0:0:
64,192,77766,128,0,77929:0:0:0:0:
320,192,77929,128,0,78093:0:0:0:0:
192,192,78093,128,0,78257:0:0:0:0:
64,192,78093,1,0,0:0:0:0:
320,192,78257,128,0,78421:0:0:0:0:
448,192,78421,128,0,78749:0:0:0:0:
192,192,78421,1,0,0:0:0:0:
320,192,78749,128,0,79077:0:0:0:0:
64,192,78749,1,0,0:0:0:0:
192,192,79077,128,0,80061:0:0:0:0:
448,192,79241,1,0,0:0:0:0:
448,192,79405,1,0,0:0:0:0:
64,192,79405,1,0,0:0:0:0:
320,192,79569,1,0,0:0:0:0:
448,192,79733,1,0,0:0:0:0:
64,192,79733,1,0,0:0:0:0:
448,192,80061,1,0,0:0:0:0:
64,192,80061,1,0,0:0:0:0:
192,192,80225,1,0,0:0:0:0:
448,192,80388,128,0,81372:0:0:0:0:
64,192,80388,1,0,0:0:0:0:
320,192,80552,1,0,0:0:0:0:
192,192,80716,1,0,0:0:0:0:
64,192,80880,1,0,0:0:0:0:
192,192,81044,1,0,0:0:0:0:
320,192,81208,1,0,0:0:0:0:
64,192,81372,1,0,0:0:0:0:
448,192,81536,1,0,0:0:0:0:
192,192,81700,1,0,0:0:0:0:
64,192,81700,1,0,0:0:0:0:
320,192,81864,1,0,0:0:0:0:
192,192,82028,1,0,0:0:0:0:
320,192,82192,1,0,0:0:0:0:
64,192,82356,1,0,0:0:0:0:
192,192,82356,1,0,0:0:0:0:
320,192,82520,1,0,0:0:0:0:
192,192,82684,1,0,0:0:0:0:
64,192,82684,1,0,0:0:0:0:
320,192,82848,1,0,0:0:0:0:
448,192,82848,1,0,0:0:0:0:
64,192,83011,1,0,0:0:0:0:
192,192,83011,1,0,0:0:0:0:
64,192,84323,128,0,85634:0:0:0:0:
448,192,84323,1,0,0:0:0:0:
192,192,84487,1,0,0:0:0:0:
320,192,84651,1,0,0:0:0:0:
448,192,84651,1,0,0:0:0:0:
192,192,84979,1,0,0:0:0:0:
448,192,85143,1,0,0:0:0:0:
320,192,85307,1,0,0:0:0:0:
192,192,85307,1,0,0:0:0:0:
448,192,85634,128,0,86946:0:0:0:0:
192,192,85634,1,0,0:0:0:0:
320,192,85798,1,0,0:0:0:0:
192,192,85962,1,0,0:0:0:0:
64,192,85962,1,0,0:0:0:0:
320,192,86290,1,0,0:0:0:0:
64,192,86454,1,0,0:0:0:0:
192,192,86618,1,0,0:0:0:0:
320,192,86618,1,0,0:0:0:0:
192,192,86946,128,0,88257:0:0:0:0:
64,192,87110,1,0,0:0:0:0:
448,192,87274,1,0,0:0:0:0:
320,192,87274,1,0,0:0:0:0:
64,192,87602,1,0,0:0:0:0:
320,192,87766,1,0,0:0:0:0:
448,192,87929,1,0,0:0:0:0:
64,192,87929,1,0,0:0:0:0:
320,192,88257,128,0,89569:0:0:0:0:
448,192,88421,1,0,0:0:0:0:
64,192,88585,1,0,0:0:0:0:
192,192,88585,1,0,0:0:0:0:
64,192,88913,1,0,0:0:0:0:
64,192,89241,1,0,0:0:0:0:
64,192,89569,1,0,0:0:0:0:
448,192,89569,1,0,0:0:0:0:
192,192,89733,1,0,0:0:0:0:
448,192,89897,1,0,0:0:0:0:
320,192,90061,1,0,0:0:0:0:
64,192,90225,1,0,0:0:0:0:
64,192,90552,1,0,0:0:0:0:
192,192,90880,1,0,0:0:0:0:
448,192,90880,1,0,0:0:0:0:
320,192,91044,1,0,0:0:0:0:
64,192,91208,1,0,0:0:0:0:
192,192,91372,1,0,0:0:0:0:
320,192,91536,1,0,0:0:0:0:
320,192,91864,1,0,0:0:0:0:
448,192,92192,1,0,0:0:0:0:
64,192,92192,1,0,0:0:0:0:
320,192,92356,1,0,0:0:0:0:
64,192,92520,1,0,0:0:0:0:
192,192,92520,1,0,0:0:0:0:
448,192,92684,1,0,0:0:0:0:
64,192,92848,1,0,0:0:0:0:
320,192,92848,1,0,0:0:0:0:
192,192,93011,1,0,0:0:0:0:
448,192,93175,1,0,0:0:0:0:
64,192,93175,1,0,0:0:0:0:
320,192,93339,1,0,0:0:0:0:
192,192,93503,128,0,94815:0:0:0:0:
448,192,94815,1,0,0:0:0:0:
64,192,94815,1,0,0:0:0:0:
192,192,95307,1,0,0:0:0:0:
448,192,95470,1,0,0:0:0:0:
192,192,95634,1,0,0:0:0:0:
192,192,96618,1,0,0:0:0:0:
448,192,96782,1,0,0:0:0:0:
192,192,96946,1,0,0:0:0:0:
192,192,97929,1,0,0:0:0:0:
448,192,98093,1,0,0:0:0:0:
192,192,98257,1,0,0:0:0:0:
448,192,99733,1,0,0:0:0:0:
320,192,99733,1,0,0:0:0:0:
64,192,100061,1,0,0:0:0:0:
192,192,100061,1,0,0:0:0:0:
320,192,100225,1,0,0:0:0:0:
64,192,100388,1,0,0:0:0:0:
448,192,100388,1,0,0:0:0:0:
192,192,100552,1,0,0:0:0:0:
320,192,100716,1,0,0:0:0:0:
64,192,100880,1,0,0:0:0:0:
448,192,101044,1,0,0:0:0:0:
320,192,101044,1,0,0:0:0:0:
64,192,101208,1,0,0:0:0:0:
192,192,101208,1,0,0:0:0:0:
320,192,101372,1,0,0:0:0:0:
192,192,101536,1,0,0:0:0:0:
320,192,101700,1,0,0:0:0:0:
64,192,101700,1,0,0:0:0:0:
448,192,101864,1,0,0:0:0:0:
192,192,102028,1,0,0:0:0:0:
320,192,102028,1,0,0:0:0:0:
192,192,102192,1,0,0:0:0:0:
320,192,102356,1,0,0:0:0:0:
64,192,102356,1,0,0:0:0:0:
448,192,102684,1,0,0:0:0:0:
64,192,102684,1,0,0:0:0:0:
192,192,103011,1,0,0:0:0:0:
448,192,103011,1,0,0:0:0:0:
192,192,103339,1,0,0:0:0:0:
448,192,103503,1,0,0:0:0:0:
320,192,103667,1,0,0:0:0:0:
192,192,103831,128,0,104815:0:0:0:0:
320,192,104323,1,0,0:0:0:0:
448,192,104323,1,0,0:0:0:0:
320,192,104651,1,0,0:0:0:0:
448,192,104815,1,0,0:0:0:0:
64,192,104979,1,0,0:0:0:0:
320,192,105061,1,0,0:0:0:0:
64,192,105143,1,0,0:0:0:0:
320,192,105225,1,0,0:0:0:0:
64,192,105307,1,0,0:0:0:0:
448,192,105470,1,0,0:0:0:0:
320,192,105634,1,0,0:0:0:0:
64,192,105634,1,0,0:0:0:0:
192,192,105798,1,0,0:0:0:0:
320,192,105962,1,0,0:0:0:0:
448,192,105962,1,0,0:0:0:0:
192,192,106126,1,0,0:0:0:0:
64,192,106290,1,0,0:0:0:0:
448,192,106290,1,0,0:0:0:0:
192,192,106454,1,0,0:0:0:0:
320,192,106618,1,0,0:0:0:0:
192,192,106782,1,0,0:0:0:0:
64,192,106946,1,0,0:0:0:0:
320,192,106946,1,0,0:0:0:0:
192,192,107110,1,0,0:0:0:0:
448,192,107274,1,0,0:0:0:0:
320,192,107274,1,0,0:0:0:0:
192,192,107438,1,0,0:0:0:0:
64,192,107602,1,0,0:0:0:0:
320,192,107602,1,0,0:0:0:0:
192,192,107766,1,0,0:0:0:0:
64,192,107929,1,0,0:0:0:0:
448,192,108093,1,0,0:0:0:0:
320,192,108257,1,0,0:0:0:0:
64,192,108257,1,0,0:0:0:0:
192,192,108421,1,0,0:0:0:0:
320,192,108585,1,0,0:0:0:0:
448,192,108585,1,0,0:0:0:0:
192,192,108749,1,0,0:0:0:0:
320,192,108913,1,0,0:0:0:0:
64,192,108913,1,0,0:0:0:0:
192,192,109077,1,0,0:0:0:0:
448,192,109241,1,0,0:0:0:0:
320,192,109241,1,0,0:0:0:0:
192,192,109405,1,0,0:0:0:0:
64,192,109569,1,0,0:0:0:0:
320,192,109569,1,0,0:0:0:0:
192,192,109733,1,0,0:0:0:0:
64,192,109897,1,0,0:0:0:0:
448,192,109897,1,0,0:0:0:0:
320,192,109897,1,0,0:0:0:0:
192,192,110061,1,0,0:0:0:0:
448,192,110225,1,0,0:0:0:0:
64,192,110225,1,0,0:0:0:0:
320,192,110225,1,0,0:0:0:0:
192,192,110388,1,0,0:0:0:0:
64,192,110552,128,0,111700:0:0:0:0:
320,192,110552,1,0,0:0:0:0:
448,192,110880,1,0,0:0:0:0:
320,192,111208,1,0,0:0:0:0:
320,192,111372,1,0,0:0:0:0:
448,192,111536,1,0,0:0:0:0:
320,192,111700,128,0,113175:0:0:0:0:
64,192,111864,1,0,0:0:0:0:
192,192,112192,1,0,0:0:0:0:
448,192,112356,1,0,0:0:0:0:
192,192,112520,1,0,0:0:0:0:
64,192,112684,1,0,0:0:0:0:
192,192,112848,1,0,0:0:0:0:
64,192,113175,1,0,0:0:0:0:
448,192,113503,1,0,0:0:0:0:
64,192,113831,1,0,0:0:0:0:
192,192,113995,1,0,0:0:0:0:
448,192,114159,1,0,0:0:0:0:
320,192,114323,1,0,0:0:0:0:
64,192,114323,1,0,0:0:0:0:
320,192,114815,1,0,0:0:0:0:
192,192,115143,1,0,0:0:0:0:
320,192,115307,1,0,0:0:0:0:
192,192,115470,1,0,0:0:0:0:
320,192,115552,1,0,0:0:0:0:
192,192,115634,1,0,0:0:0:0:
320,192,115716,1,0,0:0:0:0:
64,192,115798,1,0,0:0:0:0:
192,192,115962,1,0,0:0:0:0:
320,192,116126,1,0,0:0:0:0:
192,192,116290,1,0,0:0:0:0:
320,192,116454,1,0,0:0:0:0:
64,192,116454,1,0,0:0:0:0:
192,192,116782,1,0,0:0:0:0:
64,192,116782,1,0,0:0:0:0:
320,192,116946,1,0,0:0:0:0:
64,192,117110,1,0,0:0:0:0:
192,192,117274,1,0,0:0:0:0:
320,192,117438,1,0,0:0:0:0:
192,192,117602,1,0,0:0:0:0:
448,192,117766,1,0,0:0:0:0:
64,192,117766,1,0,0:0:0:0:
192,192,118093,1,0,0:0:0:0:
448,192,118093,1,0,0:0:0:0:
448,192,118421,1,0,0:0:0:0:
64,192,118421,1,0,0:0:0:0:
320,192,118585,1,0,0:0:0:0:
192,192,118749,1,0,0:0:0:0:
320,192,118913,1,0,0:0:0:0:
448,192,119077,1,0,0:0:0:0:
192,192,119077,1,0,0:0:0:0:
448,192,119405,1,0,0:0:0:0:
320,192,119405,1,0,0:0:0:0:
192,192,119569,1,0,0:0:0:0:
448,192,119733,1,0,0:0:0:0:
64,192,119733,1,0,0:0:0:0:
320,192,119897,1,0,0:0:0:0:
192,192,120061,1,0,0:0:0:0:
320,192,120225,1,0,0:0:0:0:
448,192,120388,1,0,0:0:0:0:
64,192,120388,1,0,0:0:0:0:
320,192,120716,1,0,0:0:0:0:
64,192,120716,1,0,0:0:0:0:
64,192,121044,128,0,122356:0:0:0:0:
192,192,121044,1,0,0:0:0:0:
448,192,121208,1,0,0:0:0:0:
448,192,121372,1,0,0:0:0:0:
320,192,121372,1,0,0:0:0:0:
320,192,121536,1,0,0:0:0:0:
192,192,121700,1,0,0:0:0:0:
448,192,121864,1,0,0:0:0:0:
192,192,122028,1,0,0:0:0:0:
320,192,122028,1,0,0:0:0:0:
320,192,122192,1,0,0:0:0:0:
448,192,122356,128,0,123667:0:0:0:0:
192,192,122356,1,0,0:0:0:0:
64,192,122520,1,0,0:0:0:0:
192,192,122684,1,0,0:0:0:0:
320,192,122684,1,0,0:0:0:0:
64,192,122848,1,0,0:0:0:0:
192,192,123011,1,0,0:0:0:0:
320,192,123175,1,0,0:0:0:0:
192,192,123339,1,0,0:0:0:0:
64,192,123339,1,0,0:0:0:0:
64,192,123503,1,0,0:0:0:0:
192,192,123667,1,0,0:0:0:0:
320,192,123667,1,0,0:0:0:0:
64,192,123831,1,0,0:0:0:0:
320,192,123995,1,0,0:0:0:0:
192,192,124159,1,0,0:0:0:0:
448,192,124323,1,0,0:0:0:0:
320,192,124487,1,0,0:0:0:0:
192,192,124651,1,0,0:0:0:0:
448,192,124733,1,0,0:0:0:0:
192,192,124815,1,0,0:0:0:0:
448,192,124897,1,0,0:0:0:0:
64,192,124979,1,0,0:0:0:0:
320,192,124979,1,0,0:0:0:0:
64,192,125143,1,0,0:0:0:0:
320,192,125143,1,0,0:0:0:0:
192,192,125634,1,0,0:0:0:0:
448,192,125634,1,0,0:0:0:0:
192,192,125798,1,0,0:0:0:0:
448,192,125798,1,0,0:0:0:0:
448,192,126290,128,0,127602:0:0:0:0:
64,192,126290,128,0,126454:0:0:0:0:
192,192,126454,128,0,126618:0:0:0:0:
320,192,126618,128,0,126782:0:0:0:0:
64,192,126782,128,0,126946:0:0:0:0:
320,192,126946,128,0,127110:0:0:0:0:
192,192,127110,128,0,127274:0:0:0:0:
64,192,127274,128,0,127438:0:0:0:0:
192,192,127438,128,0,127602:0:0:0:0:
64,192,127602,128,0,128913:0:0:0:0:
320,192,127602,128,0,127766:0:0:0:0:
448,192,127766,128,0,127929:0:0:0:0:
192,192,127929,128,0,128093:0:0:0:0:
448,192,128093,128,0,128257:0:0:0:0:
320,192,128257,128,0,128421:0:0:0:0:
192,192,128421,128,0,128585:0:0:0:0:
320,192,128585,128,0,128749:0:0:0:0:
448,192,128749,128,0,128913:0:0:0:0:
320,192,128913,128,0,130225:0:0:0:0:
192,192,128913,128,0,129077:0:0:0:0:
64,192,129077,128,0,129241:0:0:0:0:
448,192,129241,128,0,129405:0:0:0:0:
192,192,129405,128,0,129569:0:0:0:0:
64,192,129569,128,0,129733:0:0:0:0:
448,192,129733,128,0,129897:0:0:0:0:
192,192,129897,128,0,130061:0:0:0:0:
64,192,130061,128,0,130225:0:0:0:0:
192,192,130225,128,0,131536:0:0:0:0:
448,192,130225,128,0,130388:0:0:0:0:
320,192,130388,128,0,130552:0:0:0:0:
64,192,130552,128,0,130716:0:0:0:0:
320,192,130716,128,0,130880:0:0:0:0:
64,192,130880,128,0,131044:0:0:0:0:
448,192,131044,128,0,131208:0:0:0:0:
320,192,131208,128,0,131372:0:0:0:0:
448,192,131372,128,0,131536:0:0:0:0:
64,192,131536,128,0,132848:0:0:0:0:
320,192,131536,1,0,0:0:0:0:
448,192,131864,1,0,0:0:0:0:
320,192,132192,1,0,0:0:0:0:
192,192,132356,1,0,0:0:0:0:
448,192,132520,1,0,0:0:0:0:
448,192,132848,128,0,134159:0:0:0:0:
192,192,132848,1,0,0:0:0:0:
320,192,133175,1,0,0:0:0:0:
64,192,133503,1,0,0:0:0:0:
64,192,133667,1,0,0:0:0:0:
320,192,133831,1,0,0:0:0:0:
64,192,134159,1,0,0:0:0:0:
192,192,134159,1,0,0:0:0:0:
320,192,134323,1,0,0:0:0:0:
192,192,134487,1,0,0:0:0:0:
64,192,134487,1,0,0:0:0:0:
448,192,134651,1,0,0:0:0:0:
64,192,134815,1,0,0:0:0:0:
192,192,134815,1,0,0:0:0:0:
320,192,134979,1,0,0:0:0:0:
64,192,135143,1,0,0:0:0:0:
192,192,135143,1,0,0:0:0:0:
448,192,135307,1,0,0:0:0:0:
192,192,135470,128,0,135634:0:0:0:0:
448,192,135470,128,0,135634:0:0:0:0:
320,192,135634,128,0,135798:0:0:0:0:
64,192,135798,128,0,135962:0:0:0:0:
448,192,135962,128,0,136126:0:0:0:0:
320,192,136126,128,0,136290:0:0:0:0:
64,192,136126,128,0,136290:0:0:0:0:
192,192,136290,128,0,136454:0:0:0:0:
448,192,136454,128,0,136618:0:0:0:0:
64,192,136454,128,0,136618:0:0:0:0:
320,192,136618,128,0,136782:0:0:0:0:
64,192,136782,1,0,0:0:0:0:
192,192,136946,1,0,0:0:0:0:
448,192,137110,1,0,0:0:0:0:
320,192,137110,1,0,0:0:0:0:
192,192,137274,1,0,0:0:0:0:
320,192,137438,1,0,0:0:0:0:
64,192,137438,1,0,0:0:0:0:
448,192,137602,1,0,0:0:0:0:
64,192,137766,1,0,0:0:0:0:
192,192,137766,1,0,0:0:0:0:
320,192,137929,1,0,0:0:0:0:
448,192,138093,1,0,0:0:0:0:
192,192,138093,1,0,0:0:0:0:
320,192,138257,1,0,0:0:0:0:
64,192,138421,1,0,0:0:0:0:
192,192,138421,1,0,0:0:0:0:
448,192,138585,1,0,0:0:0:0:
64,192,138749,1,0,0:0:0:0:
320,192,138749,1,0,0:0:0:0:
192,192,138913,1,0,0:0:0:0:
64,192,139077,1,0,0:0:0:0:
448,192,139077,1,0,0:0:0:0:
320,192,139241,1,0,0:0:0:0:
64,192,139405,128,0,140061:0:0:0:0:
192,192,139405,1,0,0:0:0:0:
320,192,139569,1,0,0:0:0:0:
448,192,139733,1,0,0:0:0:0:
320,192,139897,1,0,0:0:0:0:
192,192,140061,128,0,140716:0:0:0:0:
448,192,140061,1,0,0:0:0:0:
64,192,140225,1,0,0:0:0:0:
320,192,140388,1,0,0:0:0:0:
64,192,140552,1,0,0:0:0:0:
320,192,140716,128,0,141372:0:0:0:0:
448,192,140716,1,0,0:0:0:0:
192,192,140880,1,0,0:0:0:0:
64,192,141044,1,0,0:0:0:0:
192,192,141208,1,0,0:0:0:0:
448,192,141372,128,0,142028:0:0:0:0:
64,192,141372,1,0,0:0:0:0:
192,192,141536,1,0,0:0:0:0:
320,192,141700,1,0,0:0:0:0:
192,192,141864,1,0,0:0:0:0:
64,192,142028,1,0,0:0:0:0:
192,192,142192,1,0,0:0:0:0:
448,192,142356,1,0,0:0:0:0:
320,192,142356,1,0,0:0:0:0:
192,192,142520,1,0,0:0:0:0:
64,192,142684,1,0,0:0:0:0:
320,192,142684,1,0,0:0:0:0:
448,192,142848,1,0,0:0:0:0:
64,192,143011,1,0,0:0:0:0:
192,192,143011,1,0,0:0:0:0:
320,192,143175,1,0,0:0:0:0:
320,192,143339,1,0,0:0:0:0:
64,192,143339,1,0,0:0:0:0:
448,192,143503,1,0,0:0:0:0:
192,192,143667,1,0,0:0:0:0:
320,192,143831,1,0,0:0:0:0:
64,192,143995,1,0,0:0:0:0:
192,192,144159,1,0,0:0:0:0:
448,192,144323,1,0,0:0:0:0:
192,192,144323,1,0,0:0:0:0:
64,192,144487,1,0,0:0:0:0:
448,192,144651,1,0,0:0:0:0:
320,192,144651,1,0,0:0:0:0:
64,192,144815,1,0,0:0:0:0:
448,192,144979,1,0,0:0:0:0:
320,192,144979,1,0,0:0:0:0:
192,192,145143,1,0,0:0:0:0:
64,192,145143,1,0,0:0:0:0:
448,192,145307,1,0,0:0:0:0:
320,192,145307,1,0,0:0:0:0:
192,192,145470,1,0,0:0:0:0:
64,192,145470,1,0,0:0:0:0:
448,192,145634,1,0,0:0:0:0:
320,192,145634,1,0,0:0:0:0:
192,192,145798,1,0,0:0:0:0:
64,192,145798,1,0,0:0:0:0:
448,192,145962,1,0,0:0:0:0:
320,192,145962,1,0,0:0:0:0:
192,192,146290,1,0,0:0:0:0:
320,192,146454,1,0,0:0:0:0:
448,192,146782,1,0,0:0:0:0:
320,192,146946,1,0,0:0:0:0:
192,192,147110,1,0,0:0:0:0:
64,192,147274,1,0,0:0:0:0:
448,192,147274,1,0,0:0:0:0:
320,192,149241,1,0,0:0:0:0:
64,192,149897,1,0,0:0:0:0:
448,192,150552,1,0,0:0:0:0:
320,192,150771,1,0,0:0:0:0:
192,192,150990,1,0,0:0:0:0:
64,192,151208,1,0,0:0:0:0:
64,192,152520,1,0,0:0:0:0:
448,192,152520,1,0,0:0:0:0:
320,192,152684,1,0,0:0:0:0:
64,192,152684,128,0,155143:0:0:0:0:
192,192,152848,1,0,0:0:0:0:
448,192,153011,1,0,0:0:0:0:
320,192,153175,1,0,0:0:0:0:
192,192,153339,1,0,0:0:0:0:
448,192,153503,1,0,0:0:0:0:
320,192,153667,1,0,0:0:0:0:
192,192,153831,1,0,0:0:0:0:
448,192,153995,1,0,0:0:0:0:
320,192,154159,1,0,0:0:0:0:
192,192,154323,1,0,0:0:0:0:
448,192,154487,1,0,0:0:0:0:
320,192,154651,1,0,0:0:0:0:
192,192,154815,1,0,0:0:0:0:
448,192,154979,1,0,0:0:0:0:
320,192,155143,128,0,155307:0:0:0:0:
192,192,155307,128,0,155470:0:0:0:0:
448,192,155470,128,0,155634:0:0:0:0:
320,192,155634,128,0,155798:0:0:0:0:
64,192,155798,128,0,155962:0:0:0:0:
192,192,155962,128,0,156126:0:0:0:0:
448,192,156126,128,0,156290:0:0:0:0:
64,192,156290,128,0,156454:0:0:0:0:
192,192,156454,128,0,156618:0:0:0:0:
320,192,156618,128,0,156782:0:0:0:0:
64,192,156782,128,0,156946:0:0:0:0:
192,192,156946,128,0,157110:0:0:0:0:
448,192,157110,128,0,157274:0:0:0:0:
64,192,157274,128,0,157438:0:0:0:0:
192,192,157438,128,0,157602:0:0:0:0:
320,192,157602,128,0,157766:0:0:0:0:
64,192,157766,1,0,0:0:0:0:
448,192,157766,1,0,0:0:0:0:
192,192,157929,1,0,0:0:0:0:
448,192,158093,1,0,0:0:0:0:
320,192,158093,1,0,0:0:0:0:
192,192,158257,1,0,0:0:0:0:
64,192,158421,1,0,0:0:0:0:
320,192,158421,1,0,0:0:0:0:
448,192,158585,1,0,0:0:0:0:
64,192,158749,1,0,0:0:0:0:
192,192,158749,1,0,0:0:0:0:
320,192,158913,1,0,0:0:0:0:
448,192,159077,1,0,0:0:0:0:
64,192,159077,1,0,0:0:0:0:
192,192,159241,1,0,0:0:0:0:
448,192,159405,1,0,0:0:0:0:
320,192,159405,1,0,0:0:0:0:
192,192,159569,1,0,0:0:0:0:
64,192,159733,1,0,0:0:0:0:
320,192,159733,1,0,0:0:0:0:
64,192,160061,1,0,0:0:0:0:
320,192,160061,1,0,0:0:0:0:
448,192,160388,1,0,0:0:0:0:
192,192,160388,1,0,0:0:0:0:
64,192,160716,1,0,0:0:0:0:
448,192,160716,1,0,0:0:0:0:
448,192,160880,1,0,0:0:0:0:
192,192,160880,1,0,0:0:0:0:
448,192,161044,1,0,0:0:0:0:
320,192,161044,1,0,0:0:0:0:
192,192,161208,1,0,0:0:0:0:
64,192,161372,1,0,0:0:0:0:
448,192,161372,1,0,0:0:0:0:
320,192,161536,1,0,0:0:0:0:
64,192,161700,1,0,0:0:0:0:
192,192,161700,1,0,0:0:0:0:
320,192,161864,1,0,0:0:0:0:
448,192,162028,1,0,0:0:0:0:
192,192,162028,1,0,0:0:0:0:
320,192,162356,1,0,0:0:0:0:
64,192,162356,1,0,0:0:0:0:
192,192,162684,1,0,0:0:0:0:
448,192,162684,1,0,0:0:0:0:
64,192,163011,1,0,0:0:0:0:
320,192,163011,1,0,0:0:0:0:
64,192,163175,1,0,0:0:0:0:
320,192,163175,1,0,0:0:0:0:
448,192,163339,1,0,0:0:0:0:
64,192,163339,1,0,0:0:0:0:
320,192,163503,1,0,0:0:0:0:
192,192,163667,1,0,0:0:0:0:
448,192,163667,1,0,0:0:0:0:
64,192,163831,1,0,0:0:0:0:
448,192,163995,1,0,0:0:0:0:
320,192,163995,1,0,0:0:0:0:
192,192,164159,1,0,0:0:0:0:
64,192,164323,1,0,0:0:0:0:
320,192,164323,1,0,0:0:0:0:
448,192,164487,1,0,0:0:0:0:
64,192,164651,1,0,0:0:0:0:
192,192,164651,1,0,0:0:0:0:
320,192,164815,1,0,0:0:0:0:
64,192,164979,1,0,0:0:0:0:
448,192,164979,1,0,0:0:0:0:
64,192,165307,1,0,0:0:0:0:
320,192,165307,1,0,0:0:0:0:
192,192,165634,1,0,0:0:0:0:
448,192,165634,1,0,0:0:0:0:
64,192,165962,1,0,0:0:0:0:
448,192,165962,1,0,0:0:0:0:
448,192,166126,1,0,0:0:0:0:
64,192,166126,1,0,0:0:0:0:
64,192,166290,1,0,0:0:0:0:
448,192,166290,1,0,0:0:0:0:
320,192,166454,1,0,0:0:0:0:
192,192,166618,1,0,0:0:0:0:
448,192,166618,1,0,0:0:0:0:
320,192,166782,1,0,0:0:0:0:
64,192,166946,1,0,0:0:0:0:
192,192,166946,1,0,0:0:0:0:
320,192,167110,1,0,0:0:0:0:
192,192,167274,1,0,0:0:0:0:
448,192,167274,1,0,0:0:0:0:
64,192,167602,1,0,0:0:0:0:
320,192,167602,1,0,0:0:0:0:
192,192,167929,1,0,0:0:0:0:
448,192,167929,1,0,0:0:0:0:
448,192,168257,128,0,168421:0:0:0:0:
64,192,168257,128,0,168749:0:0:0:0:
320,192,168421,128,0,168585:0:0:0:0:
192,192,168585,128,0,168749:0:0:0:0:
320,192,168749,128,0,169241:0:0:0:0:
448,192,168749,128,0,168913:0:0:0:0:
192,192,168913,128,0,169077:0:0:0:0:
64,192,169077,128,0,169241:0:0:0:0:
192,192,169241,128,0,169733:0:0:0:0:
448,192,169241,128,0,169405:0:0:0:0:
320,192,169405,128,0,169569:0:0:0:0:
64,192,169569,128,0,169733:0:0:0:0:
448,192,169733,128,0,170225:0:0:0:0:
320,192,169733,128,0,169897:0:0:0:0:
192,192,169897,128,0,170061:0:0:0:0:
64,192,170061,128,0,170225:0:0:0:0:
320,192,170225,1,0,0:0:0:0:
192,192,170225,1,0,0:0:0:0:
448,192,170552,1,0,0:0:0:0:
64,192,170552,1,0,0:0:0:0:
64,192,170880,128,0,172192:0:0:0:0:
448,192,170880,1,0,0:0:0:0:
192,192,171044,1,0,0:0:0:0:
320,192,171208,1,0,0:0:0:0:
192,192,171372,1,0,0:0:0:0:
448,192,171536,1,0,0:0:0:0:
320,192,171536,1,0,0:0:0:0:
192,192,171700,1,0,0:0:0:0:
192,192,171864,1,0,0:0:0:0:
448,192,172028,1,0,0:0:0:0:
320,192,172028,1,0,0:0:0:0:
192,192,172192,1,0,0:0:0:0:
64,192,172356,1,0,0:0:0:0:
448,192,172520,1,0,0:0:0:0:
192,192,172684,1,0,0:0:0:0:
64,192,172848,1,0,0:0:0:0:
320,192,172848,1,0,0:0:0:0:
192,192,173011,1,0,0:0:0:0:
64,192,173175,1,0,0:0:0:0:
448,192,173175,1,0,0:0:0:0:
320,192,173339,1,0,0:0:0:0:
448,192,173503,128,0,174815:0:0:0:0:
64,192,173503,1,0,0:0:0:0:
320,192,173667,1,0,0:0:0:0:
192,192,173831,1,0,0:0:0:0:
64,192,173995,1,0,0:0:0:0:
320,192,174159,1,0,0:0:0:0:
192,192,174159,1,0,0:0:0:0:
64,192,174323,1,0,0:0:0:0:
192,192,174487,1,0,0:0:0:0:
320,192,174651,1,0,0:0:0:0:
64,192,174651,1,0,0:0:0:0:
192,192,174815,1,0,0:0:0:0:
320,192,174979,1,0,0:0:0:0:
64,192,175143,1,0,0:0:0:0:
192,192,175143,1,0,0:0:0:0:
320,192,175307,1,0,0:0:0:0:
448,192,175470,1,0,0:0:0:0:
192,192,175470,1,0,0:0:0:0:
320,192,175634,1,0,0:0:0:0:
64,192,175798,1,0,0:0:0:0:
448,192,175798,1,0,0:0:0:0:
320,192,175962,1,0,0:0:0:0:
64,192,176126,1,0,0:0:0:0:
192,192,176126,1,0,0:0:0:0:
320,192,176290,1,0,0:0:0:0:
448,192,176454,1,0,0:0:0:0:
320,192,176618,1,0,0:0:0:0:
64,192,176782,1,0,0:0:0:0:
192,192,176782,1,0,0:0:0:0:
448,192,176946,1,0,0:0:0:0:
64,192,177110,1,0,0:0:0:0:
320,192,177274,1,0,0:0:0:0:
192,192,177274,1,0,0:0:0:0:
448,192,177438,1,0,0:0:0:0:
64,192,177602,1,0,0:0:0:0:
448,192,177766,1,0,0:0:0:0:
320,192,177929,1,0,0:0:0:0:
64,192,177929,1,0,0:0:0:0:
192,192,178093,1,0,0:0:0:0:
64,192,178257,1,0,0:0:0:0:
320,192,178257,1,0,0:0:0:0:
448,192,178421,1,0,0:0:0:0:
192,192,178585,1,0,0:0:0:0:
448,192,178749,5,0,0:0:0:0:
64,192,178749,1,0,0:0:0:0:
320,192,178913,1,0,0:0:0:0:
192,192,179077,1,0,0:0:0:0:
64,192,179241,1,0,0:0:0:0:
448,192,179241,1,0,0:0:0:0:
320,192,179405,1,0,0:0:0:0:
192,192,179569,1,0,0:0:0:0:
448,192,179733,1,0,0:0:0:0:
320,192,179733,1,0,0:0:0:0:
64,192,179733,1,0,0:0:0:0:
192,192,179897,1,0,0:0:0:0:
64,192,180061,1,0,0:0:0:0:
320,192,180225,1,0,0:0:0:0:
448,192,180225,1,0,0:0:0:0:
192,192,180388,1,0,0:0:0:0:
64,192,180552,1,0,0:0:0:0:
192,192,180716,1,0,0:0:0:0:
448,192,180716,1,0,0:0:0:0:
64,192,181044,1,0,0:0:0:0:
320,192,181044,1,0,0:0:0:0:
64,192,181372,128,0,181864:0:0:0:0:
448,192,181372,1,0,0:0:0:0:
320,192,181536,1,0,0:0:0:0:
320,192,181700,1,0,0:0:0:0:
192,192,181864,128,0,182356:0:0:0:0:
448,192,181864,1,0,0:0:0:0:
320,192,182028,1,0,0:0:0:0:
320,192,182192,1,0,0:0:0:0:
320,192,182356,128,0,182848:0:0:0:0:
64,192,182356,1,0,0:0:0:0:
192,192,182520,1,0,0:0:0:0:
192,192,182684,1,0,0:0:0:0:
448,192,182848,128,0,183339:0:0:0:0:
64,192,182848,1,0,0:0:0:0:
192,192,183011,1,0,0:0:0:0:
192,192,183175,1,0,0:0:0:0:
64,192,183339,1,0,0:0:0:0:
320,192,183339,1,0,0:0:0:0:
192,192,183503,1,0,0:0:0:0:
448,192,183667,1,0,0:0:0:0:
320,192,183667,1,0,0:0:0:0:
192,192,183831,1,0,0:0:0:0:
64,192,183995,1,0,0:0:0:0:
192,192,184159,1,0,0:0:0:0:
448,192,184323,1,0,0:0:0:0:
320,192,184323,1,0,0:0:0:0:
64,192,184487,1,0,0:0:0:0:
448,192,184651,1,0,0:0:0:0:
320,192,184651,1,0,0:0:0:0:
64,192,184815,1,0,0:0:0:0:
448,192,184979,1,0,0:0:0:0:
320,192,184979,1,0,0:0:0:0:
64,192,185143,1,0,0:0:0:0:
448,192,185307,1,0,0:0:0:0:
192,192,185307,1,0,0:0:0:0:
448,192,185470,1,0,0:0:0:0:
192,192,185470,1,0,0:0:0:0:
448,192,185634,1,0,0:0:0:0:
192,192,185634,1,0,0:0:0:0:
320,192,185798,1,0,0:0:0:0:
64,192,185798,1,0,0:0:0:0:
64,192,186618,128,0,189241:0:0:0:0:
448,192,186618,1,0,0:0:0:0:
192,192,186782,1,0,0:0:0:0:
320,192,186946,1,0,0:0:0:0:
192,192,187110,1,0,0:0:0:0:
320,192,187274,1,0,0:0:0:0:
192,192,187602,1,0,0:0:0:0:
320,192,187766,1,0,0:0:0:0:
320,192,188093,1,0,0:0:0:0:
320,192,188257,1,0,0:0:0:0:
320,192,188421,1,0,0:0:0:0:
192,192,188585,1,0,0:0:0:0:
448,192,188913,1,0,0:0:0:0:
448,192,189241,128,0,191864:0:0:0:0:
64,192,189405,1,0,0:0:0:0:
320,192,189569,1,0,0:0:0:0:
192,192,189733,1,0,0:0:0:0:
320,192,189897,1,0,0:0:0:0:
64,192,190225,1,0,0:0:0:0:
192,192,190388,1,0,0:0:0:0:
192,192,190716,1,0,0:0:0:0:
192,192,190880,1,0,0:0:0:0:
192,192,191044,1,0,0:0:0:0:
64,192,191208,1,0,0:0:0:0:
320,192,191536,1,0,0:0:0:0:
64,192,191864,1,0,0:0:0:0:
64,192,192192,1,0,0:0:0:0:
64,192,192520,1,0,0:0:0:0:
64,192,192848,1,0,0:0:0:0:
64,192,193175,1,0,0:0:0:0:
64,192,193503,1,0,0:0:0:0:
64,192,193831,1,0,0:0:0:0:
192,192,193995,1,0,0:0:0:0:
448,192,194159,1,0,0:0:0:0:
320,192,194159,1,0,0:0:0:0:
448,192,194487,128,0,195470:0:0:0:0:
64,192,194487,1,0,0:0:0:0:
192,192,194651,1,0,0:0:0:0:
320,192,194815,1,0,0:0:0:0:
64,192,194815,1,0,0:0:0:0:
192,192,194979,1,0,0:0:0:0:
64,192,195143,1,0,0:0:0:0:
192,192,195307,1,0,0:0:0:0:
320,192,195470,1,0,0:0:0:0:
64,192,195470,1,0,0:0:0:0:
192,192,195634,1,0,0:0:0:0:
448,192,195798,1,0,0:0:0:0:
64,192,195798,1,0,0:0:0:0:
192,192,195962,1,0,0:0:0:0:
448,192,196126,1,0,0:0:0:0:
320,192,196126,1,0,0:0:0:0:
192,192,196290,1,0,0:0:0:0:
64,192,196454,1,0,0:0:0:0:
320,192,196454,1,0,0:0:0:0:
448,192,196618,1,0,0:0:0:0:
64,192,196782,1,0,0:0:0:0:
192,192,196782,1,0,0:0:0:0:
320,192,196946,1,0,0:0:0:0:
64,192,197110,128,0,198421:0:0:0:0:
448,192,197110,128,0,198421:0:0:0:0:
320,192,198421,1,0,0:0:0:0:
192,192,198421,1,0,0:0:0:0:
192,192,198585,5,0,0:0:0:0:
320,192,198585,1,0,0:0:0:0:
64,192,199077,1,0,0:0:0:0:
448,192,199077,1,0,0:0:0:0:
448,192,199241,1,0,0:0:0:0:
64,192,199241,1,0,0:0:0:0:
448,192,199733,128,0,200880:0:0:0:0:
192,192,199733,128,0,200880:0:0:0:0:
320,192,200880,1,0,0:0:0:0:
64,192,200880,1,0,0:0:0:0:
64,192,202356,128,0,203667:0:0:0:0:
320,192,202356,1,0,0:0:0:0:
448,192,202848,1,0,0:0:0:0:
320,192,203175,1,0,0:0:0:0:
192,192,203339,1,0,0:0:0:0:
448,192,203667,1,0,0:0:0:0:
192,192,203667,1,0,0:0:0:0:
320,192,203831,1,0,0:0:0:0:
64,192,203995,1,0,0:0:0:0:
192,192,203995,1,0,0:0:0:0:
320,192,204159,1,0,0:0:0:0:
448,192,204487,1,0,0:0:0:0:
320,192,204569,1,0,0:0:0:0:
64,192,204651,1,0,0:0:0:0:
192,192,204651,1,0,0:0:0:0:
64,192,204979,1,0,0:0:0:0:
448,192,204979,128,0,205143:0:0:0:0:
320,192,205143,1,0,0:0:0:0:
64,192,205307,1,0,0:0:0:0:
192,192,205307,1,0,0:0:0:0:
320,192,205470,128,0,205634:0:0:0:0:
448,192,205634,1,0,0:0:0:0:
64,192,205634,1,0,0:0:0:0:
192,192,205798,1,0,0:0:0:0:
448,192,205962,128,0,206126:0:0:0:0:
320,192,205962,1,0,0:0:0:0:
192,192,206126,1,0,0:0:0:0:
448,192,206290,1,0,0:0:0:0:
64,192,206290,128,0,206454:0:0:0:0:
192,192,206454,1,0,0:0:0:0:
448,192,206618,1,0,0:0:0:0:
320,192,206618,1,0,0:0:0:0:
192,192,206782,128,0,206946:0:0:0:0:
64,192,206946,1,0,0:0:0:0:
320,192,206946,1,0,0:0:0:0:
448,192,207110,1,0,0:0:0:0:
64,192,207274,128,0,207438:0:0:0:0:
192,192,207274,1,0,0:0:0:0:
320,192,207438,1,0,0:0:0:0:
448,192,207602,1,0,0:0:0:0:
64,192,207602,1,0,0:0:0:0:
320,192,207766,1,0,0:0:0:0:
64,192,207929,1,0,0:0:0:0:
192,192,207929,1,0,0:0:0:0:
448,192,208093,1,0,0:0:0:0:
64,192,208257,1,0,0:0:0:0:
320,192,208257,1,0,0:0:0:0:
192,192,208421,1,0,0:0:0:0:
320,192,208585,1,0,0:0:0:0:
64,192,208585,1,0,0:0:0:0:
448,192,208749,128,0,210225:0:0:0:0:
64,192,208913,128,0,209077:0:0:0:0:
192,192,209077,128,0,209241:0:0:0:0:
64,192,209241,128,0,209405:0:0:0:0:
320,192,209405,128,0,209569:0:0:0:0:
192,192,209569,128,0,209733:0:0:0:0:
64,192,209733,128,0,209897:0:0:0:0:
320,192,209897,128,0,210061:0:0:0:0:
192,192,210061,128,0,210225:0:0:0:0:
320,192,210225,1,0,0:0:0:0:
64,192,210225,1,0,0:0:0:0:
448,192,210388,1,0,0:0:0:0:
64,192,210552,1,0,0:0:0:0:
320,192,210552,1,0,0:0:0:0:
320,192,210716,1,0,0:0:0:0:
64,192,210880,1,0,0:0:0:0:
192,192,210880,1,0,0:0:0:0:
448,192,211044,1,0,0:0:0:0:
64,192,211208,1,0,0:0:0:0:
192,192,211208,1,0,0:0:0:0:
320,192,211372,1,0,0:0:0:0:
448,192,211536,1,0,0:0:0:0:
64,192,211536,1,0,0:0:0:0:
192,192,211700,1,0,0:0:0:0:
448,192,211864,1,0,0:0:0:0:
320,192,211864,1,0,0:0:0:0:
64,192,212028,1,0,0:0:0:0:
448,192,212192,1,0,0:0:0:0:
192,192,212192,1,0,0:0:0:0:
64,192,212356,1,0,0:0:0:0:
192,192,212520,1,0,0:0:0:0:
448,192,212520,1,0,0:0:0:0:
320,192,212684,1,0,0:0:0:0:
64,192,212848,1,0,0:0:0:0:
448,192,212848,1,0,0:0:0:0:
192,192,213011,1,0,0:0:0:0:
448,192,213175,1,0,0:0:0:0:
320,192,213175,1,0,0:0:0:0:
192,192,213339,1,0,0:0:0:0:
64,192,213503,1,0,0:0:0:0:
448,192,213503,1,0,0:0:0:0:
320,192,213667,1,0,0:0:0:0:
192,192,213831,1,0,0:0:0:0:
64,192,213831,1,0,0:0:0:0:
320,192,213995,1,0,0:0:0:0:
64,192,214159,1,0,0:0:0:0:
448,192,214159,1,0,0:0:0:0:
320,192,214323,1,0,0:0:0:0:
448,192,214487,1,0,0:0:0:0:
192,192,214487,1,0,0:0:0:0:
320,192,214651,1,0,0:0:0:0:
64,192,214815,1,0,0:0:0:0:
448,192,214815,1,0,0:0:0:0:
320,192,214979,1,0,0:0:0:0:
64,192,215143,1,0,0:0:0:0:
192,192,215143,1,0,0:0:0:0:
320,192,215307,1,0,0:0:0:0:
64,192,215470,128,0,216782:0:0:0:0:
192,192,215470,1,0,0:0:0:0:
320,192,215634,1,0,0:0:0:0:
448,192,215798,1,0,0:0:0:0:
192,192,215962,1,0,0:0:0:0:
320,192,216126,128,0,216290:0:0:0:0:
448,192,216290,1,0,0:0:0:0:
192,192,216454,1,0,0:0:0:0:
320,192,216618,128,0,216782:0:0:0:0:
448,192,216782,128,0,218093:0:0:0:0:
192,192,216782,1,0,0:0:0:0:
320,192,216946,128,0,217110:0:0:0:0:
64,192,217110,1,0,0:0:0:0:
192,192,217274,128,0,217438:0:0:0:0:
320,192,217438,1,0,0:0:0:0:
64,192,217602,128,0,217766:0:0:0:0:
320,192,217766,1,0,0:0:0:0:
192,192,217929,1,0,0:0:0:0:
64,192,218093,1,0,0:0:0:0:
320,192,218257,1,0,0:0:0:0:
192,192,218257,1,0,0:0:0:0:
448,192,218421,1,0,0:0:0:0:
64,192,218421,1,0,0:0:0:0:
320,192,218585,1,0,0:0:0:0:
192,192,218585,1,0,0:0:0:0:
448,192,218749,1,0,0:0:0:0:
64,192,218749,1,0,0:0:0:0:
320,192,218913,1,0,0:0:0:0:
192,192,218913,1,0,0:0:0:0:
64,192,219077,1,0,0:0:0:0:
448,192,219077,1,0,0:0:0:0:
320,192,219241,1,0,0:0:0:0:
192,192,219241,1,0,0:0:0:0:
448,192,219405,1,0,0:0:0:0:
64,192,219405,1,0,0:0:0:0:
320,192,219569,1,0,0:0:0:0:
64,192,219733,1,0,0:0:0:0:
192,192,219733,1,0,0:0:0:0:
320,192,219897,1,0,0:0:0:0:
448,192,220061,1,0,0:0:0:0:
64,192,220061,1,0,0:0:0:0:
320,192,220225,1,0,0:0:0:0:
64,192,220388,1,0,0:0:0:0:
192,192,220470,1,0,0:0:0:0:
320,192,220552,1,0,0:0:0:0:
448,192,220634,1,0,0:0:0:0:
192,192,220716,1,0,0:0:0:0:
64,192,220716,128,0,220880:0:0:0:0:
320,192,220880,1,0,0:0:0:0:
448,192,221044,1,0,0:0:0:0:
192,192,221044,1,0,0:0:0:0:
192,192,221208,128,0,221372:0:0:0:0:
64,192,221372,1,0,0:0:0:0:
320,192,221372,1,0,0:0:0:0:
448,192,221536,128,0,221700:0:0:0:0:
64,192,221700,1,0,0:0:0:0:
192,192,221700,1,0,0:0:0:0:
320,192,221864,128,0,222028:0:0:0:0:
448,192,222028,1,0,0:0:0:0:
192,192,222028,1,0,0:0:0:0:
320,192,222192,128,0,222356:0:0:0:0:
448,192,222356,1,0,0:0:0:0:
64,192,222356,1,0,0:0:0:0:
192,192,222520,128,0,222684:0:0:0:0:
448,192,222684,1,0,0:0:0:0:
320,192,222684,1,0,0:0:0:0:
192,192,222848,1,0,0:0:0:0:
64,192,223011,1,0,0:0:0:0:
320,192,223011,128,0,223175:0:0:0:0:
448,192,223175,1,0,0:0:0:0:
192,192,223339,1,0,0:0:0:0:
64,192,223339,128,0,223503:0:0:0:0:
448,192,223503,1,0,0:0:0:0:
64,192,223667,1,0,0:0:0:0:
320,192,223667,1,0,0:0:0:0:
448,192,223831,128,0,223995:0:0:0:0:
64,192,223995,1,0,0:0:0:0:
320,192,223995,1,0,0:0:0:0:
192,192,224159,128,0,224323:0:0:0:0:
448,192,224323,1,0,0:0:0:0:
64,192,224323,1,0,0:0:0:0:
320,192,224487,128,0,224651:0:0:0:0:
64,192,224651,1,0,0:0:0:0:
448,192,224651,1,0,0:0:0:0:
320,192,224815,128,0,224979:0:0:0:0:
448,192,224979,1,0,0:0:0:0:
192,192,224979,128,0,225143:0:0:0:0:
320,192,225143,128,0,225307:0:0:0:0:
64,192,225307,1,0,0:0:0:0:
192,192,225470,1,0,0:0:0:0:
448,192,225634,1,0,0:0:0:0:
320,192,225634,1,0,0:0:0:0:
192,192,225798,1,0,0:0:0:0:
448,192,225962,128,0,227274:0:0:0:0:
320,192,225962,128,0,226126:0:0:0:0:
64,192,225962,1,0,0:0:0:0:
192,192,226126,1,0,0:0:0:0:
64,192,226290,1,0,0:0:0:0:
192,192,226454,128,0,226618:0:0:0:0:
64,192,226618,1,0,0:0:0:0:
192,192,226782,1,0,0:0:0:0:
320,192,226946,128,0,227110:0:0:0:0:
192,192,227110,1,0,0:0:0:0:
64,192,227274,128,0,228585:0:0:0:0:
320,192,227274,128,0,227438:0:0:0:0:
192,192,227438,1,0,0:0:0:0:
448,192,227602,1,0,0:0:0:0:
192,192,227766,128,0,227929:0:0:0:0:
448,192,227929,1,0,0:0:0:0:
192,192,228093,1,0,0:0:0:0:
448,192,228257,128,0,228421:0:0:0:0:
320,192,228421,1,0,0:0:0:0:
192,192,228585,1,0,0:0:0:0:
448,192,228585,1,0,0:0:0:0:
320,192,228749,1,0,0:0:0:0:
64,192,228913,1,0,0:0:0:0:
192,192,228913,1,0,0:0:0:0:
448,192,229077,1,0,0:0:0:0:
64,192,229241,1,0,0:0:0:0:
192,192,229241,1,0,0:0:0:0:
448,192,229405,1,0,0:0:0:0:
64,192,229569,1,0,0:0:0:0:
192,192,229569,1,0,0:0:0:0:
448,192,229733,1,0,0:0:0:0:
64,192,229897,128,0,230061:0:0:0:0:
320,192,229897,128,0,230061:0:0:0:0:
192,192,230061,128,0,230225:0:0:0:0:
64,192,230225,128,0,230388:0:0:0:0:
448,192,230225,128,0,230388:0:0:0:0:
320,192,230388,128,0,230552:0:0:0:0:
64,192,230552,128,0,230716:0:0:0:0:
192,192,230552,128,0,230716:0:0:0:0:
448,192,230716,128,0,230880:0:0:0:0:
320,192,230880,128,0,231044:0:0:0:0:
64,192,230880,128,0,231044:0:0:0:0:
192,192,231044,128,0,231208:0:0:0:0:
448,192,231208,1,0,0:0:0:0:
64,192,231208,1,0,0:0:0:0:
192,192,231372,1,0,0:0:0:0:
320,192,231536,1,0,0:0:0:0:
64,192,231536,1,0,0:0:0:0:
320,192,231700,1,0,0:0:0:0:
64,192,231864,1,0,0:0:0:0:
192,192,231864,1,0,0:0:0:0:
448,192,232028,1,0,0:0:0:0:
64,192,232192,1,0,0:0:0:0:
192,192,232192,1,0,0:0:0:0:
320,192,232356,1,0,0:0:0:0:
64,192,232520,1,0,0:0:0:0:
448,192,232520,1,0,0:0:0:0:
192,192,232684,1,0,0:0:0:0:
320,192,232848,1,0,0:0:0:0:
448,192,232848,1,0,0:0:0:0:
64,192,233011,1,0,0:0:0:0:
192,192,233175,1,0,0:0:0:0:
448,192,233175,1,0,0:0:0:0:
64,192,233339,1,0,0:0:0:0:
448,192,233503,1,0,0:0:0:0:
192,192,233503,1,0,0:0:0:0:
320,192,233667,1,0,0:0:0:0:
448,192,233831,1,0,0:0:0:0:
64,192,233831,1,0,0:0:0:0:
192,192,233995,1,0,0:0:0:0:
320,192,234159,1,0,0:0:0:0:
448,192,234159,1,0,0:0:0:0:
192,192,234323,1,0,0:0:0:0:
64,192,234487,1,0,0:0:0:0:
320,192,234651,1,0,0:0:0:0:
192,192,234815,1,0,0:0:0:0:
448,192,234979,1,0,0:0:0:0:
192,192,235143,1,0,0:0:0:0:
64,192,235143,1,0,0:0:0:0:
320,192,235307,1,0,0:0:0:0:
192,192,235470,1,0,0:0:0:0:
448,192,235470,1,0,0:0:0:0:
320,192,235634,1,0,0:0:0:0:
448,192,235798,1,0,0:0:0:0:
64,192,235798,1,0,0:0:0:0:
320,192,235962,1,0,0:0:0:0:
192,192,236126,1,0,0:0:0:0:
64,192,236126,1,0,0:0:0:0:
320,192,236290,1,0,0:0:0:0:
192,192,236454,1,0,0:0:0:0:
64,192,236454,128,0,237766:0:0:0:0:
448,192,236618,1,0,0:0:0:0:
192,192,236782,1,0,0:0:0:0:
448,192,236946,1,0,0:0:0:0:
320,192,237110,128,0,237274:0:0:0:0:
448,192,237274,1,0,0:0:0:0:
192,192,237438,1,0,0:0:0:0:
320,192,237602,128,0,237766:0:0:0:0:
192,192,237766,1,0,0:0:0:0:
448,192,237766,128,0,239077:0:0:0:0:
320,192,237929,128,0,238093:0:0:0:0:
64,192,238093,1,0,0:0:0:0:
192,192,238257,128,0,238421:0:0:0:0:
320,192,238421,1,0,0:0:0:0:
64,192,238585,128,0,238749:0:0:0:0:
320,192,238749,1,0,0:0:0:0:
192,192,238913,1,0,0:0:0:0:
64,192,239077,1,0,0:0:0:0:
320,192,239241,1,0,0:0:0:0:
64,192,239405,1,0,0:0:0:0:
192,192,239405,1,0,0:0:0:0:
448,192,239569,1,0,0:0:0:0:
320,192,239569,1,0,0:0:0:0:
64,192,239733,1,0,0:0:0:0:
192,192,239733,1,0,0:0:0:0:
320,192,239897,1,0,0:0:0:0:
448,192,239897,1,0,0:0:0:0:
192,192,240061,1,0,0:0:0:0:
64,192,240061,1,0,0:0:0:0:
448,192,240225,1,0,0:0:0:0:
320,192,240225,1,0,0:0:0:0:
64,192,240388,1,0,0:0:0:0:
192,192,240388,1,0,0:0:0:0:
320,192,240552,1,0,0:0:0:0:
448,192,240634,1,0,0:0:0:0:
64,192,240716,1,0,0:0:0:0:
192,192,240798,1,0,0:0:0:0:
448,192,240880,1,0,0:0:0:0:
320,192,240962,1,0,0:0:0:0:
64,192,241044,1,0,0:0:0:0:
192,192,241126,1,0,0:0:0:0:
320,192,241208,1,0,0:0:0:0:
448,192,241290,1,0,0:0:0:0:
64,192,241372,1,0,0:0:0:0:
192,192,241454,1,0,0:0:0:0:
448,192,241536,1,0,0:0:0:0:
320,192,241618,1,0,0:0:0:0:
64,192,241700,128,0,243011:0:0:0:0:
192,192,241700,1,0,0:0:0:0:
448,192,241864,128,0,242028:0:0:0:0:
320,192,242028,128,0,242192:0:0:0:0:
448,192,242192,128,0,242356:0:0:0:0:
192,192,242356,128,0,242520:0:0:0:0:
320,192,242520,128,0,242684:0:0:0:0:
448,192,242684,128,0,242848:0:0:0:0:
192,192,242684,1,0,0:0:0:0:
192,192,242848,128,0,243011:0:0:0:0:
320,192,243011,128,0,243175:0:0:0:0:
448,192,243175,128,0,243339:0:0:0:0:
192,192,243339,128,0,243503:0:0:0:0:
64,192,243339,1,0,0:0:0:0:
320,192,243503,128,0,243667:0:0:0:0:
448,192,243667,128,0,243995:0:0:0:0:
64,192,243667,1,0,0:0:0:0:
320,192,243995,128,0,244323:0:0:0:0:
192,192,243995,1,0,0:0:0:0:
64,192,244323,1,0,0:0:0:0:
320,192,244487,1,0,0:0:0:0:
320,192,244651,1,0,0:0:0:0:
64,192,244651,1,0,0:0:0:0:
192,192,244815,1,0,0:0:0:0:
320,192,244979,1,0,0:0:0:0:
64,192,244979,1,0,0:0:0:0:
192,192,245143,1,0,0:0:0:0:
448,192,245307,1,0,0:0:0:0:
320,192,245307,1,0,0:0:0:0:
192,192,245470,1,0,0:0:0:0:
64,192,245634,1,0,0:0:0:0:
320,192,245634,1,0,0:0:0:0:
448,192,245798,1,0,0:0:0:0:
64,192,245962,1,0,0:0:0:0:
192,192,245962,1,0,0:0:0:0:
320,192,246126,1,0,0:0:0:0:
64,192,246290,1,0,0:0:0:0:
448,192,246290,1,0,0:0:0:0:
320,192,246454,1,0,0:0:0:0:
64,192,246618,1,0,0:0:0:0:
320,192,246618,1,0,0:0:0:0:
192,192,246782,1,0,0:0:0:0:
448,192,246946,1,0,0:0:0:0:
64,192,246946,1,0,0:0:0:0:
320,192,247110,1,0,0:0:0:0:
64,192,247274,1,0,0:0:0:0:
192,192,247274,1,0,0:0:0:0:
448,192,247438,1,0,0:0:0:0:
320,192,247438,1,0,0:0:0:0:
64,192,247602,1,0,0:0:0:0:
192,192,247602,1,0,0:0:0:0:
320,192,247766,1,0,0:0:0:0:
448,192,247766,1,0,0:0:0:0:
64,192,247929,1,0,0:0:0:0:
192,192,247929,1,0,0:0:0:0:
320,192,248093,1,0,0:0:0:0:
448,192,248093,1,0,0:0:0:0:
64,192,248257,1,0,0:0:0:0:
192,192,248257,1,0,0:0:0:0:
448,192,249241,1,0,0:0:0:0:
192,192,249241,1,0,0:0:0:0:
64,192,249569,128,0,250552:0:0:0:0:
448,192,249569,1,0,0:0:0:0:
320,192,249733,1,0,0:0:0:0:
192,192,249897,1,0,0:0:0:0:
320,192,250061,1,0,0:0:0:0:
448,192,250225,1,0,0:0:0:0:
192,192,250388,1,0,0:0:0:0:
448,192,250552,128,0,250880:0:0:0:0:
320,192,250552,1,0,0:0:0:0:
192,192,250716,1,0,0:0:0:0:
320,192,250880,128,0,251372:0:0:0:0:
64,192,250880,1,0,0:0:0:0:
192,192,251044,1,0,0:0:0:0:
448,192,251208,1,0,0:0:0:0:
192,192,251372,128,0,251864:0:0:0:0:
64,192,251372,1,0,0:0:0:0:
320,192,251536,1,0,0:0:0:0:
448,192,251700,1,0,0:0:0:0:
64,192,251864,128,0,252192:0:0:0:0:
320,192,251864,1,0,0:0:0:0:
192,192,252028,1,0,0:0:0:0:
320,192,252192,128,0,252848:0:0:0:0:
448,192,252192,1,0,0:0:0:0:
192,192,252356,1,0,0:0:0:0:
64,192,252520,1,0,0:0:0:0:
192,192,252684,1,0,0:0:0:0:
448,192,252848,128,0,253503:0:0:0:0:
64,192,252848,1,0,0:0:0:0:
192,192,253011,1,0,0:0:0:0:
320,192,253175,1,0,0:0:0:0:
192,192,253339,1,0,0:0:0:0:
64,192,253503,128,0,254815:0:0:0:0:
320,192,253503,1,0,0:0:0:0:
192,192,253667,1,0,0:0:0:0:
448,192,253831,1,0,0:0:0:0:
320,192,253995,1,0,0:0:0:0:
192,192,254159,1,0,0:0:0:0:
320,192,254323,1,0,0:0:0:0:
448,192,254487,1,0,0:0:0:0:
192,192,254651,1,0,0:0:0:0:
320,192,254815,1,0,0:0:0:0:
448,192,254815,1,0,0:0:0:0:
192,192,254979,1,0,0:0:0:0:
64,192,255143,1,0,0:0:0:0:
320,192,255143,1,0,0:0:0:0:
448,192,255307,1,0,0:0:0:0:
64,192,255470,1,0,0:0:0:0:
192,192,255470,1,0,0:0:0:0:
320,192,255634,1,0,0:0:0:0:
448,192,255798,1,0,0:0:0:0:
192,192,255798,1,0,0:0:0:0:
320,192,255962,1,0,0:0:0:0:
64,192,256126,1,0,0:0:0:0:
192,192,256126,1,0,0:0:0:0:
320,192,256290,1,0,0:0:0:0:
448,192,256454,1,0,0:0:0:0:
64,192,256454,1,0,0:0:0:0:
192,192,256618,1,0,0:0:0:0:
64,192,256782,1,0,0:0:0:0:
320,192,256782,1,0,0:0:0:0:
192,192,256946,1,0,0:0:0:0:
448,192,257110,1,0,0:0:0:0:
64,192,257110,1,0,0:0:0:0:
320,192,257274,1,0,0:0:0:0:
64,192,257438,128,0,259897:0:0:0:0:
448,192,257438,1,0,0:0:0:0:
192,192,257438,1,0,0:0:0:0:
320,192,257602,1,0,0:0:0:0:
192,192,257766,1,0,0:0:0:0:
448,192,257766,1,0,0:0:0:0:
320,192,257929,1,0,0:0:0:0:
448,192,258093,1,0,0:0:0:0:
192,192,258093,1,0,0:0:0:0:
320,192,258257,1,0,0:0:0:0:
448,192,258421,1,0,0:0:0:0:
192,192,258421,1,0,0:0:0:0:
320,192,258585,1,0,0:0:0:0:
448,192,258749,1,0,0:0:0:0:
192,192,258749,1,0,0:0:0:0:
320,192,258913,1,0,0:0:0:0:
448,192,259077,1,0,0:0:0:0:
192,192,259077,1,0,0:0:0:0:
320,192,259241,1,0,0:0:0:0:
448,192,259405,1,0,0:0:0:0:
192,192,259405,1,0,0:0:0:0:
320,192,259569,1,0,0:0:0:0:
192,192,259733,1,0,0:0:0:0:
320,192,259897,1,0,0:0:0:0:
448,192,260061,1,0,0:0:0:0:
64,192,260061,128,0,261044:0:0:0:0:
192,192,260225,1,0,0:0:0:0:
320,192,260388,1,0,0:0:0:0:
448,192,260388,1,0,0:0:0:0:
192,192,260552,1,0,0:0:0:0:
320,192,260716,1,0,0:0:0:0:
192,192,260880,1,0,0:0:0:0:
320,192,261044,128,0,261372:0:0:0:0:
448,192,261044,1,0,0:0:0:0:
64,192,261208,1,0,0:0:0:0:
192,192,261372,128,0,261864:0:0:0:0:
448,192,261372,1,0,0:0:0:0:
64,192,261536,1,0,0:0:0:0:
320,192,261700,1,0,0:0:0:0:
448,192,261864,128,0,262356:0:0:0:0:
64,192,261864,1,0,0:0:0:0:
320,192,262028,1,0,0:0:0:0:
192,192,262192,1,0,0:0:0:0:
320,192,262356,128,0,262684:0:0:0:0:
64,192,262356,1,0,0:0:0:0:
448,192,262520,1,0,0:0:0:0:
192,192,262684,128,0,263503:0:0:0:0:
64,192,262684,1,0,0:0:0:0:
320,192,262848,5,0,0:0:0:0:
448,192,263011,1,0,0:0:0:0:
64,192,263175,1,0,0:0:0:0:
448,192,263339,1,0,0:0:0:0:
64,192,263503,128,0,263667:0:0:0:0:
192,192,263667,128,0,263831:0:0:0:0:
448,192,263667,1,0,0:0:0:0:
320,192,263831,128,0,263995:0:0:0:0:
448,192,263995,128,0,265307:0:0:0:0:
64,192,263995,1,0,0:0:0:0:
192,192,264159,1,0,0:0:0:0:
320,192,264323,1,0,0:0:0:0:
64,192,264323,1,0,0:0:0:0:
192,192,264487,1,0,0:0:0:0:
64,192,264651,1,0,0:0:0:0:
320,192,264815,1,0,0:0:0:0:
64,192,264979,1,0,0:0:0:0:
192,192,264979,1,0,0:0:0:0:
320,192,265143,1,0,0:0:0:0:
64,192,265307,1,0,0:0:0:0:
192,192,265470,1,0,0:0:0:0:
448,192,265634,1,0,0:0:0:0:
320,192,265634,1,0,0:0:0:0:
64,192,265798,1,0,0:0:0:0:
192,192,265962,1,0,0:0:0:0:
448,192,266126,1,0,0:0:0:0:
320,192,266290,1,0,0:0:0:0:
192,192,266290,1,0,0:0:0:0:
64,192,266454,128,0,266782:0:0:0:0:
448,192,266454,128,0,266782:0:0:0:0:
320,192,266782,5,0,0:0:0:0:
192,192,266946,1,0,0:0:0:0:
64,192,267110,128,0,267438:0:0:0:0:
320,192,267110,128,0,267438:0:0:0:0:
192,192,267438,1,0,0:0:0:0:
320,192,267602,1,0,0:0:0:0:
64,192,267766,128,0,273175:0:0:0:0:
448,192,267766,128,0,273175:0:0:0:0:
