osu file format v14

[General]
AudioFilename: INNOCENCE.mp3
AudioLeadIn: 0
PreviewTime: 249569
Countdown: 0
SampleSet: Soft
StackLeniency: 0.7
Mode: 3
LetterboxInBreaks: 0
SpecialStyle: 0
WidescreenStoryboard: 0

[Editor]
DistanceSpacing: 1
BeatDivisor: 8
GridSize: 8
TimelineZoom: 2.599999

[Metadata]
Title:INNOCENCE
TitleUnicode:INNOCENCE
Artist:Eir Aoi
ArtistUnicode:藍井エイル
Creator:AWMRone
Version:Alipay's 5K Lambent Light
Source:ソードアート・オンライン
Tags:japanese anime sword art online sao alfheim online アルヴヘイム・オンライン alo op2 2nd second opening Fairy Dance Arc フェアリィ・ダンス kirito キリト asuna アスナ j-pop jpop japanese pop Ryosuke Shigenaga 重永亮介 Kayo Shimokawa 下川佳代 Blau BEST -E- SECL-1267 SECL-1216 SECL-2005 SME Records collaboration wilben_chan alipay sk_la wjh123 imperial wolf misterluka ruka [ Reversal ] la
BeatmapID:1858682
BeatmapSetID:875519

[Difficulty]
HPDrainRate:8
CircleSize:5
OverallDifficulty:7
ApproachRate:5
SliderMultiplier:1.4
SliderTickRate:1

[Events]
//Background and Video events
0,0,"BG.jpg",0,0
//Break Periods
//Storyboard Layer 0 (Background)
//Storyboard Layer 1 (Fail)
//Storyboard Layer 2 (Pass)
//Storyboard Layer 3 (Foreground)
//Storyboard Layer 4 (Overlay)
//Storyboard Sound Samples
Sample,2131,0,"normal-hitnormal3.ogg",100

[TimingPoints]
389,327.868852459016,4,2,1,5,1,0

[HitObjects]
51,192,334,5,0,0:0:0:0:
256,192,361,1,0,0:0:0:0:
460,192,389,1,0,0:0:0:0:
358,192,552,1,0,0:0:0:0:
256,192,716,1,0,0:0:0:0:
153,192,880,1,0,0:0:0:0:
51,192,1208,1,0,0:0:0:0:
460,192,1208,128,0,1372:0:0:0:0:
153,192,1372,1,0,0:0:0:0:
256,192,1481,1,0,0:0:0:0:
358,192,1591,1,0,0:0:0:0:
460,192,1700,1,0,0:0:0:0:
51,192,1700,1,0,0:0:0:0:
153,192,1741,1,0,0:0:0:0:
256,192,1782,128,0,2684:0:0:0:0:
51,192,2848,1,0,0:0:0:0:
460,192,3011,1,0,0:0:0:0:
358,192,3175,1,0,0:0:0:0:
256,192,3339,1,0,0:0:0:0:
153,192,3503,1,0,0:0:0:0:
51,192,4323,1,0,0:0:0:0:
460,192,4323,1,0,0:0:0:0:
51,192,5634,1,0,0:0:0:0:
153,192,5798,1,0,0:0:0:0:
256,192,5962,1,0,0:0:0:0:
358,192,6126,1,0,0:0:0:0:
51,192,6946,1,0,0:0:0:0:
358,192,6946,1,0,0:0:0:0:
358,192,7438,1,0,0:0:0:0:
256,192,7520,1,0,0:0:0:0:
153,192,7602,1,0,0:0:0:0:
51,192,7684,1,0,0:0:0:0:
153,192,8257,1,0,0:0:0:0:
51,192,8257,1,0,0:0:0:0:
358,192,8257,1,0,0:0:0:0:
460,192,8257,128,0,9569:0:0:0:0:
358,192,9569,1,0,0:0:0:0:
153,192,9569,1,0,0:0:0:0:
51,192,9569,128,0,10552:0:0:0:0:
358,192,10061,1,0,0:0:0:0:
460,192,10061,1,0,0:0:0:0:
256,192,10388,1,0,0:0:0:0:
460,192,10388,1,0,0:0:0:0:
460,192,10552,1,0,0:0:0:0:
153,192,10552,128,0,10880:0:0:0:0:
460,192,10880,1,0,0:0:0:0:
256,192,10880,1,0,0:0:0:0:
51,192,10880,128,0,12028:0:0:0:0:
256,192,11044,1,0,0:0:0:0:
460,192,11208,1,0,0:0:0:0:
256,192,11208,1,0,0:0:0:0:
256,192,11372,1,0,0:0:0:0:
256,192,11536,1,0,0:0:0:0:
460,192,11536,1,0,0:0:0:0:
460,192,11700,1,0,0:0:0:0:
153,192,11700,128,0,12192:0:0:0:0:
460,192,11864,1,0,0:0:0:0:
256,192,11864,128,0,12192:0:0:0:0:
460,192,12028,1,0,0:0:0:0:
358,192,12028,128,0,12192:0:0:0:0:
51,192,12192,128,0,12356:0:0:0:0:
460,192,12192,128,0,12356:0:0:0:0:
358,192,12356,128,0,12520:0:0:0:0:
153,192,12356,128,0,12520:0:0:0:0:
256,192,12520,128,0,12684:0:0:0:0:
460,192,12520,128,0,12684:0:0:0:0:
51,192,12684,128,0,12848:0:0:0:0:
358,192,12684,128,0,12848:0:0:0:0:
153,192,12848,128,0,13011:0:0:0:0:
256,192,12848,128,0,13011:0:0:0:0:
358,192,12929,1,0,0:0:0:0:
460,192,13011,128,0,13175:0:0:0:0:
51,192,13011,128,0,13175:0:0:0:0:
256,192,13093,1,0,0:0:0:0:
358,192,13175,128,0,13339:0:0:0:0:
153,192,13257,1,0,0:0:0:0:
256,192,13339,128,0,13503:0:0:0:0:
51,192,13421,1,0,0:0:0:0:
153,192,13503,128,0,13667:0:0:0:0:
460,192,13503,1,0,0:0:0:0:
358,192,13503,1,0,0:0:0:0:
256,192,13585,1,0,0:0:0:0:
51,192,13667,1,0,0:0:0:0:
460,192,13667,1,0,0:0:0:0:
358,192,13667,1,0,0:0:0:0:
153,192,13749,1,0,0:0:0:0:
256,192,13831,1,0,0:0:0:0:
460,192,13831,1,0,0:0:0:0:
51,192,13831,1,0,0:0:0:0:
153,192,13913,1,0,0:0:0:0:
358,192,13995,1,0,0:0:0:0:
51,192,14077,1,0,0:0:0:0:
358,192,14159,1,0,0:0:0:0:
460,192,14159,1,0,0:0:0:0:
153,192,14159,1,0,0:0:0:0:
256,192,14241,1,0,0:0:0:0:
460,192,14323,1,0,0:0:0:0:
358,192,14323,1,0,0:0:0:0:
51,192,14323,1,0,0:0:0:0:
256,192,14405,1,0,0:0:0:0:
460,192,14487,1,0,0:0:0:0:
51,192,14487,1,0,0:0:0:0:
153,192,14487,1,0,0:0:0:0:
358,192,14569,1,0,0:0:0:0:
51,192,14651,1,0,0:0:0:0:
153,192,14733,1,0,0:0:0:0:
460,192,14815,1,0,0:0:0:0:
358,192,14815,1,0,0:0:0:0:
256,192,14815,1,0,0:0:0:0:
51,192,14897,1,0,0:0:0:0:
358,192,14979,1,0,0:0:0:0:
460,192,14979,1,0,0:0:0:0:
256,192,14979,1,0,0:0:0:0:
153,192,15061,1,0,0:0:0:0:
460,192,15143,1,0,0:0:0:0:
256,192,15143,1,0,0:0:0:0:
51,192,15143,1,0,0:0:0:0:
153,192,15225,1,0,0:0:0:0:
358,192,15307,1,0,0:0:0:0:
51,192,15388,1,0,0:0:0:0:
460,192,15470,1,0,0:0:0:0:
358,192,15470,1,0,0:0:0:0:
153,192,15470,1,0,0:0:0:0:
51,192,15552,1,0,0:0:0:0:
460,192,15634,1,0,0:0:0:0:
358,192,15634,1,0,0:0:0:0:
256,192,15634,1,0,0:0:0:0:
153,192,15716,1,0,0:0:0:0:
460,192,15798,1,0,0:0:0:0:
256,192,15798,1,0,0:0:0:0:
51,192,15798,1,0,0:0:0:0:
153,192,15880,1,0,0:0:0:0:
358,192,15962,1,0,0:0:0:0:
460,192,16044,1,0,0:0:0:0:
51,192,16126,1,0,0:0:0:0:
153,192,16126,1,0,0:0:0:0:
256,192,16208,1,0,0:0:0:0:
460,192,16290,1,0,0:0:0:0:
51,192,16290,1,0,0:0:0:0:
153,192,16290,1,0,0:0:0:0:
256,192,16372,1,0,0:0:0:0:
358,192,16454,1,0,0:0:0:0:
51,192,16454,1,0,0:0:0:0:
460,192,16454,1,0,0:0:0:0:
256,192,16536,1,0,0:0:0:0:
153,192,16618,1,0,0:0:0:0:
460,192,16700,1,0,0:0:0:0:
153,192,16782,1,0,0:0:0:0:
51,192,16782,1,0,0:0:0:0:
358,192,16782,1,0,0:0:0:0:
256,192,16864,1,0,0:0:0:0:
51,192,16946,1,0,0:0:0:0:
153,192,16946,1,0,0:0:0:0:
460,192,16946,1,0,0:0:0:0:
256,192,17028,1,0,0:0:0:0:
51,192,17110,1,0,0:0:0:0:
460,192,17110,1,0,0:0:0:0:
358,192,17110,1,0,0:0:0:0:
153,192,17192,1,0,0:0:0:0:
460,192,17274,1,0,0:0:0:0:
358,192,17356,1,0,0:0:0:0:
51,192,17438,1,0,0:0:0:0:
153,192,17438,1,0,0:0:0:0:
256,192,17438,1,0,0:0:0:0:
460,192,17520,1,0,0:0:0:0:
153,192,17602,1,0,0:0:0:0:
51,192,17602,1,0,0:0:0:0:
256,192,17602,1,0,0:0:0:0:
358,192,17684,1,0,0:0:0:0:
51,192,17766,1,0,0:0:0:0:
153,192,17766,1,0,0:0:0:0:
460,192,17766,1,0,0:0:0:0:
358,192,17848,1,0,0:0:0:0:
153,192,17929,1,0,0:0:0:0:
460,192,18011,1,0,0:0:0:0:
51,192,18093,1,0,0:0:0:0:
153,192,18093,1,0,0:0:0:0:
358,192,18093,1,0,0:0:0:0:
460,192,18175,1,0,0:0:0:0:
51,192,18257,1,0,0:0:0:0:
153,192,18257,1,0,0:0:0:0:
256,192,18257,1,0,0:0:0:0:
460,192,18339,1,0,0:0:0:0:
51,192,18421,1,0,0:0:0:0:
256,192,18421,1,0,0:0:0:0:
358,192,18421,1,0,0:0:0:0:
153,192,18503,1,0,0:0:0:0:
256,192,18585,1,0,0:0:0:0:
358,192,18667,1,0,0:0:0:0:
256,192,18749,1,0,0:0:0:0:
51,192,18749,1,0,0:0:0:0:
460,192,18749,1,0,0:0:0:0:
153,192,18831,1,0,0:0:0:0:
358,192,18913,1,0,0:0:0:0:
51,192,18913,1,0,0:0:0:0:
153,192,18995,1,0,0:0:0:0:
460,192,19077,1,0,0:0:0:0:
256,192,19077,1,0,0:0:0:0:
358,192,19077,1,0,0:0:0:0:
51,192,19159,1,0,0:0:0:0:
256,192,19241,1,0,0:0:0:0:
153,192,19323,1,0,0:0:0:0:
256,192,19405,1,0,0:0:0:0:
460,192,19405,1,0,0:0:0:0:
358,192,19405,1,0,0:0:0:0:
51,192,19487,1,0,0:0:0:0:
256,192,19569,1,0,0:0:0:0:
153,192,19651,1,0,0:0:0:0:
256,192,19733,1,0,0:0:0:0:
460,192,19733,1,0,0:0:0:0:
358,192,19733,1,0,0:0:0:0:
51,192,19815,1,0,0:0:0:0:
256,192,19897,1,0,0:0:0:0:
153,192,19979,1,0,0:0:0:0:
51,192,20061,1,0,0:0:0:0:
358,192,20061,1,0,0:0:0:0:
460,192,20061,1,0,0:0:0:0:
153,192,20143,1,0,0:0:0:0:
460,192,20225,1,0,0:0:0:0:
256,192,20225,1,0,0:0:0:0:
358,192,20225,1,0,0:0:0:0:
51,192,20307,1,0,0:0:0:0:
358,192,20388,1,0,0:0:0:0:
153,192,20388,1,0,0:0:0:0:
460,192,20388,1,0,0:0:0:0:
256,192,20470,1,0,0:0:0:0:
153,192,20552,1,0,0:0:0:0:
51,192,20552,1,0,0:0:0:0:
256,192,20634,1,0,0:0:0:0:
358,192,20634,1,0,0:0:0:0:
460,192,20716,1,0,0:0:0:0:
51,192,20716,1,0,0:0:0:0:
256,192,20798,1,0,0:0:0:0:
51,192,20880,1,0,0:0:0:0:
460,192,20880,1,0,0:0:0:0:
153,192,20962,1,0,0:0:0:0:
358,192,20962,1,0,0:0:0:0:
256,192,21044,1,0,0:0:0:0:
153,192,21126,1,0,0:0:0:0:
358,192,21126,1,0,0:0:0:0:
256,192,21208,1,0,0:0:0:0:
51,192,21290,1,0,0:0:0:0:
153,192,21372,1,0,0:0:0:0:
460,192,21372,128,0,23503:0:0:0:0:
358,192,21372,1,0,0:0:0:0:
153,192,21864,1,0,0:0:0:0:
256,192,21946,1,0,0:0:0:0:
358,192,22028,128,0,23503:0:0:0:0:
51,192,22520,1,0,0:0:0:0:
153,192,22602,1,0,0:0:0:0:
256,192,22684,128,0,23503:0:0:0:0:
153,192,23339,1,0,0:0:0:0:
51,192,23339,1,0,0:0:0:0:
51,192,23503,1,0,0:0:0:0:
153,192,23503,1,0,0:0:0:0:
51,192,23995,1,0,0:0:0:0:
153,192,23995,1,0,0:0:0:0:
358,192,23995,1,0,0:0:0:0:
460,192,23995,1,0,0:0:0:0:
51,192,25307,1,0,0:0:0:0:
153,192,25798,1,0,0:0:0:0:
256,192,26290,1,0,0:0:0:0:
358,192,26618,1,0,0:0:0:0:
51,192,26618,1,0,0:0:0:0:
460,192,27929,1,0,0:0:0:0:
358,192,28421,1,0,0:0:0:0:
51,192,28749,128,0,28831:0:0:0:0:
256,192,28749,128,0,28831:0:0:0:0:
51,192,28913,128,0,28995:0:0:0:0:
256,192,28913,128,0,28995:0:0:0:0:
51,192,29077,128,0,29159:0:0:0:0:
256,192,29077,128,0,29159:0:0:0:0:
51,192,29241,128,0,30552:0:0:0:0:
256,192,29241,1,0,0:0:0:0:
460,192,29241,1,0,0:0:0:0:
358,192,29405,1,0,0:0:0:0:
153,192,29405,1,0,0:0:0:0:
256,192,29569,1,0,0:0:0:0:
460,192,29569,1,0,0:0:0:0:
358,192,29733,1,0,0:0:0:0:
153,192,29897,1,0,0:0:0:0:
256,192,29897,1,0,0:0:0:0:
460,192,29897,1,0,0:0:0:0:
460,192,30061,1,0,0:0:0:0:
256,192,30061,1,0,0:0:0:0:
358,192,30225,1,0,0:0:0:0:
153,192,30225,1,0,0:0:0:0:
256,192,30388,1,0,0:0:0:0:
460,192,30388,1,0,0:0:0:0:
460,192,30552,128,0,31536:0:0:0:0:
153,192,30552,1,0,0:0:0:0:
358,192,30716,1,0,0:0:0:0:
153,192,30716,1,0,0:0:0:0:
51,192,30880,1,0,0:0:0:0:
256,192,30880,1,0,0:0:0:0:
358,192,31044,128,0,31864:0:0:0:0:
153,192,31044,1,0,0:0:0:0:
51,192,31208,1,0,0:0:0:0:
256,192,31208,1,0,0:0:0:0:
51,192,31372,1,0,0:0:0:0:
153,192,31372,1,0,0:0:0:0:
256,192,31536,128,0,32192:0:0:0:0:
51,192,31536,1,0,0:0:0:0:
460,192,31700,1,0,0:0:0:0:
153,192,31700,1,0,0:0:0:0:
51,192,31864,128,0,32848:0:0:0:0:
153,192,31864,1,0,0:0:0:0:
460,192,32028,1,0,0:0:0:0:
358,192,32028,1,0,0:0:0:0:
153,192,32192,1,0,0:0:0:0:
460,192,32192,1,0,0:0:0:0:
358,192,32356,128,0,32848:0:0:0:0:
256,192,32356,1,0,0:0:0:0:
153,192,32520,1,0,0:0:0:0:
460,192,32520,1,0,0:0:0:0:
256,192,32684,1,0,0:0:0:0:
460,192,32684,1,0,0:0:0:0:
153,192,32848,128,0,33011:0:0:0:0:
256,192,33011,128,0,33831:0:0:0:0:
460,192,33011,1,0,0:0:0:0:
51,192,33011,1,0,0:0:0:0:
358,192,33175,1,0,0:0:0:0:
51,192,33339,1,0,0:0:0:0:
153,192,33503,1,0,0:0:0:0:
358,192,33503,1,0,0:0:0:0:
460,192,33503,1,0,0:0:0:0:
51,192,33667,1,0,0:0:0:0:
358,192,33667,1,0,0:0:0:0:
460,192,33831,1,0,0:0:0:0:
153,192,33831,1,0,0:0:0:0:
51,192,33995,1,0,0:0:0:0:
358,192,33995,1,0,0:0:0:0:
153,192,34077,1,0,0:0:0:0:
256,192,34159,1,0,0:0:0:0:
460,192,34159,1,0,0:0:0:0:
51,192,34241,1,0,0:0:0:0:
153,192,34323,1,0,0:0:0:0:
358,192,34323,1,0,0:0:0:0:
460,192,34405,1,0,0:0:0:0:
256,192,34487,1,0,0:0:0:0:
51,192,34487,1,0,0:0:0:0:
51,192,34815,1,0,0:0:0:0:
51,192,35143,1,0,0:0:0:0:
51,192,35470,1,0,0:0:0:0:
51,192,35798,1,0,0:0:0:0:
460,192,35798,1,0,0:0:0:0:
51,192,36126,1,0,0:0:0:0:
51,192,36454,1,0,0:0:0:0:
51,192,36782,1,0,0:0:0:0:
153,192,37110,1,0,0:0:0:0:
460,192,37110,1,0,0:0:0:0:
153,192,37438,1,0,0:0:0:0:
153,192,37766,1,0,0:0:0:0:
153,192,38093,1,0,0:0:0:0:
153,192,38421,1,0,0:0:0:0:
460,192,38421,1,0,0:0:0:0:
153,192,38749,1,0,0:0:0:0:
153,192,39077,1,0,0:0:0:0:
460,192,39077,1,0,0:0:0:0:
358,192,39077,1,0,0:0:0:0:
256,192,39241,1,0,0:0:0:0:
358,192,39405,1,0,0:0:0:0:
460,192,39405,1,0,0:0:0:0:
153,192,39405,128,0,39651:0:0:0:0:
51,192,39405,128,0,39651:0:0:0:0:
256,192,39569,1,0,0:0:0:0:
460,192,39733,128,0,41044:0:0:0:0:
153,192,39733,1,0,0:0:0:0:
51,192,39733,1,0,0:0:0:0:
358,192,39897,128,0,40225:0:0:0:0:
153,192,39897,1,0,0:0:0:0:
51,192,40061,1,0,0:0:0:0:
256,192,40061,1,0,0:0:0:0:
153,192,40225,128,0,40552:0:0:0:0:
51,192,40388,1,0,0:0:0:0:
358,192,40388,1,0,0:0:0:0:
358,192,40552,1,0,0:0:0:0:
153,192,40716,1,0,0:0:0:0:
358,192,40716,1,0,0:0:0:0:
51,192,40716,1,0,0:0:0:0:
256,192,40880,1,0,0:0:0:0:
51,192,41044,128,0,41700:0:0:0:0:
358,192,41044,1,0,0:0:0:0:
153,192,41208,1,0,0:0:0:0:
460,192,41208,1,0,0:0:0:0:
256,192,41372,1,0,0:0:0:0:
358,192,41536,128,0,42192:0:0:0:0:
153,192,41536,1,0,0:0:0:0:
460,192,41700,1,0,0:0:0:0:
256,192,41700,1,0,0:0:0:0:
51,192,41864,1,0,0:0:0:0:
153,192,41864,1,0,0:0:0:0:
153,192,42028,128,0,42848:0:0:0:0:
460,192,42028,1,0,0:0:0:0:
256,192,42028,1,0,0:0:0:0:
51,192,42192,1,0,0:0:0:0:
460,192,42356,128,0,43339:0:0:0:0:
256,192,42356,1,0,0:0:0:0:
358,192,42356,1,0,0:0:0:0:
51,192,42520,1,0,0:0:0:0:
256,192,42684,1,0,0:0:0:0:
358,192,42684,1,0,0:0:0:0:
51,192,42848,128,0,43503:0:0:0:0:
358,192,42848,1,0,0:0:0:0:
256,192,43011,1,0,0:0:0:0:
153,192,43011,1,0,0:0:0:0:
153,192,43175,1,0,0:0:0:0:
358,192,43175,1,0,0:0:0:0:
256,192,43339,128,0,43667:0:0:0:0:
358,192,43339,1,0,0:0:0:0:
460,192,43503,128,0,44979:0:0:0:0:
153,192,43503,1,0,0:0:0:0:
51,192,43667,1,0,0:0:0:0:
358,192,43667,1,0,0:0:0:0:
153,192,43831,1,0,0:0:0:0:
51,192,43995,1,0,0:0:0:0:
256,192,43995,1,0,0:0:0:0:
358,192,43995,1,0,0:0:0:0:
153,192,44159,1,0,0:0:0:0:
51,192,44323,1,0,0:0:0:0:
256,192,44323,1,0,0:0:0:0:
153,192,44487,1,0,0:0:0:0:
51,192,44487,1,0,0:0:0:0:
256,192,44569,1,0,0:0:0:0:
358,192,44569,1,0,0:0:0:0:
153,192,44651,1,0,0:0:0:0:
51,192,44651,1,0,0:0:0:0:
256,192,44733,1,0,0:0:0:0:
358,192,44733,1,0,0:0:0:0:
153,192,44815,1,0,0:0:0:0:
51,192,44815,1,0,0:0:0:0:
256,192,44897,1,0,0:0:0:0:
358,192,44897,1,0,0:0:0:0:
153,192,44979,1,0,0:0:0:0:
51,192,44979,128,0,45307:0:0:0:0:
256,192,45143,128,0,45470:0:0:0:0:
460,192,45143,1,0,0:0:0:0:
460,192,45307,128,0,45634:0:0:0:0:
153,192,45307,1,0,0:0:0:0:
153,192,45470,128,0,45798:0:0:0:0:
358,192,45470,1,0,0:0:0:0:
358,192,45634,128,0,45962:0:0:0:0:
51,192,45634,1,0,0:0:0:0:
51,192,45798,128,0,46126:0:0:0:0:
256,192,45798,1,0,0:0:0:0:
256,192,45962,128,0,46290:0:0:0:0:
460,192,45962,1,0,0:0:0:0:
460,192,46126,128,0,47192:0:0:0:0:
153,192,46126,1,0,0:0:0:0:
358,192,46126,1,0,0:0:0:0:
51,192,46290,128,0,46864:0:0:0:0:
153,192,46290,128,0,46372:0:0:0:0:
358,192,46290,128,0,46372:0:0:0:0:
153,192,46454,128,0,46536:0:0:0:0:
358,192,46454,128,0,46536:0:0:0:0:
153,192,46618,128,0,46700:0:0:0:0:
358,192,46618,128,0,46700:0:0:0:0:
153,192,46782,128,0,46864:0:0:0:0:
358,192,46782,128,0,47192:0:0:0:0:
256,192,46782,1,0,0:0:0:0:
51,192,46946,128,0,47192:0:0:0:0:
153,192,46946,128,0,47192:0:0:0:0:
256,192,47110,1,0,0:0:0:0:
153,192,47274,128,0,47438:0:0:0:0:
51,192,47274,128,0,47438:0:0:0:0:
358,192,47274,128,0,47438:0:0:0:0:
460,192,47274,128,0,47438:0:0:0:0:
256,192,47274,128,0,47438:0:0:0:0:
460,192,47602,128,0,47929:0:0:0:0:
256,192,47602,1,0,0:0:0:0:
256,192,47766,128,0,48093:0:0:0:0:
51,192,47766,1,0,0:0:0:0:
51,192,47929,128,0,48257:0:0:0:0:
358,192,47929,1,0,0:0:0:0:
358,192,48093,128,0,48421:0:0:0:0:
153,192,48093,1,0,0:0:0:0:
153,192,48257,128,0,48585:0:0:0:0:
460,192,48257,1,0,0:0:0:0:
460,192,48421,128,0,48749:0:0:0:0:
256,192,48421,1,0,0:0:0:0:
256,192,48585,128,0,48913:0:0:0:0:
51,192,48585,1,0,0:0:0:0:
358,192,48749,1,0,0:0:0:0:
153,192,48749,1,0,0:0:0:0:
51,192,48749,128,0,49815:0:0:0:0:
460,192,48913,128,0,49487:0:0:0:0:
153,192,48913,128,0,48995:0:0:0:0:
358,192,48913,128,0,48995:0:0:0:0:
358,192,49077,128,0,49159:0:0:0:0:
153,192,49077,128,0,49159:0:0:0:0:
358,192,49241,128,0,49323:0:0:0:0:
153,192,49241,128,0,49323:0:0:0:0:
153,192,49405,128,0,49815:0:0:0:0:
358,192,49405,128,0,49487:0:0:0:0:
256,192,49405,1,0,0:0:0:0:
460,192,49569,128,0,49815:0:0:0:0:
358,192,49569,128,0,49815:0:0:0:0:
256,192,49733,1,0,0:0:0:0:
358,192,49897,128,0,50061:0:0:0:0:
460,192,49897,128,0,50061:0:0:0:0:
153,192,49897,128,0,50061:0:0:0:0:
51,192,49897,128,0,50061:0:0:0:0:
256,192,49897,128,0,50061:0:0:0:0:
51,192,50225,128,0,50307:0:0:0:0:
460,192,50225,128,0,50388:0:0:0:0:
256,192,50225,1,0,0:0:0:0:
51,192,50388,128,0,50470:0:0:0:0:
358,192,50388,128,0,50552:0:0:0:0:
153,192,50388,1,0,0:0:0:0:
256,192,50552,128,0,50716:0:0:0:0:
51,192,50552,128,0,50634:0:0:0:0:
460,192,50552,1,0,0:0:0:0:
51,192,50716,128,0,50798:0:0:0:0:
153,192,50716,128,0,50880:0:0:0:0:
358,192,50716,1,0,0:0:0:0:
51,192,50880,128,0,51208:0:0:0:0:
256,192,50880,1,0,0:0:0:0:
358,192,50880,1,0,0:0:0:0:
460,192,51044,1,0,0:0:0:0:
153,192,51044,128,0,51126:0:0:0:0:
256,192,51208,1,0,0:0:0:0:
358,192,51208,128,0,51290:0:0:0:0:
460,192,51372,128,0,51454:0:0:0:0:
153,192,51372,1,0,0:0:0:0:
358,192,51536,128,0,51618:0:0:0:0:
51,192,51536,128,0,51618:0:0:0:0:
256,192,51536,1,0,0:0:0:0:
153,192,51700,128,0,51782:0:0:0:0:
460,192,51700,1,0,0:0:0:0:
358,192,51864,128,0,51946:0:0:0:0:
256,192,51864,128,0,51946:0:0:0:0:
51,192,51864,128,0,51946:0:0:0:0:
153,192,52028,128,0,52110:0:0:0:0:
358,192,52028,1,0,0:0:0:0:
460,192,52192,128,0,52274:0:0:0:0:
51,192,52192,128,0,52356:0:0:0:0:
256,192,52192,1,0,0:0:0:0:
460,192,52356,128,0,52438:0:0:0:0:
153,192,52356,128,0,52520:0:0:0:0:
358,192,52356,1,0,0:0:0:0:
460,192,52520,128,0,52602:0:0:0:0:
256,192,52520,128,0,52684:0:0:0:0:
51,192,52520,1,0,0:0:0:0:
358,192,52684,128,0,52848:0:0:0:0:
153,192,52684,128,0,54159:0:0:0:0:
51,192,52684,128,0,54077:0:0:0:0:
460,192,52684,128,0,52766:0:0:0:0:
256,192,52848,1,0,0:0:0:0:
460,192,52848,1,0,0:0:0:0:
460,192,53011,1,0,0:0:0:0:
460,192,53175,1,0,0:0:0:0:
358,192,53175,1,0,0:0:0:0:
460,192,53339,1,0,0:0:0:0:
460,192,53503,1,0,0:0:0:0:
358,192,53503,1,0,0:0:0:0:
256,192,53585,1,0,0:0:0:0:
460,192,53667,1,0,0:0:0:0:
358,192,53667,1,0,0:0:0:0:
256,192,53749,1,0,0:0:0:0:
460,192,53831,1,0,0:0:0:0:
358,192,53831,1,0,0:0:0:0:
256,192,53913,1,0,0:0:0:0:
460,192,53995,1,0,0:0:0:0:
358,192,53995,1,0,0:0:0:0:
256,192,54077,1,0,0:0:0:0:
460,192,54159,1,0,0:0:0:0:
358,192,54159,1,0,0:0:0:0:
51,192,54159,1,0,0:0:0:0:
51,192,54323,1,0,0:0:0:0:
358,192,54323,1,0,0:0:0:0:
460,192,54323,1,0,0:0:0:0:
153,192,54815,1,0,0:0:0:0:
256,192,54815,1,0,0:0:0:0:
460,192,54815,1,0,0:0:0:0:
153,192,54979,1,0,0:0:0:0:
256,192,54979,1,0,0:0:0:0:
460,192,54979,1,0,0:0:0:0:
51,192,55470,128,0,56782:0:0:0:0:
153,192,55470,1,0,0:0:0:0:
460,192,55470,1,0,0:0:0:0:
256,192,55552,1,0,0:0:0:0:
460,192,55634,1,0,0:0:0:0:
358,192,55634,1,0,0:0:0:0:
153,192,55716,1,0,0:0:0:0:
256,192,55798,1,0,0:0:0:0:
358,192,55798,1,0,0:0:0:0:
460,192,55880,1,0,0:0:0:0:
256,192,55962,1,0,0:0:0:0:
153,192,55962,1,0,0:0:0:0:
460,192,56044,1,0,0:0:0:0:
358,192,56126,1,0,0:0:0:0:
153,192,56126,1,0,0:0:0:0:
256,192,56208,1,0,0:0:0:0:
153,192,56290,1,0,0:0:0:0:
460,192,56290,1,0,0:0:0:0:
358,192,56372,1,0,0:0:0:0:
256,192,56454,1,0,0:0:0:0:
460,192,56454,1,0,0:0:0:0:
153,192,56536,1,0,0:0:0:0:
358,192,56618,1,0,0:0:0:0:
460,192,56618,1,0,0:0:0:0:
256,192,56700,1,0,0:0:0:0:
460,192,56782,128,0,58093:0:0:0:0:
153,192,56782,1,0,0:0:0:0:
358,192,56864,1,0,0:0:0:0:
256,192,56946,1,0,0:0:0:0:
51,192,56946,1,0,0:0:0:0:
153,192,57028,1,0,0:0:0:0:
51,192,57110,1,0,0:0:0:0:
256,192,57110,1,0,0:0:0:0:
358,192,57192,1,0,0:0:0:0:
256,192,57274,1,0,0:0:0:0:
153,192,57274,1,0,0:0:0:0:
51,192,57356,1,0,0:0:0:0:
256,192,57438,1,0,0:0:0:0:
358,192,57438,1,0,0:0:0:0:
153,192,57520,1,0,0:0:0:0:
51,192,57602,1,0,0:0:0:0:
358,192,57602,1,0,0:0:0:0:
256,192,57684,1,0,0:0:0:0:
153,192,57766,1,0,0:0:0:0:
51,192,57766,1,0,0:0:0:0:
358,192,57848,1,0,0:0:0:0:
256,192,57929,1,0,0:0:0:0:
51,192,57929,1,0,0:0:0:0:
153,192,58011,1,0,0:0:0:0:
51,192,58093,1,0,0:0:0:0:
358,192,58093,1,0,0:0:0:0:
256,192,58093,128,0,59405:0:0:0:0:
153,192,58175,1,0,0:0:0:0:
51,192,58257,1,0,0:0:0:0:
460,192,58257,1,0,0:0:0:0:
153,192,58339,1,0,0:0:0:0:
51,192,58421,1,0,0:0:0:0:
460,192,58421,1,0,0:0:0:0:
358,192,58503,1,0,0:0:0:0:
460,192,58585,1,0,0:0:0:0:
153,192,58585,1,0,0:0:0:0:
51,192,58667,1,0,0:0:0:0:
358,192,58749,1,0,0:0:0:0:
460,192,58749,1,0,0:0:0:0:
153,192,58831,1,0,0:0:0:0:
51,192,58913,1,0,0:0:0:0:
460,192,58913,1,0,0:0:0:0:
358,192,58995,1,0,0:0:0:0:
153,192,59077,1,0,0:0:0:0:
51,192,59077,1,0,0:0:0:0:
358,192,59159,1,0,0:0:0:0:
153,192,59241,1,0,0:0:0:0:
460,192,59241,1,0,0:0:0:0:
358,192,59323,1,0,0:0:0:0:
51,192,59405,128,0,60716:0:0:0:0:
153,192,59405,1,0,0:0:0:0:
460,192,59405,1,0,0:0:0:0:
256,192,59487,1,0,0:0:0:0:
358,192,59569,1,0,0:0:0:0:
460,192,59569,1,0,0:0:0:0:
153,192,59651,1,0,0:0:0:0:
256,192,59733,1,0,0:0:0:0:
358,192,59733,1,0,0:0:0:0:
153,192,59815,1,0,0:0:0:0:
358,192,59897,1,0,0:0:0:0:
460,192,59897,1,0,0:0:0:0:
256,192,59979,1,0,0:0:0:0:
153,192,60061,1,0,0:0:0:0:
460,192,60061,1,0,0:0:0:0:
358,192,60143,1,0,0:0:0:0:
256,192,60225,1,0,0:0:0:0:
153,192,60225,1,0,0:0:0:0:
460,192,60307,1,0,0:0:0:0:
358,192,60388,1,0,0:0:0:0:
153,192,60388,1,0,0:0:0:0:
256,192,60470,1,0,0:0:0:0:
358,192,60552,1,0,0:0:0:0:
460,192,60552,1,0,0:0:0:0:
153,192,60634,1,0,0:0:0:0:
460,192,60716,128,0,61864:0:0:0:0:
256,192,60716,128,0,61208:0:0:0:0:
153,192,60880,1,0,0:0:0:0:
51,192,61044,128,0,61372:0:0:0:0:
358,192,61208,128,0,62028:0:0:0:0:
153,192,61208,1,0,0:0:0:0:
256,192,61372,1,0,0:0:0:0:
153,192,61372,1,0,0:0:0:0:
256,192,61536,1,0,0:0:0:0:
153,192,61700,128,0,62028:0:0:0:0:
51,192,61700,128,0,61864:0:0:0:0:
256,192,61864,1,0,0:0:0:0:
51,192,62028,128,0,63339:0:0:0:0:
256,192,62028,128,0,62520:0:0:0:0:
460,192,62028,1,0,0:0:0:0:
358,192,62192,1,0,0:0:0:0:
460,192,62356,128,0,62684:0:0:0:0:
153,192,62520,128,0,63339:0:0:0:0:
358,192,62520,1,0,0:0:0:0:
256,192,62684,1,0,0:0:0:0:
358,192,62684,1,0,0:0:0:0:
256,192,62848,1,0,0:0:0:0:
358,192,63011,128,0,63339:0:0:0:0:
460,192,63011,128,0,63175:0:0:0:0:
256,192,63175,1,0,0:0:0:0:
460,192,63339,128,0,64323:0:0:0:0:
256,192,63339,1,0,0:0:0:0:
358,192,63503,1,0,0:0:0:0:
256,192,63667,1,0,0:0:0:0:
153,192,63667,1,0,0:0:0:0:
51,192,63667,1,0,0:0:0:0:
358,192,63831,1,0,0:0:0:0:
256,192,63995,1,0,0:0:0:0:
153,192,63995,1,0,0:0:0:0:
51,192,63995,1,0,0:0:0:0:
358,192,64159,128,0,64323:0:0:0:0:
51,192,64323,1,0,0:0:0:0:
153,192,64323,1,0,0:0:0:0:
256,192,64323,128,0,64487:0:0:0:0:
51,192,64487,128,0,65307:0:0:0:0:
358,192,64487,1,0,0:0:0:0:
460,192,64651,128,0,64733:0:0:0:0:
358,192,64651,128,0,64733:0:0:0:0:
358,192,64815,128,0,64897:0:0:0:0:
256,192,64815,128,0,64897:0:0:0:0:
256,192,64979,128,0,65061:0:0:0:0:
153,192,64979,128,0,65061:0:0:0:0:
256,192,65143,128,0,65225:0:0:0:0:
358,192,65143,128,0,65225:0:0:0:0:
460,192,65307,1,0,0:0:0:0:
153,192,65307,128,0,65552:0:0:0:0:
358,192,65388,1,0,0:0:0:0:
51,192,65470,1,0,0:0:0:0:
256,192,65470,128,0,65716:0:0:0:0:
460,192,65552,1,0,0:0:0:0:
153,192,65634,1,0,0:0:0:0:
358,192,65634,128,0,65880:0:0:0:0:
51,192,65716,1,0,0:0:0:0:
256,192,65798,1,0,0:0:0:0:
460,192,65798,128,0,66044:0:0:0:0:
153,192,65880,1,0,0:0:0:0:
358,192,65962,128,0,66126:0:0:0:0:
51,192,65962,1,0,0:0:0:0:
256,192,66044,1,0,0:0:0:0:
460,192,66126,128,0,66290:0:0:0:0:
153,192,66126,1,0,0:0:0:0:
358,192,66208,1,0,0:0:0:0:
51,192,66290,128,0,66454:0:0:0:0:
256,192,66290,1,0,0:0:0:0:
460,192,66372,128,0,66454:0:0:0:0:
153,192,66454,128,0,66618:0:0:0:0:
358,192,66454,1,0,0:0:0:0:
51,192,66536,1,0,0:0:0:0:
256,192,66618,128,0,66782:0:0:0:0:
460,192,66618,1,0,0:0:0:0:
153,192,66700,1,0,0:0:0:0:
358,192,66782,128,0,66946:0:0:0:0:
51,192,66782,1,0,0:0:0:0:
256,192,66864,1,0,0:0:0:0:
460,192,66946,128,0,67110:0:0:0:0:
153,192,66946,1,0,0:0:0:0:
358,192,67028,1,0,0:0:0:0:
256,192,67110,128,0,67274:0:0:0:0:
51,192,67110,1,0,0:0:0:0:
358,192,67192,1,0,0:0:0:0:
153,192,67274,128,0,67438:0:0:0:0:
460,192,67274,1,0,0:0:0:0:
256,192,67356,1,0,0:0:0:0:
51,192,67438,128,0,67602:0:0:0:0:
358,192,67438,1,0,0:0:0:0:
153,192,67520,1,0,0:0:0:0:
460,192,67602,128,0,67766:0:0:0:0:
256,192,67602,1,0,0:0:0:0:
51,192,67684,1,0,0:0:0:0:
358,192,67766,128,0,67929:0:0:0:0:
153,192,67766,1,0,0:0:0:0:
460,192,67848,1,0,0:0:0:0:
256,192,67929,128,0,68093:0:0:0:0:
51,192,67929,1,0,0:0:0:0:
358,192,68011,1,0,0:0:0:0:
153,192,68093,128,0,68257:0:0:0:0:
460,192,68093,1,0,0:0:0:0:
256,192,68175,1,0,0:0:0:0:
358,192,68257,128,0,68421:0:0:0:0:
51,192,68257,1,0,0:0:0:0:
153,192,68339,1,0,0:0:0:0:
256,192,68421,128,0,68585:0:0:0:0:
460,192,68421,1,0,0:0:0:0:
153,192,68503,1,0,0:0:0:0:
358,192,68585,128,0,68749:0:0:0:0:
51,192,68585,1,0,0:0:0:0:
256,192,68667,1,0,0:0:0:0:
460,192,68749,128,0,68913:0:0:0:0:
153,192,68749,1,0,0:0:0:0:
358,192,68831,1,0,0:0:0:0:
256,192,68913,128,0,69077:0:0:0:0:
51,192,68913,1,0,0:0:0:0:
460,192,68995,1,0,0:0:0:0:
358,192,69077,128,0,69241:0:0:0:0:
153,192,69077,1,0,0:0:0:0:
51,192,69159,1,0,0:0:0:0:
256,192,69241,128,0,69405:0:0:0:0:
460,192,69241,1,0,0:0:0:0:
153,192,69323,1,0,0:0:0:0:
358,192,69405,128,0,69569:0:0:0:0:
51,192,69405,1,0,0:0:0:0:
256,192,69487,1,0,0:0:0:0:
460,192,69569,128,0,69733:0:0:0:0:
153,192,69569,1,0,0:0:0:0:
358,192,69651,1,0,0:0:0:0:
51,192,69733,128,0,70225:0:0:0:0:
256,192,69733,128,0,69897:0:0:0:0:
153,192,69897,1,0,0:0:0:0:
358,192,69897,1,0,0:0:0:0:
460,192,69897,1,0,0:0:0:0:
460,192,70061,128,0,70552:0:0:0:0:
256,192,70061,128,0,70143:0:0:0:0:
358,192,70225,128,0,70552:0:0:0:0:
153,192,70225,128,0,70307:0:0:0:0:
256,192,70388,128,0,70880:0:0:0:0:
51,192,70388,128,0,70470:0:0:0:0:
153,192,70552,128,0,70716:0:0:0:0:
51,192,70552,1,0,0:0:0:0:
358,192,70716,1,0,0:0:0:0:
51,192,70716,1,0,0:0:0:0:
51,192,70880,128,0,71044:0:0:0:0:
153,192,70880,1,0,0:0:0:0:
460,192,70880,1,0,0:0:0:0:
358,192,70880,1,0,0:0:0:0:
256,192,71044,128,0,71208:0:0:0:0:
460,192,71044,1,0,0:0:0:0:
51,192,71208,128,0,72520:0:0:0:0:
153,192,71208,128,0,71372:0:0:0:0:
358,192,71208,128,0,71372:0:0:0:0:
256,192,71372,128,0,71536:0:0:0:0:
460,192,71372,128,0,71700:0:0:0:0:
358,192,71536,1,0,0:0:0:0:
153,192,71536,128,0,71700:0:0:0:0:
358,192,71700,128,0,72028:0:0:0:0:
256,192,71700,128,0,72028:0:0:0:0:
153,192,71864,128,0,72192:0:0:0:0:
460,192,71864,128,0,72028:0:0:0:0:
358,192,72192,1,0,0:0:0:0:
256,192,72192,128,0,72520:0:0:0:0:
460,192,72192,128,0,73667:0:0:0:0:
358,192,72356,128,0,72520:0:0:0:0:
153,192,72356,128,0,72848:0:0:0:0:
51,192,72684,128,0,73339:0:0:0:0:
256,192,72684,128,0,72848:0:0:0:0:
358,192,72684,128,0,73175:0:0:0:0:
153,192,73011,128,0,73175:0:0:0:0:
256,192,73011,128,0,73667:0:0:0:0:
358,192,73339,1,0,0:0:0:0:
153,192,73339,128,0,73503:0:0:0:0:
358,192,73503,128,0,73831:0:0:0:0:
51,192,73503,128,0,73831:0:0:0:0:
153,192,73667,128,0,75143:0:0:0:0:
460,192,73831,1,0,0:0:0:0:
256,192,73831,1,0,0:0:0:0:
256,192,73995,1,0,0:0:0:0:
460,192,74159,1,0,0:0:0:0:
358,192,74159,1,0,0:0:0:0:
256,192,74159,1,0,0:0:0:0:
51,192,74159,1,0,0:0:0:0:
256,192,74323,1,0,0:0:0:0:
256,192,74487,1,0,0:0:0:0:
358,192,74487,1,0,0:0:0:0:
460,192,74487,1,0,0:0:0:0:
51,192,74487,1,0,0:0:0:0:
256,192,74651,1,0,0:0:0:0:
256,192,74815,1,0,0:0:0:0:
358,192,74815,1,0,0:0:0:0:
460,192,74815,1,0,0:0:0:0:
51,192,74815,1,0,0:0:0:0:
256,192,74979,1,0,0:0:0:0:
358,192,75143,1,0,0:0:0:0:
51,192,75143,1,0,0:0:0:0:
460,192,75143,128,0,75470:0:0:0:0:
256,192,75307,1,0,0:0:0:0:
358,192,75470,1,0,0:0:0:0:
51,192,75470,128,0,75634:0:0:0:0:
153,192,75470,1,0,0:0:0:0:
256,192,75634,128,0,75798:0:0:0:0:
153,192,75798,1,0,0:0:0:0:
51,192,75798,1,0,0:0:0:0:
256,192,75880,1,0,0:0:0:0:
358,192,75880,1,0,0:0:0:0:
460,192,75962,1,0,0:0:0:0:
51,192,75962,1,0,0:0:0:0:
153,192,76044,1,0,0:0:0:0:
256,192,76044,1,0,0:0:0:0:
358,192,76126,1,0,0:0:0:0:
460,192,76126,1,0,0:0:0:0:
51,192,76208,1,0,0:0:0:0:
153,192,76208,1,0,0:0:0:0:
358,192,76290,1,0,0:0:0:0:
256,192,76290,1,0,0:0:0:0:
153,192,76372,1,0,0:0:0:0:
460,192,76372,1,0,0:0:0:0:
51,192,76454,128,0,76700:0:0:0:0:
358,192,76454,1,0,0:0:0:0:
256,192,76454,128,0,76618:0:0:0:0:
153,192,76618,128,0,76864:0:0:0:0:
358,192,76618,128,0,76782:0:0:0:0:
256,192,76782,128,0,77028:0:0:0:0:
51,192,76782,1,0,0:0:0:0:
460,192,76782,128,0,76946:0:0:0:0:
358,192,76946,128,0,77192:0:0:0:0:
153,192,76946,1,0,0:0:0:0:
51,192,76946,128,0,77110:0:0:0:0:
256,192,77110,1,0,0:0:0:0:
460,192,77110,128,0,77356:0:0:0:0:
153,192,77110,128,0,77274:0:0:0:0:
358,192,77274,1,0,0:0:0:0:
256,192,77274,128,0,77438:0:0:0:0:
51,192,77274,128,0,77520:0:0:0:0:
460,192,77438,1,0,0:0:0:0:
358,192,77438,128,0,77602:0:0:0:0:
153,192,77438,128,0,77684:0:0:0:0:
256,192,77602,128,0,77848:0:0:0:0:
51,192,77602,1,0,0:0:0:0:
460,192,77602,128,0,77766:0:0:0:0:
358,192,77766,128,0,78011:0:0:0:0:
153,192,77766,1,0,0:0:0:0:
51,192,77766,128,0,77929:0:0:0:0:
256,192,77929,1,0,0:0:0:0:
153,192,77929,128,0,78093:0:0:0:0:
460,192,77929,128,0,78175:0:0:0:0:
358,192,78093,1,0,0:0:0:0:
256,192,78093,128,0,78257:0:0:0:0:
51,192,78093,128,0,78339:0:0:0:0:
358,192,78257,128,0,78421:0:0:0:0:
460,192,78257,1,0,0:0:0:0:
153,192,78257,128,0,78503:0:0:0:0:
256,192,78421,1,0,0:0:0:0:
51,192,78421,1,0,0:0:0:0:
51,192,78585,1,0,0:0:0:0:
153,192,78585,1,0,0:0:0:0:
460,192,78585,1,0,0:0:0:0:
256,192,78585,1,0,0:0:0:0:
51,192,78749,128,0,78995:0:0:0:0:
256,192,78749,128,0,78995:0:0:0:0:
153,192,78749,1,0,0:0:0:0:
460,192,78749,128,0,78995:0:0:0:0:
460,192,79077,1,0,0:0:0:0:
51,192,79077,1,0,0:0:0:0:
153,192,79077,1,0,0:0:0:0:
358,192,79077,128,0,80307:0:0:0:0:
256,192,79241,1,0,0:0:0:0:
153,192,79405,128,0,79651:0:0:0:0:
51,192,79405,128,0,79651:0:0:0:0:
460,192,79405,1,0,0:0:0:0:
256,192,79569,1,0,0:0:0:0:
153,192,79733,128,0,79979:0:0:0:0:
51,192,79733,128,0,79979:0:0:0:0:
460,192,79733,1,0,0:0:0:0:
256,192,79897,1,0,0:0:0:0:
153,192,80061,128,0,80307:0:0:0:0:
51,192,80061,128,0,80307:0:0:0:0:
460,192,80061,1,0,0:0:0:0:
256,192,80225,1,0,0:0:0:0:
51,192,80388,1,0,0:0:0:0:
460,192,80388,1,0,0:0:0:0:
358,192,80388,1,0,0:0:0:0:
153,192,80388,128,0,81618:0:0:0:0:
256,192,80552,1,0,0:0:0:0:
358,192,80716,128,0,80962:0:0:0:0:
460,192,80716,128,0,80962:0:0:0:0:
51,192,80716,1,0,0:0:0:0:
256,192,80880,1,0,0:0:0:0:
358,192,81044,128,0,81290:0:0:0:0:
460,192,81044,128,0,81290:0:0:0:0:
51,192,81044,1,0,0:0:0:0:
256,192,81208,1,0,0:0:0:0:
358,192,81372,128,0,81618:0:0:0:0:
460,192,81372,128,0,81618:0:0:0:0:
51,192,81372,1,0,0:0:0:0:
256,192,81536,1,0,0:0:0:0:
51,192,81700,128,0,81946:0:0:0:0:
153,192,81700,1,0,0:0:0:0:
358,192,81700,1,0,0:0:0:0:
460,192,81700,1,0,0:0:0:0:
51,192,82028,1,0,0:0:0:0:
460,192,82028,1,0,0:0:0:0:
358,192,82028,1,0,0:0:0:0:
358,192,82192,1,0,0:0:0:0:
460,192,82192,1,0,0:0:0:0:
51,192,82192,1,0,0:0:0:0:
51,192,82356,1,0,0:0:0:0:
358,192,82356,1,0,0:0:0:0:
460,192,82356,1,0,0:0:0:0:
358,192,82520,1,0,0:0:0:0:
460,192,82520,1,0,0:0:0:0:
51,192,82520,1,0,0:0:0:0:
51,192,82684,1,0,0:0:0:0:
358,192,82684,1,0,0:0:0:0:
460,192,82684,1,0,0:0:0:0:
358,192,82848,1,0,0:0:0:0:
460,192,82848,1,0,0:0:0:0:
51,192,82848,1,0,0:0:0:0:
51,192,83011,1,0,0:0:0:0:
256,192,83011,1,0,0:0:0:0:
358,192,83011,1,0,0:0:0:0:
460,192,83011,1,0,0:0:0:0:
358,192,83257,1,0,0:0:0:0:
460,192,83257,1,0,0:0:0:0:
153,192,83339,1,0,0:0:0:0:
51,192,83339,1,0,0:0:0:0:
460,192,83503,1,0,0:0:0:0:
358,192,83503,1,0,0:0:0:0:
256,192,83503,1,0,0:0:0:0:
51,192,83503,1,0,0:0:0:0:
153,192,83667,1,0,0:0:0:0:
256,192,83667,1,0,0:0:0:0:
358,192,83749,1,0,0:0:0:0:
460,192,83749,1,0,0:0:0:0:
153,192,83831,1,0,0:0:0:0:
51,192,83831,1,0,0:0:0:0:
358,192,83913,1,0,0:0:0:0:
460,192,83913,1,0,0:0:0:0:
153,192,83995,1,0,0:0:0:0:
256,192,83995,1,0,0:0:0:0:
460,192,84077,1,0,0:0:0:0:
358,192,84077,1,0,0:0:0:0:
153,192,84159,1,0,0:0:0:0:
51,192,84159,1,0,0:0:0:0:
256,192,84241,1,0,0:0:0:0:
358,192,84241,1,0,0:0:0:0:
153,192,84323,1,0,0:0:0:0:
51,192,84323,1,0,0:0:0:0:
460,192,84323,1,0,0:0:0:0:
256,192,84405,1,0,0:0:0:0:
51,192,84487,1,0,0:0:0:0:
460,192,84487,1,0,0:0:0:0:
358,192,84487,1,0,0:0:0:0:
153,192,84569,1,0,0:0:0:0:
256,192,84651,1,0,0:0:0:0:
460,192,84651,1,0,0:0:0:0:
51,192,84651,1,0,0:0:0:0:
153,192,84733,1,0,0:0:0:0:
358,192,84815,1,0,0:0:0:0:
51,192,84897,1,0,0:0:0:0:
358,192,84979,1,0,0:0:0:0:
460,192,84979,1,0,0:0:0:0:
153,192,84979,1,0,0:0:0:0:
256,192,85061,1,0,0:0:0:0:
460,192,85143,1,0,0:0:0:0:
358,192,85143,1,0,0:0:0:0:
51,192,85143,1,0,0:0:0:0:
256,192,85225,1,0,0:0:0:0:
460,192,85307,1,0,0:0:0:0:
51,192,85307,1,0,0:0:0:0:
153,192,85307,1,0,0:0:0:0:
358,192,85388,1,0,0:0:0:0:
51,192,85470,1,0,0:0:0:0:
153,192,85552,1,0,0:0:0:0:
460,192,85634,1,0,0:0:0:0:
358,192,85634,1,0,0:0:0:0:
256,192,85634,1,0,0:0:0:0:
51,192,85716,1,0,0:0:0:0:
358,192,85798,1,0,0:0:0:0:
460,192,85798,1,0,0:0:0:0:
256,192,85798,1,0,0:0:0:0:
153,192,85880,1,0,0:0:0:0:
460,192,85962,1,0,0:0:0:0:
256,192,85962,1,0,0:0:0:0:
51,192,85962,1,0,0:0:0:0:
153,192,86044,1,0,0:0:0:0:
358,192,86126,1,0,0:0:0:0:
51,192,86208,1,0,0:0:0:0:
460,192,86290,1,0,0:0:0:0:
358,192,86290,1,0,0:0:0:0:
153,192,86290,1,0,0:0:0:0:
51,192,86372,1,0,0:0:0:0:
460,192,86454,1,0,0:0:0:0:
358,192,86454,1,0,0:0:0:0:
256,192,86454,1,0,0:0:0:0:
153,192,86536,1,0,0:0:0:0:
460,192,86618,1,0,0:0:0:0:
256,192,86618,1,0,0:0:0:0:
51,192,86618,1,0,0:0:0:0:
153,192,86700,1,0,0:0:0:0:
358,192,86782,1,0,0:0:0:0:
460,192,86864,1,0,0:0:0:0:
51,192,86946,1,0,0:0:0:0:
153,192,86946,1,0,0:0:0:0:
256,192,87028,1,0,0:0:0:0:
460,192,87110,1,0,0:0:0:0:
51,192,87110,1,0,0:0:0:0:
153,192,87110,1,0,0:0:0:0:
256,192,87192,1,0,0:0:0:0:
358,192,87274,1,0,0:0:0:0:
51,192,87274,1,0,0:0:0:0:
460,192,87274,1,0,0:0:0:0:
256,192,87356,1,0,0:0:0:0:
153,192,87438,1,0,0:0:0:0:
460,192,87520,1,0,0:0:0:0:
153,192,87602,1,0,0:0:0:0:
51,192,87602,1,0,0:0:0:0:
358,192,87602,1,0,0:0:0:0:
256,192,87684,1,0,0:0:0:0:
51,192,87766,1,0,0:0:0:0:
153,192,87766,1,0,0:0:0:0:
460,192,87766,1,0,0:0:0:0:
256,192,87848,1,0,0:0:0:0:
51,192,87929,1,0,0:0:0:0:
460,192,87929,1,0,0:0:0:0:
358,192,87929,1,0,0:0:0:0:
153,192,88011,1,0,0:0:0:0:
460,192,88093,1,0,0:0:0:0:
358,192,88175,1,0,0:0:0:0:
51,192,88257,1,0,0:0:0:0:
153,192,88257,1,0,0:0:0:0:
256,192,88257,1,0,0:0:0:0:
460,192,88339,1,0,0:0:0:0:
153,192,88421,1,0,0:0:0:0:
51,192,88421,1,0,0:0:0:0:
256,192,88421,1,0,0:0:0:0:
358,192,88503,1,0,0:0:0:0:
51,192,88585,1,0,0:0:0:0:
153,192,88585,1,0,0:0:0:0:
460,192,88585,1,0,0:0:0:0:
358,192,88667,1,0,0:0:0:0:
153,192,88749,1,0,0:0:0:0:
460,192,88831,1,0,0:0:0:0:
51,192,88913,1,0,0:0:0:0:
153,192,88913,1,0,0:0:0:0:
358,192,88913,1,0,0:0:0:0:
460,192,88995,1,0,0:0:0:0:
51,192,89077,1,0,0:0:0:0:
153,192,89077,1,0,0:0:0:0:
256,192,89077,1,0,0:0:0:0:
460,192,89159,1,0,0:0:0:0:
51,192,89241,1,0,0:0:0:0:
256,192,89241,1,0,0:0:0:0:
358,192,89241,1,0,0:0:0:0:
153,192,89323,1,0,0:0:0:0:
256,192,89405,1,0,0:0:0:0:
51,192,89487,1,0,0:0:0:0:
358,192,89569,1,0,0:0:0:0:
153,192,89569,1,0,0:0:0:0:
460,192,89569,1,0,0:0:0:0:
256,192,89651,1,0,0:0:0:0:
460,192,89733,1,0,0:0:0:0:
358,192,89733,1,0,0:0:0:0:
51,192,89733,1,0,0:0:0:0:
153,192,89815,1,0,0:0:0:0:
460,192,89897,1,0,0:0:0:0:
256,192,89897,1,0,0:0:0:0:
358,192,89897,1,0,0:0:0:0:
51,192,89979,1,0,0:0:0:0:
256,192,90061,1,0,0:0:0:0:
153,192,90143,1,0,0:0:0:0:
256,192,90225,1,0,0:0:0:0:
460,192,90225,1,0,0:0:0:0:
358,192,90225,1,0,0:0:0:0:
51,192,90307,1,0,0:0:0:0:
256,192,90388,1,0,0:0:0:0:
153,192,90470,1,0,0:0:0:0:
256,192,90552,1,0,0:0:0:0:
460,192,90552,1,0,0:0:0:0:
358,192,90552,1,0,0:0:0:0:
51,192,90634,1,0,0:0:0:0:
256,192,90716,1,0,0:0:0:0:
153,192,90798,1,0,0:0:0:0:
51,192,90880,1,0,0:0:0:0:
358,192,90880,1,0,0:0:0:0:
460,192,90880,1,0,0:0:0:0:
256,192,90962,1,0,0:0:0:0:
153,192,91044,1,0,0:0:0:0:
358,192,91044,1,0,0:0:0:0:
51,192,91044,1,0,0:0:0:0:
460,192,91126,1,0,0:0:0:0:
51,192,91208,1,0,0:0:0:0:
256,192,91208,1,0,0:0:0:0:
153,192,91208,1,0,0:0:0:0:
358,192,91290,1,0,0:0:0:0:
153,192,91372,1,0,0:0:0:0:
460,192,91454,1,0,0:0:0:0:
153,192,91536,1,0,0:0:0:0:
256,192,91536,1,0,0:0:0:0:
51,192,91536,1,0,0:0:0:0:
358,192,91618,1,0,0:0:0:0:
153,192,91700,1,0,0:0:0:0:
460,192,91782,1,0,0:0:0:0:
153,192,91864,1,0,0:0:0:0:
51,192,91864,1,0,0:0:0:0:
256,192,91864,1,0,0:0:0:0:
358,192,91946,1,0,0:0:0:0:
153,192,92028,1,0,0:0:0:0:
460,192,92110,1,0,0:0:0:0:
51,192,92192,128,0,92356:0:0:0:0:
153,192,92192,128,0,92356:0:0:0:0:
358,192,92192,1,0,0:0:0:0:
358,192,92356,128,0,92520:0:0:0:0:
256,192,92356,128,0,92520:0:0:0:0:
460,192,92356,1,0,0:0:0:0:
460,192,92520,128,0,92684:0:0:0:0:
51,192,92520,1,0,0:0:0:0:
153,192,92520,1,0,0:0:0:0:
51,192,92684,128,0,92848:0:0:0:0:
153,192,92684,128,0,92848:0:0:0:0:
256,192,92684,1,0,0:0:0:0:
256,192,92848,128,0,93011:0:0:0:0:
358,192,92848,128,0,93011:0:0:0:0:
460,192,92848,1,0,0:0:0:0:
460,192,93011,128,0,93175:0:0:0:0:
153,192,93011,1,0,0:0:0:0:
51,192,93011,1,0,0:0:0:0:
51,192,93175,128,0,93339:0:0:0:0:
153,192,93175,128,0,93339:0:0:0:0:
358,192,93175,1,0,0:0:0:0:
256,192,93339,128,0,93503:0:0:0:0:
460,192,93339,1,0,0:0:0:0:
358,192,93503,128,0,93667:0:0:0:0:
460,192,93503,128,0,94733:0:0:0:0:
51,192,93503,1,0,0:0:0:0:
153,192,93503,1,0,0:0:0:0:
153,192,93667,1,0,0:0:0:0:
51,192,93667,1,0,0:0:0:0:
358,192,93831,1,0,0:0:0:0:
256,192,93831,1,0,0:0:0:0:
256,192,93995,1,0,0:0:0:0:
358,192,93995,1,0,0:0:0:0:
51,192,94159,1,0,0:0:0:0:
153,192,94323,1,0,0:0:0:0:
256,192,94487,1,0,0:0:0:0:
358,192,94651,1,0,0:0:0:0:
153,192,94815,1,0,0:0:0:0:
51,192,94815,1,0,0:0:0:0:
460,192,94815,128,0,96126:0:0:0:0:
358,192,96126,128,0,96454:0:0:0:0:
256,192,96454,128,0,96618:0:0:0:0:
153,192,96618,128,0,96946:0:0:0:0:
51,192,96946,128,0,97274:0:0:0:0:
460,192,97274,128,0,99733:0:0:0:0:
256,192,98421,128,0,98749:0:0:0:0:
51,192,98749,128,0,99241:0:0:0:0:
256,192,99241,128,0,99733:0:0:0:0:
153,192,99733,1,0,0:0:0:0:
51,192,99733,1,0,0:0:0:0:
460,192,100061,128,0,101372:0:0:0:0:
256,192,100061,1,0,0:0:0:0:
51,192,100061,1,0,0:0:0:0:
153,192,100225,1,0,0:0:0:0:
358,192,100225,1,0,0:0:0:0:
256,192,100388,1,0,0:0:0:0:
51,192,100388,1,0,0:0:0:0:
153,192,100552,1,0,0:0:0:0:
358,192,100716,1,0,0:0:0:0:
256,192,100716,1,0,0:0:0:0:
51,192,100716,1,0,0:0:0:0:
51,192,100880,1,0,0:0:0:0:
256,192,100880,1,0,0:0:0:0:
153,192,101044,1,0,0:0:0:0:
358,192,101044,1,0,0:0:0:0:
256,192,101208,1,0,0:0:0:0:
51,192,101208,1,0,0:0:0:0:
51,192,101372,128,0,102356:0:0:0:0:
358,192,101372,1,0,0:0:0:0:
153,192,101536,1,0,0:0:0:0:
358,192,101536,1,0,0:0:0:0:
460,192,101700,1,0,0:0:0:0:
256,192,101700,1,0,0:0:0:0:
153,192,101864,128,0,102684:0:0:0:0:
358,192,101864,1,0,0:0:0:0:
460,192,102028,1,0,0:0:0:0:
256,192,102028,1,0,0:0:0:0:
460,192,102192,1,0,0:0:0:0:
358,192,102192,1,0,0:0:0:0:
256,192,102356,128,0,103011:0:0:0:0:
460,192,102356,1,0,0:0:0:0:
51,192,102520,1,0,0:0:0:0:
358,192,102520,1,0,0:0:0:0:
460,192,102684,128,0,103667:0:0:0:0:
358,192,102684,1,0,0:0:0:0:
51,192,102848,1,0,0:0:0:0:
153,192,102848,1,0,0:0:0:0:
358,192,103011,1,0,0:0:0:0:
51,192,103011,1,0,0:0:0:0:
153,192,103175,128,0,103667:0:0:0:0:
256,192,103175,1,0,0:0:0:0:
358,192,103339,1,0,0:0:0:0:
51,192,103339,1,0,0:0:0:0:
256,192,103503,1,0,0:0:0:0:
51,192,103503,1,0,0:0:0:0:
358,192,103667,128,0,103831:0:0:0:0:
256,192,103831,128,0,104651:0:0:0:0:
51,192,103831,1,0,0:0:0:0:
460,192,103831,1,0,0:0:0:0:
153,192,103995,1,0,0:0:0:0:
460,192,104159,1,0,0:0:0:0:
358,192,104323,1,0,0:0:0:0:
153,192,104323,1,0,0:0:0:0:
51,192,104323,1,0,0:0:0:0:
460,192,104487,1,0,0:0:0:0:
153,192,104487,1,0,0:0:0:0:
51,192,104651,1,0,0:0:0:0:
358,192,104651,1,0,0:0:0:0:
460,192,104815,1,0,0:0:0:0:
153,192,104815,1,0,0:0:0:0:
358,192,104897,1,0,0:0:0:0:
256,192,104979,1,0,0:0:0:0:
51,192,104979,1,0,0:0:0:0:
460,192,105061,1,0,0:0:0:0:
358,192,105143,1,0,0:0:0:0:
153,192,105143,1,0,0:0:0:0:
51,192,105225,1,0,0:0:0:0:
256,192,105307,1,0,0:0:0:0:
460,192,105307,1,0,0:0:0:0:
358,192,105470,1,0,0:0:0:0:
460,192,105634,1,0,0:0:0:0:
256,192,105798,1,0,0:0:0:0:
358,192,105962,1,0,0:0:0:0:
153,192,106126,1,0,0:0:0:0:
256,192,106290,1,0,0:0:0:0:
51,192,106454,1,0,0:0:0:0:
153,192,106618,1,0,0:0:0:0:
51,192,106782,1,0,0:0:0:0:
256,192,106946,1,0,0:0:0:0:
153,192,107110,1,0,0:0:0:0:
358,192,107274,1,0,0:0:0:0:
256,192,107438,1,0,0:0:0:0:
460,192,107602,1,0,0:0:0:0:
358,192,107766,1,0,0:0:0:0:
460,192,107929,1,0,0:0:0:0:
51,192,107929,1,0,0:0:0:0:
256,192,108093,1,0,0:0:0:0:
460,192,108257,1,0,0:0:0:0:
153,192,108421,1,0,0:0:0:0:
358,192,108585,1,0,0:0:0:0:
51,192,108749,1,0,0:0:0:0:
256,192,108913,1,0,0:0:0:0:
460,192,109077,1,0,0:0:0:0:
153,192,109241,1,0,0:0:0:0:
358,192,109405,5,0,0:0:0:0:
51,192,109569,1,0,0:0:0:0:
256,192,109733,1,0,0:0:0:0:
460,192,109897,1,0,0:0:0:0:
153,192,109897,1,0,0:0:0:0:
51,192,109897,1,0,0:0:0:0:
256,192,110061,1,0,0:0:0:0:
358,192,110225,1,0,0:0:0:0:
153,192,110225,1,0,0:0:0:0:
51,192,110225,1,0,0:0:0:0:
256,192,110388,1,0,0:0:0:0:
51,192,110552,128,0,111864:0:0:0:0:
358,192,110552,1,0,0:0:0:0:
460,192,110552,1,0,0:0:0:0:
153,192,110716,128,0,111044:0:0:0:0:
358,192,110716,1,0,0:0:0:0:
460,192,110880,1,0,0:0:0:0:
256,192,110880,1,0,0:0:0:0:
358,192,111044,128,0,111372:0:0:0:0:
460,192,111208,1,0,0:0:0:0:
153,192,111208,1,0,0:0:0:0:
153,192,111372,1,0,0:0:0:0:
358,192,111536,1,0,0:0:0:0:
153,192,111536,1,0,0:0:0:0:
460,192,111536,1,0,0:0:0:0:
256,192,111700,1,0,0:0:0:0:
460,192,111864,128,0,112520:0:0:0:0:
153,192,111864,1,0,0:0:0:0:
358,192,112028,1,0,0:0:0:0:
51,192,112028,1,0,0:0:0:0:
256,192,112192,1,0,0:0:0:0:
153,192,112356,128,0,113011:0:0:0:0:
358,192,112356,1,0,0:0:0:0:
51,192,112520,1,0,0:0:0:0:
256,192,112520,1,0,0:0:0:0:
460,192,112684,1,0,0:0:0:0:
358,192,112684,1,0,0:0:0:0:
358,192,112848,128,0,113667:0:0:0:0:
51,192,112848,1,0,0:0:0:0:
256,192,112848,1,0,0:0:0:0:
460,192,113011,1,0,0:0:0:0:
51,192,113175,128,0,114159:0:0:0:0:
256,192,113175,1,0,0:0:0:0:
153,192,113175,1,0,0:0:0:0:
460,192,113339,1,0,0:0:0:0:
256,192,113503,1,0,0:0:0:0:
153,192,113503,1,0,0:0:0:0:
460,192,113667,128,0,114323:0:0:0:0:
153,192,113667,1,0,0:0:0:0:
256,192,113831,1,0,0:0:0:0:
358,192,113831,1,0,0:0:0:0:
358,192,113995,1,0,0:0:0:0:
153,192,113995,1,0,0:0:0:0:
256,192,114159,128,0,114487:0:0:0:0:
153,192,114159,1,0,0:0:0:0:
51,192,114323,128,0,115798:0:0:0:0:
358,192,114323,1,0,0:0:0:0:
460,192,114487,1,0,0:0:0:0:
153,192,114487,1,0,0:0:0:0:
358,192,114651,5,0,0:0:0:0:
460,192,114815,1,0,0:0:0:0:
256,192,114815,1,0,0:0:0:0:
153,192,114815,1,0,0:0:0:0:
358,192,114979,1,0,0:0:0:0:
460,192,115143,1,0,0:0:0:0:
256,192,115143,1,0,0:0:0:0:
358,192,115307,1,0,0:0:0:0:
460,192,115307,1,0,0:0:0:0:
256,192,115388,1,0,0:0:0:0:
153,192,115388,1,0,0:0:0:0:
358,192,115470,1,0,0:0:0:0:
460,192,115470,1,0,0:0:0:0:
256,192,115552,1,0,0:0:0:0:
153,192,115552,1,0,0:0:0:0:
358,192,115634,1,0,0:0:0:0:
460,192,115634,1,0,0:0:0:0:
256,192,115716,1,0,0:0:0:0:
153,192,115716,1,0,0:0:0:0:
460,192,115798,128,0,116290:0:0:0:0:
358,192,115798,1,0,0:0:0:0:
256,192,115962,128,0,116454:0:0:0:0:
51,192,115962,1,0,0:0:0:0:
51,192,116126,128,0,116618:0:0:0:0:
358,192,116126,1,0,0:0:0:0:
358,192,116290,128,0,116782:0:0:0:0:
153,192,116290,1,0,0:0:0:0:
153,192,116454,128,0,116946:0:0:0:0:
460,192,116454,1,0,0:0:0:0:
460,192,116618,128,0,117110:0:0:0:0:
256,192,116618,1,0,0:0:0:0:
256,192,116782,128,0,117274:0:0:0:0:
51,192,116782,1,0,0:0:0:0:
358,192,116946,1,0,0:0:0:0:
51,192,116946,128,0,117602:0:0:0:0:
358,192,117110,128,0,117602:0:0:0:0:
153,192,117110,1,0,0:0:0:0:
153,192,117274,128,0,117602:0:0:0:0:
460,192,117274,1,0,0:0:0:0:
460,192,117438,128,0,117602:0:0:0:0:
256,192,117438,1,0,0:0:0:0:
256,192,117602,128,0,117766:0:0:0:0:
460,192,117766,128,0,118011:0:0:0:0:
358,192,117766,128,0,117848:0:0:0:0:
51,192,117766,128,0,118011:0:0:0:0:
153,192,117766,128,0,117848:0:0:0:0:
256,192,117929,1,0,0:0:0:0:
153,192,117929,1,0,0:0:0:0:
358,192,117929,1,0,0:0:0:0:
358,192,118093,128,0,118257:0:0:0:0:
460,192,118093,128,0,118257:0:0:0:0:
153,192,118093,128,0,118257:0:0:0:0:
51,192,118093,128,0,118257:0:0:0:0:
256,192,118093,128,0,118257:0:0:0:0:
153,192,118421,1,0,0:0:0:0:
358,192,118421,1,0,0:0:0:0:
256,192,118585,128,0,119077:0:0:0:0:
51,192,118585,1,0,0:0:0:0:
51,192,118749,128,0,119241:0:0:0:0:
358,192,118749,1,0,0:0:0:0:
358,192,118913,128,0,119405:0:0:0:0:
153,192,118913,1,0,0:0:0:0:
153,192,119077,128,0,119569:0:0:0:0:
460,192,119077,1,0,0:0:0:0:
460,192,119241,128,0,119733:0:0:0:0:
256,192,119241,1,0,0:0:0:0:
256,192,119405,128,0,119897:0:0:0:0:
51,192,119405,1,0,0:0:0:0:
358,192,119569,1,0,0:0:0:0:
51,192,119569,128,0,120225:0:0:0:0:
358,192,119733,128,0,120225:0:0:0:0:
153,192,119733,1,0,0:0:0:0:
153,192,119897,128,0,120225:0:0:0:0:
460,192,119897,1,0,0:0:0:0:
460,192,120061,128,0,120225:0:0:0:0:
256,192,120061,1,0,0:0:0:0:
256,192,120225,128,0,120388:0:0:0:0:
460,192,120388,128,0,120634:0:0:0:0:
358,192,120388,128,0,120470:0:0:0:0:
51,192,120388,128,0,120634:0:0:0:0:
153,192,120388,128,0,120470:0:0:0:0:
256,192,120552,1,0,0:0:0:0:
153,192,120552,1,0,0:0:0:0:
358,192,120552,1,0,0:0:0:0:
358,192,120716,128,0,120880:0:0:0:0:
460,192,120716,128,0,120880:0:0:0:0:
153,192,120716,128,0,120880:0:0:0:0:
51,192,120716,128,0,120880:0:0:0:0:
256,192,120716,128,0,120880:0:0:0:0:
460,192,121044,128,0,121126:0:0:0:0:
51,192,121044,128,0,121208:0:0:0:0:
256,192,121044,1,0,0:0:0:0:
460,192,121208,128,0,121290:0:0:0:0:
153,192,121208,128,0,121372:0:0:0:0:
358,192,121208,1,0,0:0:0:0:
256,192,121372,128,0,121536:0:0:0:0:
460,192,121372,128,0,121454:0:0:0:0:
51,192,121372,1,0,0:0:0:0:
460,192,121536,128,0,121618:0:0:0:0:
358,192,121536,128,0,121700:0:0:0:0:
153,192,121536,1,0,0:0:0:0:
460,192,121700,1,0,0:0:0:0:
256,192,121700,1,0,0:0:0:0:
153,192,121700,128,0,121864:0:0:0:0:
256,192,121864,1,0,0:0:0:0:
51,192,121864,128,0,121946:0:0:0:0:
358,192,121864,128,0,122028:0:0:0:0:
256,192,122028,1,0,0:0:0:0:
153,192,122028,128,0,122110:0:0:0:0:
460,192,122028,128,0,122192:0:0:0:0:
51,192,122192,128,0,122356:0:0:0:0:
358,192,122192,1,0,0:0:0:0:
153,192,122192,128,0,122274:0:0:0:0:
153,192,122356,128,0,122438:0:0:0:0:
460,192,122356,128,0,122520:0:0:0:0:
256,192,122356,1,0,0:0:0:0:
51,192,122520,1,0,0:0:0:0:
358,192,122520,128,0,122684:0:0:0:0:
153,192,122684,128,0,122766:0:0:0:0:
256,192,122684,128,0,122848:0:0:0:0:
460,192,122684,128,0,122766:0:0:0:0:
358,192,122848,128,0,123011:0:0:0:0:
153,192,122848,1,0,0:0:0:0:
51,192,123011,128,0,123093:0:0:0:0:
460,192,123011,128,0,123175:0:0:0:0:
256,192,123011,1,0,0:0:0:0:
51,192,123175,128,0,123257:0:0:0:0:
358,192,123175,128,0,123339:0:0:0:0:
153,192,123175,1,0,0:0:0:0:
51,192,123339,128,0,123421:0:0:0:0:
256,192,123339,128,0,123503:0:0:0:0:
460,192,123339,1,0,0:0:0:0:
153,192,123503,128,0,123667:0:0:0:0:
51,192,123503,128,0,123585:0:0:0:0:
460,192,123503,128,0,123585:0:0:0:0:
51,192,123667,1,0,0:0:0:0:
358,192,123667,1,0,0:0:0:0:
460,192,123667,1,0,0:0:0:0:
256,192,123749,1,0,0:0:0:0:
358,192,123831,1,0,0:0:0:0:
460,192,123831,1,0,0:0:0:0:
153,192,123831,1,0,0:0:0:0:
256,192,123913,1,0,0:0:0:0:
358,192,123995,1,0,0:0:0:0:
460,192,123995,1,0,0:0:0:0:
51,192,123995,1,0,0:0:0:0:
256,192,124077,1,0,0:0:0:0:
358,192,124159,1,0,0:0:0:0:
460,192,124159,1,0,0:0:0:0:
153,192,124159,1,0,0:0:0:0:
256,192,124241,1,0,0:0:0:0:
153,192,124323,1,0,0:0:0:0:
51,192,124323,1,0,0:0:0:0:
358,192,124323,1,0,0:0:0:0:
256,192,124405,1,0,0:0:0:0:
153,192,124487,1,0,0:0:0:0:
51,192,124487,1,0,0:0:0:0:
460,192,124487,1,0,0:0:0:0:
256,192,124569,1,0,0:0:0:0:
153,192,124651,1,0,0:0:0:0:
51,192,124651,1,0,0:0:0:0:
358,192,124651,1,0,0:0:0:0:
256,192,124733,1,0,0:0:0:0:
153,192,124815,1,0,0:0:0:0:
51,192,124815,1,0,0:0:0:0:
460,192,124815,1,0,0:0:0:0:
256,192,124897,1,0,0:0:0:0:
51,192,124979,1,0,0:0:0:0:
153,192,124979,1,0,0:0:0:0:
460,192,124979,1,0,0:0:0:0:
358,192,124979,1,0,0:0:0:0:
460,192,125143,1,0,0:0:0:0:
153,192,125143,1,0,0:0:0:0:
51,192,125143,1,0,0:0:0:0:
358,192,125143,1,0,0:0:0:0:
358,192,125634,1,0,0:0:0:0:
256,192,125634,1,0,0:0:0:0:
51,192,125634,1,0,0:0:0:0:
153,192,125634,1,0,0:0:0:0:
358,192,125798,1,0,0:0:0:0:
256,192,125798,1,0,0:0:0:0:
51,192,125798,1,0,0:0:0:0:
153,192,125798,1,0,0:0:0:0:
256,192,125962,128,0,126290:0:0:0:0:
460,192,126290,128,0,127602:0:0:0:0:
358,192,126290,128,0,126372:0:0:0:0:
51,192,126290,128,0,126372:0:0:0:0:
256,192,126372,128,0,126454:0:0:0:0:
153,192,126454,128,0,126536:0:0:0:0:
51,192,126454,128,0,126536:0:0:0:0:
358,192,126536,128,0,126618:0:0:0:0:
256,192,126618,128,0,126700:0:0:0:0:
153,192,126618,128,0,126700:0:0:0:0:
51,192,126700,128,0,126782:0:0:0:0:
256,192,126782,128,0,126864:0:0:0:0:
358,192,126782,128,0,126864:0:0:0:0:
51,192,126864,128,0,126946:0:0:0:0:
358,192,126946,128,0,127028:0:0:0:0:
153,192,126946,128,0,127028:0:0:0:0:
256,192,127028,128,0,127110:0:0:0:0:
358,192,127110,128,0,127192:0:0:0:0:
51,192,127110,128,0,127192:0:0:0:0:
153,192,127192,128,0,127274:0:0:0:0:
256,192,127274,128,0,127356:0:0:0:0:
51,192,127274,128,0,127356:0:0:0:0:
358,192,127356,128,0,127438:0:0:0:0:
153,192,127438,128,0,127520:0:0:0:0:
256,192,127520,128,0,127602:0:0:0:0:
51,192,127602,128,0,128913:0:0:0:0:
358,192,127602,128,0,127684:0:0:0:0:
153,192,127684,128,0,127766:0:0:0:0:
256,192,127766,128,0,127848:0:0:0:0:
358,192,127766,128,0,127848:0:0:0:0:
460,192,127848,128,0,127929:0:0:0:0:
256,192,127929,128,0,128011:0:0:0:0:
153,192,127929,128,0,128011:0:0:0:0:
358,192,128011,128,0,128093:0:0:0:0:
256,192,128093,128,0,128175:0:0:0:0:
153,192,128093,128,0,128175:0:0:0:0:
460,192,128175,128,0,128257:0:0:0:0:
256,192,128257,128,0,128339:0:0:0:0:
153,192,128257,128,0,128339:0:0:0:0:
358,192,128339,128,0,128421:0:0:0:0:
153,192,128421,128,0,128503:0:0:0:0:
460,192,128421,128,0,128503:0:0:0:0:
256,192,128503,128,0,128585:0:0:0:0:
358,192,128585,128,0,128667:0:0:0:0:
460,192,128585,128,0,128667:0:0:0:0:
256,192,128667,128,0,128749:0:0:0:0:
153,192,128749,128,0,128831:0:0:0:0:
460,192,128749,128,0,128831:0:0:0:0:
358,192,128831,128,0,128913:0:0:0:0:
256,192,128913,128,0,130225:0:0:0:0:
153,192,128913,128,0,128995:0:0:0:0:
460,192,128913,1,0,0:0:0:0:
358,192,128995,128,0,129077:0:0:0:0:
460,192,129077,128,0,129159:0:0:0:0:
51,192,129077,128,0,129159:0:0:0:0:
358,192,129159,128,0,129241:0:0:0:0:
51,192,129241,128,0,129323:0:0:0:0:
460,192,129241,128,0,129323:0:0:0:0:
153,192,129323,128,0,129405:0:0:0:0:
358,192,129405,128,0,129487:0:0:0:0:
51,192,129405,128,0,129487:0:0:0:0:
460,192,129487,128,0,129569:0:0:0:0:
51,192,129569,128,0,129651:0:0:0:0:
153,192,129569,128,0,129651:0:0:0:0:
358,192,129651,128,0,129733:0:0:0:0:
51,192,129733,128,0,129815:0:0:0:0:
460,192,129733,128,0,129815:0:0:0:0:
153,192,129815,128,0,129897:0:0:0:0:
358,192,129897,128,0,129979:0:0:0:0:
460,192,129897,128,0,129979:0:0:0:0:
51,192,129979,128,0,130061:0:0:0:0:
153,192,130061,128,0,130143:0:0:0:0:
358,192,130061,128,0,130143:0:0:0:0:
460,192,130225,128,0,131536:0:0:0:0:
51,192,130225,128,0,130307:0:0:0:0:
358,192,130225,1,0,0:0:0:0:
256,192,130307,128,0,130388:0:0:0:0:
153,192,130388,128,0,130470:0:0:0:0:
51,192,130388,128,0,130470:0:0:0:0:
358,192,130470,128,0,130552:0:0:0:0:
256,192,130552,128,0,130634:0:0:0:0:
153,192,130552,128,0,130634:0:0:0:0:
358,192,130634,128,0,130716:0:0:0:0:
51,192,130716,128,0,130798:0:0:0:0:
153,192,130716,128,0,130798:0:0:0:0:
256,192,130798,128,0,130880:0:0:0:0:
358,192,130880,128,0,130962:0:0:0:0:
51,192,130880,128,0,130962:0:0:0:0:
153,192,130962,128,0,131044:0:0:0:0:
256,192,131044,128,0,131126:0:0:0:0:
358,192,131044,128,0,131126:0:0:0:0:
51,192,131126,128,0,131208:0:0:0:0:
153,192,131208,128,0,131290:0:0:0:0:
358,192,131208,128,0,131290:0:0:0:0:
256,192,131290,128,0,131372:0:0:0:0:
153,192,131372,128,0,131454:0:0:0:0:
51,192,131372,128,0,131454:0:0:0:0:
358,192,131454,128,0,131536:0:0:0:0:
51,192,131536,128,0,132684:0:0:0:0:
256,192,131536,128,0,132028:0:0:0:0:
358,192,131700,1,0,0:0:0:0:
460,192,131864,128,0,132192:0:0:0:0:
153,192,132028,128,0,132848:0:0:0:0:
358,192,132028,1,0,0:0:0:0:
256,192,132192,1,0,0:0:0:0:
358,192,132192,1,0,0:0:0:0:
256,192,132356,1,0,0:0:0:0:
358,192,132520,128,0,132848:0:0:0:0:
460,192,132520,128,0,132684:0:0:0:0:
256,192,132684,1,0,0:0:0:0:
460,192,132848,128,0,134159:0:0:0:0:
256,192,132848,128,0,133339:0:0:0:0:
51,192,132848,1,0,0:0:0:0:
153,192,133011,1,0,0:0:0:0:
51,192,133175,128,0,133503:0:0:0:0:
358,192,133339,128,0,134159:0:0:0:0:
153,192,133339,1,0,0:0:0:0:
256,192,133503,1,0,0:0:0:0:
153,192,133503,1,0,0:0:0:0:
256,192,133667,1,0,0:0:0:0:
153,192,133831,128,0,134159:0:0:0:0:
51,192,133831,128,0,133995:0:0:0:0:
256,192,133995,1,0,0:0:0:0:
51,192,134159,128,0,135143:0:0:0:0:
256,192,134159,1,0,0:0:0:0:
153,192,134323,1,0,0:0:0:0:
256,192,134487,1,0,0:0:0:0:
358,192,134487,1,0,0:0:0:0:
460,192,134487,1,0,0:0:0:0:
153,192,134651,1,0,0:0:0:0:
256,192,134815,1,0,0:0:0:0:
358,192,134815,1,0,0:0:0:0:
460,192,134815,1,0,0:0:0:0:
153,192,134979,128,0,135143:0:0:0:0:
460,192,135143,1,0,0:0:0:0:
358,192,135143,1,0,0:0:0:0:
256,192,135143,128,0,135307:0:0:0:0:
460,192,135307,128,0,136126:0:0:0:0:
153,192,135307,1,0,0:0:0:0:
51,192,135470,128,0,135552:0:0:0:0:
153,192,135470,128,0,135552:0:0:0:0:
153,192,135634,128,0,135716:0:0:0:0:
256,192,135634,128,0,135716:0:0:0:0:
256,192,135798,128,0,135880:0:0:0:0:
358,192,135798,128,0,135880:0:0:0:0:
256,192,135962,128,0,136044:0:0:0:0:
153,192,135962,128,0,136044:0:0:0:0:
51,192,136126,1,0,0:0:0:0:
358,192,136126,128,0,136372:0:0:0:0:
153,192,136208,1,0,0:0:0:0:
460,192,136290,1,0,0:0:0:0:
256,192,136290,128,0,136536:0:0:0:0:
51,192,136372,1,0,0:0:0:0:
358,192,136454,1,0,0:0:0:0:
153,192,136454,128,0,136700:0:0:0:0:
460,192,136536,1,0,0:0:0:0:
256,192,136618,1,0,0:0:0:0:
51,192,136618,128,0,136864:0:0:0:0:
358,192,136700,1,0,0:0:0:0:
153,192,136782,128,0,136946:0:0:0:0:
460,192,136782,1,0,0:0:0:0:
256,192,136864,128,0,136946:0:0:0:0:
51,192,136946,128,0,137110:0:0:0:0:
358,192,136946,1,0,0:0:0:0:
153,192,137028,128,0,137110:0:0:0:0:
460,192,137110,128,0,137274:0:0:0:0:
256,192,137110,1,0,0:0:0:0:
51,192,137192,128,0,137274:0:0:0:0:
358,192,137274,128,0,137438:0:0:0:0:
153,192,137274,1,0,0:0:0:0:
460,192,137356,128,0,137438:0:0:0:0:
256,192,137438,128,0,137602:0:0:0:0:
51,192,137438,1,0,0:0:0:0:
358,192,137520,128,0,137602:0:0:0:0:
153,192,137602,128,0,137766:0:0:0:0:
460,192,137602,1,0,0:0:0:0:
256,192,137684,128,0,137766:0:0:0:0:
51,192,137766,128,0,137929:0:0:0:0:
358,192,137766,1,0,0:0:0:0:
153,192,137848,128,0,137929:0:0:0:0:
256,192,137929,128,0,138093:0:0:0:0:
460,192,137929,1,0,0:0:0:0:
153,192,138011,128,0,138093:0:0:0:0:
358,192,138093,128,0,138257:0:0:0:0:
51,192,138093,1,0,0:0:0:0:
256,192,138175,128,0,138257:0:0:0:0:
460,192,138257,128,0,138421:0:0:0:0:
153,192,138257,1,0,0:0:0:0:
358,192,138339,128,0,138421:0:0:0:0:
51,192,138421,128,0,138585:0:0:0:0:
256,192,138421,1,0,0:0:0:0:
460,192,138503,128,0,138585:0:0:0:0:
153,192,138585,128,0,138749:0:0:0:0:
358,192,138585,1,0,0:0:0:0:
51,192,138667,128,0,138749:0:0:0:0:
256,192,138749,128,0,138913:0:0:0:0:
460,192,138749,1,0,0:0:0:0:
153,192,138831,128,0,138913:0:0:0:0:
358,192,138913,128,0,139077:0:0:0:0:
51,192,138913,1,0,0:0:0:0:
256,192,138995,128,0,139077:0:0:0:0:
153,192,139077,128,0,139241:0:0:0:0:
460,192,139077,1,0,0:0:0:0:
358,192,139159,128,0,139241:0:0:0:0:
256,192,139241,128,0,139405:0:0:0:0:
51,192,139241,1,0,0:0:0:0:
358,192,139323,128,0,139405:0:0:0:0:
153,192,139405,128,0,139569:0:0:0:0:
460,192,139405,1,0,0:0:0:0:
256,192,139487,128,0,139569:0:0:0:0:
51,192,139569,128,0,139733:0:0:0:0:
358,192,139569,1,0,0:0:0:0:
153,192,139651,128,0,139733:0:0:0:0:
256,192,139733,128,0,139897:0:0:0:0:
460,192,139733,1,0,0:0:0:0:
51,192,139815,128,0,139897:0:0:0:0:
153,192,139897,128,0,140061:0:0:0:0:
358,192,139897,1,0,0:0:0:0:
460,192,139979,128,0,140061:0:0:0:0:
256,192,140061,128,0,140225:0:0:0:0:
51,192,140061,1,0,0:0:0:0:
358,192,140143,128,0,140225:0:0:0:0:
153,192,140225,128,0,140388:0:0:0:0:
460,192,140225,1,0,0:0:0:0:
256,192,140307,128,0,140388:0:0:0:0:
51,192,140388,128,0,140552:0:0:0:0:
358,192,140388,1,0,0:0:0:0:
153,192,140470,128,0,140552:0:0:0:0:
460,192,140552,128,0,141044:0:0:0:0:
256,192,140552,128,0,140716:0:0:0:0:
358,192,140716,1,0,0:0:0:0:
153,192,140716,1,0,0:0:0:0:
51,192,140716,1,0,0:0:0:0:
51,192,140880,128,0,141372:0:0:0:0:
256,192,140880,128,0,140962:0:0:0:0:
153,192,141044,128,0,141372:0:0:0:0:
358,192,141044,128,0,141126:0:0:0:0:
256,192,141208,128,0,141700:0:0:0:0:
460,192,141208,128,0,141290:0:0:0:0:
358,192,141372,128,0,141536:0:0:0:0:
460,192,141372,1,0,0:0:0:0:
153,192,141536,1,0,0:0:0:0:
460,192,141536,1,0,0:0:0:0:
460,192,141700,128,0,141864:0:0:0:0:
358,192,141700,1,0,0:0:0:0:
51,192,141700,1,0,0:0:0:0:
153,192,141700,1,0,0:0:0:0:
256,192,141864,128,0,142028:0:0:0:0:
51,192,141864,1,0,0:0:0:0:
460,192,142028,128,0,143339:0:0:0:0:
358,192,142028,128,0,142192:0:0:0:0:
153,192,142028,128,0,142192:0:0:0:0:
256,192,142192,128,0,142356:0:0:0:0:
51,192,142192,128,0,142520:0:0:0:0:
153,192,142356,1,0,0:0:0:0:
358,192,142356,128,0,142520:0:0:0:0:
153,192,142520,128,0,142848:0:0:0:0:
256,192,142520,128,0,142848:0:0:0:0:
358,192,142684,128,0,143011:0:0:0:0:
51,192,142684,128,0,142848:0:0:0:0:
153,192,143011,1,0,0:0:0:0:
256,192,143011,128,0,143339:0:0:0:0:
51,192,143011,128,0,144487:0:0:0:0:
153,192,143175,128,0,143339:0:0:0:0:
358,192,143175,128,0,143667:0:0:0:0:
460,192,143503,128,0,144159:0:0:0:0:
256,192,143503,128,0,143667:0:0:0:0:
153,192,143503,128,0,143995:0:0:0:0:
358,192,143831,128,0,143995:0:0:0:0:
256,192,143831,128,0,144487:0:0:0:0:
153,192,144159,1,0,0:0:0:0:
358,192,144159,128,0,144323:0:0:0:0:
153,192,144323,128,0,144651:0:0:0:0:
460,192,144323,128,0,144651:0:0:0:0:
358,192,144487,128,0,145962:0:0:0:0:
51,192,144651,1,0,0:0:0:0:
256,192,144651,1,0,0:0:0:0:
256,192,144815,1,0,0:0:0:0:
51,192,144815,1,0,0:0:0:0:
51,192,144979,1,0,0:0:0:0:
256,192,144979,1,0,0:0:0:0:
460,192,144979,1,0,0:0:0:0:
256,192,145143,1,0,0:0:0:0:
51,192,145143,1,0,0:0:0:0:
256,192,145307,1,0,0:0:0:0:
51,192,145307,1,0,0:0:0:0:
460,192,145307,1,0,0:0:0:0:
256,192,145470,1,0,0:0:0:0:
51,192,145470,1,0,0:0:0:0:
256,192,145634,1,0,0:0:0:0:
51,192,145634,1,0,0:0:0:0:
460,192,145634,1,0,0:0:0:0:
256,192,145798,1,0,0:0:0:0:
51,192,145798,1,0,0:0:0:0:
153,192,145962,1,0,0:0:0:0:
460,192,145962,1,0,0:0:0:0:
51,192,145962,128,0,146290:0:0:0:0:
358,192,146126,1,0,0:0:0:0:
460,192,146126,1,0,0:0:0:0:
256,192,146208,1,0,0:0:0:0:
153,192,146290,1,0,0:0:0:0:
460,192,146290,128,0,146782:0:0:0:0:
358,192,146290,1,0,0:0:0:0:
153,192,146454,1,0,0:0:0:0:
51,192,146454,1,0,0:0:0:0:
256,192,146454,1,0,0:0:0:0:
153,192,146782,1,0,0:0:0:0:
358,192,146782,1,0,0:0:0:0:
256,192,146946,1,0,0:0:0:0:
51,192,146946,1,0,0:0:0:0:
153,192,147110,1,0,0:0:0:0:
358,192,147110,1,0,0:0:0:0:
460,192,147110,1,0,0:0:0:0:
51,192,147274,128,0,147602:0:0:0:0:
153,192,147274,1,0,0:0:0:0:
358,192,147274,1,0,0:0:0:0:
460,192,147274,1,0,0:0:0:0:
256,192,147438,1,0,0:0:0:0:
358,192,147602,1,0,0:0:0:0:
153,192,147766,1,0,0:0:0:0:
358,192,147929,1,0,0:0:0:0:
153,192,148093,1,0,0:0:0:0:
256,192,148257,1,0,0:0:0:0:
460,192,148421,128,0,148749:0:0:0:0:
153,192,148749,1,0,0:0:0:0:
358,192,148913,1,0,0:0:0:0:
153,192,149077,1,0,0:0:0:0:
358,192,149241,1,0,0:0:0:0:
358,192,149405,1,0,0:0:0:0:
460,192,149569,128,0,149897:0:0:0:0:
153,192,149897,128,0,149979:0:0:0:0:
153,192,150061,128,0,150143:0:0:0:0:
358,192,150225,1,0,0:0:0:0:
153,192,150388,1,0,0:0:0:0:
358,192,150552,1,0,0:0:0:0:
153,192,150716,1,0,0:0:0:0:
358,192,150880,1,0,0:0:0:0:
51,192,151044,128,0,151372:0:0:0:0:
460,192,151372,1,0,0:0:0:0:
153,192,151536,1,0,0:0:0:0:
460,192,151700,1,0,0:0:0:0:
153,192,151864,1,0,0:0:0:0:
358,192,152028,128,0,152356:0:0:0:0:
153,192,152356,1,0,0:0:0:0:
256,192,152438,1,0,0:0:0:0:
153,192,152520,1,0,0:0:0:0:
51,192,152520,1,0,0:0:0:0:
460,192,152520,1,0,0:0:0:0:
358,192,152520,1,0,0:0:0:0:
51,192,152684,1,0,0:0:0:0:
153,192,152684,1,0,0:0:0:0:
358,192,152684,1,0,0:0:0:0:
460,192,152684,1,0,0:0:0:0:
256,192,152848,1,0,0:0:0:0:
460,192,153011,1,0,0:0:0:0:
256,192,153175,1,0,0:0:0:0:
51,192,153339,1,0,0:0:0:0:
460,192,153503,1,0,0:0:0:0:
256,192,153667,1,0,0:0:0:0:
51,192,153831,1,0,0:0:0:0:
460,192,153995,1,0,0:0:0:0:
256,192,154159,1,0,0:0:0:0:
51,192,154323,1,0,0:0:0:0:
460,192,154487,1,0,0:0:0:0:
358,192,154487,1,0,0:0:0:0:
256,192,154651,1,0,0:0:0:0:
51,192,154815,1,0,0:0:0:0:
153,192,154815,1,0,0:0:0:0:
460,192,154979,1,0,0:0:0:0:
358,192,154979,1,0,0:0:0:0:
256,192,155143,1,0,0:0:0:0:
51,192,155307,1,0,0:0:0:0:
153,192,155307,1,0,0:0:0:0:
358,192,155470,128,0,155552:0:0:0:0:
460,192,155470,128,0,155552:0:0:0:0:
256,192,155634,128,0,155716:0:0:0:0:
153,192,155798,128,0,155880:0:0:0:0:
51,192,155798,128,0,155880:0:0:0:0:
460,192,155962,128,0,156126:0:0:0:0:
358,192,155962,128,0,156126:0:0:0:0:
256,192,156126,128,0,156290:0:0:0:0:
153,192,156290,128,0,156454:0:0:0:0:
51,192,156290,128,0,156454:0:0:0:0:
256,192,156454,1,0,0:0:0:0:
358,192,156454,1,0,0:0:0:0:
460,192,156454,1,0,0:0:0:0:
51,192,156618,1,0,0:0:0:0:
256,192,156618,1,0,0:0:0:0:
153,192,156700,1,0,0:0:0:0:
358,192,156700,1,0,0:0:0:0:
256,192,156782,1,0,0:0:0:0:
51,192,156782,1,0,0:0:0:0:
460,192,156946,1,0,0:0:0:0:
51,192,156946,1,0,0:0:0:0:
153,192,156946,1,0,0:0:0:0:
256,192,157028,1,0,0:0:0:0:
460,192,157110,1,0,0:0:0:0:
51,192,157110,1,0,0:0:0:0:
358,192,157110,1,0,0:0:0:0:
153,192,157192,1,0,0:0:0:0:
358,192,157274,1,0,0:0:0:0:
460,192,157274,1,0,0:0:0:0:
51,192,157274,1,0,0:0:0:0:
256,192,157274,1,0,0:0:0:0:
256,192,157438,1,0,0:0:0:0:
153,192,157438,1,0,0:0:0:0:
51,192,157438,1,0,0:0:0:0:
256,192,157602,1,0,0:0:0:0:
358,192,157602,1,0,0:0:0:0:
460,192,157602,1,0,0:0:0:0:
51,192,157602,1,0,0:0:0:0:
358,192,157766,128,0,158093:0:0:0:0:
460,192,157766,128,0,157929:0:0:0:0:
51,192,157766,128,0,158175:0:0:0:0:
153,192,157929,128,0,158175:0:0:0:0:
256,192,157929,1,0,0:0:0:0:
460,192,158093,128,0,158257:0:0:0:0:
256,192,158093,128,0,158503:0:0:0:0:
358,192,158257,1,0,0:0:0:0:
51,192,158257,128,0,158749:0:0:0:0:
153,192,158421,1,0,0:0:0:0:
460,192,158585,128,0,158749:0:0:0:0:
256,192,158585,128,0,158667:0:0:0:0:
358,192,158749,128,0,158913:0:0:0:0:
153,192,158749,128,0,158831:0:0:0:0:
256,192,158913,128,0,159077:0:0:0:0:
51,192,158913,128,0,158995:0:0:0:0:
153,192,159077,128,0,159323:0:0:0:0:
460,192,159077,1,0,0:0:0:0:
358,192,159241,128,0,159487:0:0:0:0:
51,192,159241,1,0,0:0:0:0:
256,192,159405,128,0,159651:0:0:0:0:
153,192,159405,1,0,0:0:0:0:
460,192,159569,128,0,160061:0:0:0:0:
51,192,159569,1,0,0:0:0:0:
358,192,159569,1,0,0:0:0:0:
51,192,159733,128,0,159979:0:0:0:0:
153,192,159733,128,0,159979:0:0:0:0:
256,192,159733,128,0,159979:0:0:0:0:
358,192,159733,128,0,159979:0:0:0:0:
51,192,160061,1,0,0:0:0:0:
153,192,160061,1,0,0:0:0:0:
256,192,160061,1,0,0:0:0:0:
358,192,160061,1,0,0:0:0:0:
153,192,160388,1,0,0:0:0:0:
51,192,160388,128,0,160552:0:0:0:0:
358,192,160388,128,0,160552:0:0:0:0:
460,192,160388,128,0,160552:0:0:0:0:
51,192,160716,128,0,160880:0:0:0:0:
153,192,160716,128,0,161044:0:0:0:0:
460,192,160716,128,0,161290:0:0:0:0:
358,192,160880,128,0,161044:0:0:0:0:
256,192,160880,1,0,0:0:0:0:
256,192,161044,128,0,161290:0:0:0:0:
51,192,161044,1,0,0:0:0:0:
358,192,161208,128,0,161454:0:0:0:0:
153,192,161208,1,0,0:0:0:0:
460,192,161372,128,0,161618:0:0:0:0:
256,192,161372,1,0,0:0:0:0:
51,192,161372,128,0,161618:0:0:0:0:
358,192,161536,1,0,0:0:0:0:
153,192,161536,128,0,161864:0:0:0:0:
256,192,161700,1,0,0:0:0:0:
460,192,161700,128,0,161864:0:0:0:0:
51,192,161700,128,0,161864:0:0:0:0:
256,192,161864,128,0,162274:0:0:0:0:
358,192,161864,1,0,0:0:0:0:
358,192,162028,128,0,162274:0:0:0:0:
51,192,162028,128,0,162356:0:0:0:0:
460,192,162028,128,0,162274:0:0:0:0:
153,192,162028,128,0,162274:0:0:0:0:
153,192,162356,1,0,0:0:0:0:
256,192,162356,1,0,0:0:0:0:
358,192,162356,1,0,0:0:0:0:
460,192,162356,1,0,0:0:0:0:
51,192,162684,128,0,162848:0:0:0:0:
256,192,162684,128,0,162848:0:0:0:0:
460,192,162684,128,0,162848:0:0:0:0:
460,192,163011,128,0,163339:0:0:0:0:
153,192,163011,128,0,163093:0:0:0:0:
256,192,163011,128,0,163093:0:0:0:0:
51,192,163011,128,0,163749:0:0:0:0:
256,192,163175,128,0,163503:0:0:0:0:
153,192,163175,128,0,163257:0:0:0:0:
153,192,163339,1,0,0:0:0:0:
358,192,163339,128,0,163831:0:0:0:0:
153,192,163503,128,0,164241:0:0:0:0:
460,192,163503,1,0,0:0:0:0:
460,192,163667,1,0,0:0:0:0:
51,192,163831,1,0,0:0:0:0:
256,192,163831,128,0,163995:0:0:0:0:
358,192,163995,1,0,0:0:0:0:
460,192,163995,128,0,164241:0:0:0:0:
51,192,163995,128,0,164405:0:0:0:0:
358,192,164159,128,0,164405:0:0:0:0:
256,192,164159,1,0,0:0:0:0:
256,192,164323,128,0,164569:0:0:0:0:
153,192,164323,1,0,0:0:0:0:
460,192,164323,1,0,0:0:0:0:
153,192,164487,128,0,164733:0:0:0:0:
51,192,164487,1,0,0:0:0:0:
358,192,164487,1,0,0:0:0:0:
256,192,164651,1,0,0:0:0:0:
460,192,164651,128,0,164897:0:0:0:0:
153,192,164815,1,0,0:0:0:0:
358,192,164815,128,0,165225:0:0:0:0:
256,192,164979,128,0,165225:0:0:0:0:
153,192,164979,128,0,165225:0:0:0:0:
51,192,164979,128,0,165225:0:0:0:0:
460,192,164979,128,0,165307:0:0:0:0:
51,192,165307,1,0,0:0:0:0:
153,192,165307,1,0,0:0:0:0:
256,192,165307,1,0,0:0:0:0:
358,192,165307,1,0,0:0:0:0:
51,192,165634,128,0,165880:0:0:0:0:
153,192,165634,128,0,165880:0:0:0:0:
256,192,165634,1,0,0:0:0:0:
358,192,165634,128,0,165880:0:0:0:0:
460,192,165634,128,0,165880:0:0:0:0:
153,192,165962,128,0,166290:0:0:0:0:
51,192,165962,128,0,166126:0:0:0:0:
460,192,165962,128,0,166372:0:0:0:0:
358,192,166126,128,0,166372:0:0:0:0:
256,192,166126,1,0,0:0:0:0:
51,192,166290,128,0,166454:0:0:0:0:
256,192,166290,128,0,166536:0:0:0:0:
460,192,166454,128,0,166946:0:0:0:0:
153,192,166454,128,0,166618:0:0:0:0:
358,192,166454,128,0,166700:0:0:0:0:
256,192,166618,128,0,166782:0:0:0:0:
51,192,166618,1,0,0:0:0:0:
358,192,166782,128,0,166946:0:0:0:0:
153,192,166782,1,0,0:0:0:0:
256,192,166946,1,0,0:0:0:0:
51,192,166946,128,0,167192:0:0:0:0:
153,192,167110,128,0,167356:0:0:0:0:
358,192,167110,1,0,0:0:0:0:
256,192,167274,128,0,167520:0:0:0:0:
460,192,167274,128,0,167520:0:0:0:0:
358,192,167274,128,0,167520:0:0:0:0:
51,192,167274,128,0,167602:0:0:0:0:
153,192,167438,1,0,0:0:0:0:
460,192,167602,1,0,0:0:0:0:
358,192,167602,1,0,0:0:0:0:
256,192,167602,1,0,0:0:0:0:
153,192,167602,1,0,0:0:0:0:
460,192,167929,1,0,0:0:0:0:
358,192,167929,1,0,0:0:0:0:
153,192,167929,1,0,0:0:0:0:
51,192,167929,1,0,0:0:0:0:
153,192,168175,1,0,0:0:0:0:
51,192,168175,1,0,0:0:0:0:
358,192,168257,1,0,0:0:0:0:
460,192,168257,128,0,168503:0:0:0:0:
153,192,168421,1,0,0:0:0:0:
256,192,168421,128,0,168667:0:0:0:0:
358,192,168585,1,0,0:0:0:0:
51,192,168585,128,0,168831:0:0:0:0:
460,192,168585,128,0,168831:0:0:0:0:
153,192,168749,1,0,0:0:0:0:
256,192,168749,128,0,168995:0:0:0:0:
51,192,168913,128,0,169159:0:0:0:0:
460,192,168913,128,0,169159:0:0:0:0:
358,192,169077,1,0,0:0:0:0:
256,192,169077,128,0,169323:0:0:0:0:
153,192,169241,1,0,0:0:0:0:
51,192,169241,128,0,169487:0:0:0:0:
460,192,169241,128,0,169487:0:0:0:0:
358,192,169405,1,0,0:0:0:0:
256,192,169405,128,0,169651:0:0:0:0:
460,192,169569,1,0,0:0:0:0:
51,192,169569,128,0,169815:0:0:0:0:
256,192,169733,1,0,0:0:0:0:
358,192,169733,128,0,169979:0:0:0:0:
51,192,169897,1,0,0:0:0:0:
460,192,169897,1,0,0:0:0:0:
153,192,169897,128,0,170143:0:0:0:0:
358,192,170061,1,0,0:0:0:0:
256,192,170061,128,0,170225:0:0:0:0:
153,192,170225,1,0,0:0:0:0:
51,192,170225,1,0,0:0:0:0:
460,192,170225,1,0,0:0:0:0:
358,192,170225,1,0,0:0:0:0:
153,192,170552,1,0,0:0:0:0:
256,192,170552,1,0,0:0:0:0:
358,192,170552,1,0,0:0:0:0:
460,192,170552,1,0,0:0:0:0:
460,192,170880,128,0,171454:0:0:0:0:
51,192,170880,1,0,0:0:0:0:
256,192,170880,1,0,0:0:0:0:
358,192,171208,1,0,0:0:0:0:
51,192,171208,1,0,0:0:0:0:
153,192,171290,1,0,0:0:0:0:
256,192,171372,1,0,0:0:0:0:
358,192,171454,1,0,0:0:0:0:
460,192,171536,128,0,171700:0:0:0:0:
51,192,171536,128,0,171700:0:0:0:0:
153,192,171700,128,0,171864:0:0:0:0:
358,192,171700,128,0,171864:0:0:0:0:
256,192,171864,128,0,171946:0:0:0:0:
51,192,171864,128,0,171946:0:0:0:0:
460,192,171864,128,0,171946:0:0:0:0:
51,192,172028,128,0,172192:0:0:0:0:
256,192,172028,128,0,172192:0:0:0:0:
460,192,172028,128,0,172192:0:0:0:0:
153,192,172192,128,0,172356:0:0:0:0:
358,192,172192,1,0,0:0:0:0:
256,192,172356,128,0,172520:0:0:0:0:
460,192,172356,1,0,0:0:0:0:
358,192,172520,128,0,172684:0:0:0:0:
51,192,172520,128,0,173503:0:0:0:0:
460,192,172684,128,0,172929:0:0:0:0:
153,192,172684,1,0,0:0:0:0:
256,192,172848,128,0,173093:0:0:0:0:
358,192,172848,1,0,0:0:0:0:
358,192,173011,128,0,173257:0:0:0:0:
153,192,173175,128,0,173421:0:0:0:0:
256,192,173175,1,0,0:0:0:0:
256,192,173339,128,0,173585:0:0:0:0:
358,192,173339,1,0,0:0:0:0:
153,192,173503,1,0,0:0:0:0:
460,192,173503,128,0,173667:0:0:0:0:
51,192,173667,128,0,174077:0:0:0:0:
153,192,173667,1,0,0:0:0:0:
460,192,173831,128,0,173995:0:0:0:0:
256,192,173831,1,0,0:0:0:0:
153,192,173995,128,0,174487:0:0:0:0:
358,192,173995,1,0,0:0:0:0:
256,192,174077,1,0,0:0:0:0:
460,192,174159,128,0,174487:0:0:0:0:
51,192,174159,1,0,0:0:0:0:
358,192,174323,128,0,174569:0:0:0:0:
51,192,174323,128,0,174815:0:0:0:0:
256,192,174487,128,0,174733:0:0:0:0:
460,192,174651,1,0,0:0:0:0:
358,192,174651,128,0,174897:0:0:0:0:
153,192,174815,128,0,175061:0:0:0:0:
256,192,174815,1,0,0:0:0:0:
51,192,174979,1,0,0:0:0:0:
460,192,174979,128,0,175225:0:0:0:0:
358,192,174979,1,0,0:0:0:0:
153,192,175143,1,0,0:0:0:0:
256,192,175143,128,0,175388:0:0:0:0:
51,192,175307,128,0,175552:0:0:0:0:
460,192,175307,1,0,0:0:0:0:
153,192,175470,1,0,0:0:0:0:
256,192,175470,1,0,0:0:0:0:
358,192,175470,1,0,0:0:0:0:
51,192,175634,1,0,0:0:0:0:
358,192,175634,1,0,0:0:0:0:
153,192,175716,1,0,0:0:0:0:
460,192,175716,1,0,0:0:0:0:
256,192,175798,1,0,0:0:0:0:
51,192,175798,128,0,176126:0:0:0:0:
358,192,175798,128,0,175962:0:0:0:0:
256,192,175962,128,0,176126:0:0:0:0:
153,192,176126,1,0,0:0:0:0:
460,192,176126,128,0,176290:0:0:0:0:
256,192,176290,128,0,176864:0:0:0:0:
153,192,176290,128,0,176454:0:0:0:0:
358,192,176290,1,0,0:0:0:0:
358,192,176454,128,0,176864:0:0:0:0:
51,192,176454,128,0,177110:0:0:0:0:
460,192,176618,128,0,176864:0:0:0:0:
153,192,176618,1,0,0:0:0:0:
256,192,176946,1,0,0:0:0:0:
460,192,176946,1,0,0:0:0:0:
153,192,176946,128,0,177520:0:0:0:0:
358,192,177028,128,0,177520:0:0:0:0:
51,192,177274,128,0,177848:0:0:0:0:
256,192,177274,1,0,0:0:0:0:
460,192,177274,1,0,0:0:0:0:
460,192,177602,128,0,178093:0:0:0:0:
358,192,177602,1,0,0:0:0:0:
153,192,177602,128,0,178175:0:0:0:0:
358,192,177929,1,0,0:0:0:0:
256,192,177929,128,0,178503:0:0:0:0:
51,192,177929,128,0,178585:0:0:0:0:
358,192,178257,1,0,0:0:0:0:
460,192,178257,128,0,178585:0:0:0:0:
153,192,178257,1,0,0:0:0:0:
256,192,178585,128,0,178749:0:0:0:0:
358,192,178585,1,0,0:0:0:0:
153,192,178749,5,0,0:0:0:0:
51,192,178749,128,0,178995:0:0:0:0:
460,192,178749,1,0,0:0:0:0:
358,192,178913,1,0,0:0:0:0:
256,192,178913,128,0,179159:0:0:0:0:
153,192,179077,1,0,0:0:0:0:
460,192,179077,128,0,179323:0:0:0:0:
51,192,179077,128,0,179323:0:0:0:0:
358,192,179241,1,0,0:0:0:0:
256,192,179241,128,0,179487:0:0:0:0:
153,192,179241,1,0,0:0:0:0:
460,192,179405,128,0,179651:0:0:0:0:
51,192,179405,128,0,179651:0:0:0:0:
153,192,179569,1,0,0:0:0:0:
256,192,179569,128,0,179815:0:0:0:0:
358,192,179733,1,0,0:0:0:0:
460,192,179733,128,0,179979:0:0:0:0:
51,192,179733,128,0,179979:0:0:0:0:
153,192,179897,1,0,0:0:0:0:
256,192,179897,128,0,180143:0:0:0:0:
51,192,180061,1,0,0:0:0:0:
460,192,180061,128,0,180307:0:0:0:0:
358,192,180061,1,0,0:0:0:0:
256,192,180225,1,0,0:0:0:0:
153,192,180225,128,0,180470:0:0:0:0:
460,192,180388,1,0,0:0:0:0:
51,192,180388,1,0,0:0:0:0:
358,192,180388,128,0,180634:0:0:0:0:
153,192,180552,1,0,0:0:0:0:
256,192,180552,128,0,180716:0:0:0:0:
358,192,180716,1,0,0:0:0:0:
460,192,180716,1,0,0:0:0:0:
51,192,180716,1,0,0:0:0:0:
153,192,180716,1,0,0:0:0:0:
153,192,181044,1,0,0:0:0:0:
256,192,181044,1,0,0:0:0:0:
358,192,181044,1,0,0:0:0:0:
460,192,181044,1,0,0:0:0:0:
153,192,181372,1,0,0:0:0:0:
51,192,181372,1,0,0:0:0:0:
358,192,181372,1,0,0:0:0:0:
460,192,181372,1,0,0:0:0:0:
256,192,181372,1,0,0:0:0:0:
358,192,181536,1,0,0:0:0:0:
460,192,181536,1,0,0:0:0:0:
460,192,181700,1,0,0:0:0:0:
358,192,181700,1,0,0:0:0:0:
460,192,181864,1,0,0:0:0:0:
358,192,181864,1,0,0:0:0:0:
153,192,181864,1,0,0:0:0:0:
256,192,181864,1,0,0:0:0:0:
51,192,181864,1,0,0:0:0:0:
358,192,182028,1,0,0:0:0:0:
256,192,182028,1,0,0:0:0:0:
358,192,182192,1,0,0:0:0:0:
256,192,182192,1,0,0:0:0:0:
51,192,182356,1,0,0:0:0:0:
153,192,182356,1,0,0:0:0:0:
256,192,182356,1,0,0:0:0:0:
358,192,182356,1,0,0:0:0:0:
460,192,182356,1,0,0:0:0:0:
256,192,182520,1,0,0:0:0:0:
153,192,182520,1,0,0:0:0:0:
153,192,182684,1,0,0:0:0:0:
256,192,182684,1,0,0:0:0:0:
51,192,182848,1,0,0:0:0:0:
153,192,182848,1,0,0:0:0:0:
256,192,182848,1,0,0:0:0:0:
358,192,182848,1,0,0:0:0:0:
460,192,182848,1,0,0:0:0:0:
153,192,183011,1,0,0:0:0:0:
51,192,183011,1,0,0:0:0:0:
51,192,183175,1,0,0:0:0:0:
153,192,183175,1,0,0:0:0:0:
51,192,183339,1,0,0:0:0:0:
153,192,183339,1,0,0:0:0:0:
358,192,183339,1,0,0:0:0:0:
460,192,183339,1,0,0:0:0:0:
256,192,183503,1,0,0:0:0:0:
153,192,183503,1,0,0:0:0:0:
358,192,183503,1,0,0:0:0:0:
153,192,183667,1,0,0:0:0:0:
51,192,183667,1,0,0:0:0:0:
358,192,183667,1,0,0:0:0:0:
460,192,183667,1,0,0:0:0:0:
153,192,183831,1,0,0:0:0:0:
256,192,183831,1,0,0:0:0:0:
358,192,183831,1,0,0:0:0:0:
51,192,183995,128,0,184159:0:0:0:0:
153,192,183995,128,0,184159:0:0:0:0:
358,192,183995,128,0,184159:0:0:0:0:
460,192,183995,128,0,184159:0:0:0:0:
51,192,184323,1,0,0:0:0:0:
153,192,184323,1,0,0:0:0:0:
256,192,184323,1,0,0:0:0:0:
358,192,184323,1,0,0:0:0:0:
460,192,184323,1,0,0:0:0:0:
256,192,184487,1,0,0:0:0:0:
51,192,184651,1,0,0:0:0:0:
153,192,184651,1,0,0:0:0:0:
256,192,184651,1,0,0:0:0:0:
358,192,184651,1,0,0:0:0:0:
460,192,184651,1,0,0:0:0:0:
256,192,184815,1,0,0:0:0:0:
51,192,184979,1,0,0:0:0:0:
153,192,184979,1,0,0:0:0:0:
256,192,184979,1,0,0:0:0:0:
358,192,184979,1,0,0:0:0:0:
460,192,184979,1,0,0:0:0:0:
256,192,185143,1,0,0:0:0:0:
358,192,185307,1,0,0:0:0:0:
460,192,185307,1,0,0:0:0:0:
153,192,185307,1,0,0:0:0:0:
51,192,185307,1,0,0:0:0:0:
358,192,185470,5,0,0:0:0:0:
460,192,185470,1,0,0:0:0:0:
153,192,185470,1,0,0:0:0:0:
51,192,185470,1,0,0:0:0:0:
153,192,185634,1,0,0:0:0:0:
51,192,185634,1,0,0:0:0:0:
460,192,185634,1,0,0:0:0:0:
358,192,185634,1,0,0:0:0:0:
51,192,185798,128,0,185962:0:0:0:0:
153,192,185798,128,0,185962:0:0:0:0:
256,192,185798,128,0,185962:0:0:0:0:
358,192,185798,128,0,185962:0:0:0:0:
51,192,186618,128,0,189241:0:0:0:0:
460,192,186618,1,0,0:0:0:0:
358,192,186782,1,0,0:0:0:0:
256,192,186946,1,0,0:0:0:0:
460,192,187110,1,0,0:0:0:0:
358,192,187274,1,0,0:0:0:0:
256,192,187438,1,0,0:0:0:0:
460,192,187602,1,0,0:0:0:0:
358,192,187766,1,0,0:0:0:0:
256,192,187929,1,0,0:0:0:0:
460,192,188093,1,0,0:0:0:0:
358,192,188257,1,0,0:0:0:0:
256,192,188421,1,0,0:0:0:0:
460,192,188585,1,0,0:0:0:0:
358,192,188749,1,0,0:0:0:0:
256,192,188913,1,0,0:0:0:0:
358,192,189077,1,0,0:0:0:0:
460,192,189241,128,0,191864:0:0:0:0:
153,192,189241,1,0,0:0:0:0:
256,192,189405,1,0,0:0:0:0:
358,192,189569,1,0,0:0:0:0:
153,192,189733,1,0,0:0:0:0:
256,192,189897,1,0,0:0:0:0:
358,192,190061,1,0,0:0:0:0:
153,192,190225,1,0,0:0:0:0:
256,192,190388,1,0,0:0:0:0:
358,192,190552,1,0,0:0:0:0:
51,192,190552,1,0,0:0:0:0:
153,192,190716,1,0,0:0:0:0:
256,192,190880,1,0,0:0:0:0:
51,192,191044,1,0,0:0:0:0:
153,192,191208,1,0,0:0:0:0:
256,192,191372,1,0,0:0:0:0:
51,192,191536,1,0,0:0:0:0:
153,192,191700,1,0,0:0:0:0:
256,192,191864,1,0,0:0:0:0:
51,192,191864,1,0,0:0:0:0:
51,192,192192,1,0,0:0:0:0:
51,192,192520,1,0,0:0:0:0:
51,192,192848,1,0,0:0:0:0:
460,192,193175,1,0,0:0:0:0:
51,192,193175,1,0,0:0:0:0:
51,192,193503,1,0,0:0:0:0:
51,192,193831,1,0,0:0:0:0:
460,192,193831,1,0,0:0:0:0:
51,192,194159,1,0,0:0:0:0:
51,192,194487,128,0,195798:0:0:0:0:
256,192,194487,1,0,0:0:0:0:
460,192,194487,1,0,0:0:0:0:
153,192,194487,1,0,0:0:0:0:
256,192,194815,128,0,194897:0:0:0:0:
460,192,194815,128,0,194897:0:0:0:0:
256,192,194979,128,0,195061:0:0:0:0:
460,192,194979,128,0,195061:0:0:0:0:
256,192,195143,128,0,195225:0:0:0:0:
460,192,195143,128,0,195225:0:0:0:0:
256,192,195307,128,0,195388:0:0:0:0:
460,192,195307,128,0,195388:0:0:0:0:
256,192,195470,128,0,195552:0:0:0:0:
460,192,195470,128,0,195552:0:0:0:0:
256,192,195634,128,0,195716:0:0:0:0:
460,192,195634,128,0,195716:0:0:0:0:
153,192,195798,128,0,195880:0:0:0:0:
256,192,195798,128,0,195880:0:0:0:0:
460,192,195798,128,0,196208:0:0:0:0:
256,192,195962,1,0,0:0:0:0:
51,192,195962,128,0,196044:0:0:0:0:
153,192,196126,128,0,196208:0:0:0:0:
358,192,196126,128,0,196208:0:0:0:0:
256,192,196290,1,0,0:0:0:0:
358,192,196290,128,0,196700:0:0:0:0:
51,192,196454,1,0,0:0:0:0:
153,192,196454,128,0,196536:0:0:0:0:
460,192,196454,128,0,196536:0:0:0:0:
256,192,196618,128,0,196700:0:0:0:0:
51,192,196618,128,0,196700:0:0:0:0:
256,192,196782,128,0,197110:0:0:0:0:
460,192,196782,128,0,196864:0:0:0:0:
51,192,196782,128,0,196864:0:0:0:0:
153,192,196946,1,0,0:0:0:0:
358,192,197110,128,0,197192:0:0:0:0:
51,192,197110,1,0,0:0:0:0:
460,192,197110,128,0,198339:0:0:0:0:
153,192,197274,1,0,0:0:0:0:
256,192,197438,1,0,0:0:0:0:
358,192,197602,1,0,0:0:0:0:
51,192,197766,1,0,0:0:0:0:
153,192,197766,1,0,0:0:0:0:
256,192,197848,1,0,0:0:0:0:
358,192,197848,1,0,0:0:0:0:
153,192,197929,1,0,0:0:0:0:
51,192,197929,1,0,0:0:0:0:
256,192,198011,1,0,0:0:0:0:
358,192,198011,1,0,0:0:0:0:
153,192,198093,1,0,0:0:0:0:
51,192,198093,1,0,0:0:0:0:
256,192,198175,1,0,0:0:0:0:
358,192,198175,1,0,0:0:0:0:
153,192,198257,1,0,0:0:0:0:
51,192,198257,1,0,0:0:0:0:
256,192,198339,1,0,0:0:0:0:
358,192,198339,1,0,0:0:0:0:
460,192,198421,1,0,0:0:0:0:
51,192,198421,1,0,0:0:0:0:
153,192,198421,1,0,0:0:0:0:
51,192,198585,1,0,0:0:0:0:
153,192,198585,1,0,0:0:0:0:
358,192,198585,1,0,0:0:0:0:
460,192,198585,1,0,0:0:0:0:
153,192,199077,1,0,0:0:0:0:
256,192,199077,1,0,0:0:0:0:
358,192,199077,1,0,0:0:0:0:
460,192,199077,1,0,0:0:0:0:
460,192,199241,1,0,0:0:0:0:
358,192,199241,1,0,0:0:0:0:
256,192,199241,1,0,0:0:0:0:
153,192,199241,1,0,0:0:0:0:
51,192,199733,128,0,200880:0:0:0:0:
153,192,199733,1,0,0:0:0:0:
256,192,199733,1,0,0:0:0:0:
358,192,199733,1,0,0:0:0:0:
460,192,199733,1,0,0:0:0:0:
153,192,200880,1,0,0:0:0:0:
256,192,200880,1,0,0:0:0:0:
358,192,200880,1,0,0:0:0:0:
460,192,200880,1,0,0:0:0:0:
51,192,202356,1,0,0:0:0:0:
153,192,202356,1,0,0:0:0:0:
358,192,202356,1,0,0:0:0:0:
460,192,202356,1,0,0:0:0:0:
256,192,202356,128,0,203667:0:0:0:0:
51,192,202848,1,0,0:0:0:0:
153,192,203175,1,0,0:0:0:0:
358,192,203339,1,0,0:0:0:0:
460,192,203667,1,0,0:0:0:0:
358,192,203667,1,0,0:0:0:0:
153,192,203667,1,0,0:0:0:0:
51,192,203667,1,0,0:0:0:0:
256,192,203995,5,0,0:0:0:0:
460,192,204159,1,0,0:0:0:0:
51,192,204159,1,0,0:0:0:0:
358,192,204487,1,0,0:0:0:0:
256,192,204569,1,0,0:0:0:0:
153,192,204651,1,0,0:0:0:0:
460,192,204651,1,0,0:0:0:0:
460,192,204979,128,0,206126:0:0:0:0:
256,192,204979,128,0,205470:0:0:0:0:
153,192,205143,1,0,0:0:0:0:
51,192,205307,128,0,205634:0:0:0:0:
358,192,205470,128,0,206290:0:0:0:0:
153,192,205470,1,0,0:0:0:0:
256,192,205634,1,0,0:0:0:0:
153,192,205634,1,0,0:0:0:0:
256,192,205798,1,0,0:0:0:0:
153,192,205962,128,0,206290:0:0:0:0:
51,192,205962,128,0,206126:0:0:0:0:
256,192,206126,1,0,0:0:0:0:
51,192,206290,128,0,207602:0:0:0:0:
256,192,206290,128,0,206782:0:0:0:0:
460,192,206290,1,0,0:0:0:0:
358,192,206454,1,0,0:0:0:0:
460,192,206618,128,0,206946:0:0:0:0:
153,192,206782,128,0,207602:0:0:0:0:
358,192,206782,1,0,0:0:0:0:
256,192,206946,1,0,0:0:0:0:
358,192,206946,1,0,0:0:0:0:
256,192,207110,1,0,0:0:0:0:
358,192,207274,128,0,207602:0:0:0:0:
460,192,207274,128,0,207438:0:0:0:0:
256,192,207438,1,0,0:0:0:0:
460,192,207602,128,0,208585:0:0:0:0:
256,192,207602,1,0,0:0:0:0:
358,192,207766,1,0,0:0:0:0:
153,192,207766,1,0,0:0:0:0:
256,192,207929,1,0,0:0:0:0:
153,192,207929,1,0,0:0:0:0:
51,192,207929,1,0,0:0:0:0:
358,192,208093,1,0,0:0:0:0:
153,192,208093,1,0,0:0:0:0:
256,192,208257,1,0,0:0:0:0:
153,192,208257,1,0,0:0:0:0:
51,192,208257,1,0,0:0:0:0:
358,192,208421,128,0,208585:0:0:0:0:
153,192,208421,1,0,0:0:0:0:
51,192,208585,1,0,0:0:0:0:
153,192,208585,1,0,0:0:0:0:
256,192,208585,128,0,208749:0:0:0:0:
51,192,208749,128,0,209569:0:0:0:0:
358,192,208749,1,0,0:0:0:0:
460,192,208913,128,0,208995:0:0:0:0:
358,192,208913,128,0,208995:0:0:0:0:
358,192,209077,128,0,209159:0:0:0:0:
256,192,209077,128,0,209159:0:0:0:0:
256,192,209241,128,0,209323:0:0:0:0:
153,192,209241,128,0,209323:0:0:0:0:
256,192,209405,128,0,209487:0:0:0:0:
358,192,209405,128,0,209487:0:0:0:0:
460,192,209569,1,0,0:0:0:0:
153,192,209569,128,0,209815:0:0:0:0:
358,192,209651,1,0,0:0:0:0:
51,192,209733,1,0,0:0:0:0:
256,192,209733,128,0,209979:0:0:0:0:
460,192,209815,1,0,0:0:0:0:
153,192,209897,1,0,0:0:0:0:
358,192,209897,128,0,210143:0:0:0:0:
51,192,209979,1,0,0:0:0:0:
256,192,210061,1,0,0:0:0:0:
460,192,210061,128,0,210307:0:0:0:0:
153,192,210143,1,0,0:0:0:0:
51,192,210225,128,0,210307:0:0:0:0:
358,192,210225,128,0,210388:0:0:0:0:
256,192,210307,128,0,210388:0:0:0:0:
153,192,210388,128,0,210470:0:0:0:0:
460,192,210388,128,0,210552:0:0:0:0:
358,192,210470,128,0,210552:0:0:0:0:
51,192,210552,128,0,210716:0:0:0:0:
256,192,210552,128,0,210634:0:0:0:0:
460,192,210634,128,0,210716:0:0:0:0:
358,192,210716,128,0,210798:0:0:0:0:
153,192,210716,128,0,210880:0:0:0:0:
51,192,210798,128,0,210880:0:0:0:0:
460,192,210880,128,0,210962:0:0:0:0:
256,192,210880,128,0,211044:0:0:0:0:
153,192,210962,128,0,211044:0:0:0:0:
51,192,211044,128,0,211126:0:0:0:0:
358,192,211044,128,0,211208:0:0:0:0:
256,192,211126,128,0,211208:0:0:0:0:
153,192,211208,128,0,211290:0:0:0:0:
460,192,211208,128,0,211372:0:0:0:0:
358,192,211290,128,0,211372:0:0:0:0:
256,192,211372,128,0,211536:0:0:0:0:
51,192,211372,128,0,211454:0:0:0:0:
358,192,211454,128,0,211536:0:0:0:0:
460,192,211536,128,0,211618:0:0:0:0:
153,192,211536,128,0,211700:0:0:0:0:
256,192,211618,128,0,211700:0:0:0:0:
358,192,211700,128,0,211782:0:0:0:0:
51,192,211700,128,0,211864:0:0:0:0:
153,192,211782,128,0,211864:0:0:0:0:
256,192,211864,128,0,211946:0:0:0:0:
460,192,211864,128,0,212028:0:0:0:0:
51,192,211946,128,0,212028:0:0:0:0:
153,192,212028,128,0,212110:0:0:0:0:
358,192,212028,128,0,212192:0:0:0:0:
460,192,212110,128,0,212192:0:0:0:0:
256,192,212192,128,0,212356:0:0:0:0:
51,192,212192,128,0,212274:0:0:0:0:
358,192,212274,128,0,212356:0:0:0:0:
460,192,212356,128,0,212438:0:0:0:0:
153,192,212356,128,0,212520:0:0:0:0:
256,192,212438,128,0,212520:0:0:0:0:
51,192,212520,128,0,212602:0:0:0:0:
358,192,212520,128,0,212684:0:0:0:0:
153,192,212602,128,0,212684:0:0:0:0:
256,192,212684,128,0,212848:0:0:0:0:
460,192,212684,128,0,212766:0:0:0:0:
153,192,212766,128,0,212848:0:0:0:0:
51,192,212848,128,0,212929:0:0:0:0:
358,192,212848,128,0,213011:0:0:0:0:
256,192,212929,128,0,213011:0:0:0:0:
153,192,213011,128,0,213093:0:0:0:0:
460,192,213011,128,0,213175:0:0:0:0:
358,192,213093,128,0,213175:0:0:0:0:
256,192,213175,128,0,213339:0:0:0:0:
51,192,213175,128,0,213257:0:0:0:0:
460,192,213257,128,0,213339:0:0:0:0:
358,192,213339,128,0,213503:0:0:0:0:
153,192,213339,128,0,213421:0:0:0:0:
51,192,213421,128,0,213503:0:0:0:0:
256,192,213503,128,0,213667:0:0:0:0:
460,192,213503,128,0,213585:0:0:0:0:
153,192,213585,128,0,213667:0:0:0:0:
358,192,213667,128,0,213831:0:0:0:0:
51,192,213667,128,0,213749:0:0:0:0:
256,192,213749,128,0,213831:0:0:0:0:
460,192,213831,128,0,213995:0:0:0:0:
153,192,213831,128,0,213913:0:0:0:0:
358,192,213913,128,0,213995:0:0:0:0:
51,192,213995,128,0,214487:0:0:0:0:
256,192,213995,128,0,214159:0:0:0:0:
153,192,214159,1,0,0:0:0:0:
358,192,214159,1,0,0:0:0:0:
460,192,214159,1,0,0:0:0:0:
460,192,214323,128,0,214815:0:0:0:0:
256,192,214323,128,0,214405:0:0:0:0:
358,192,214487,128,0,214815:0:0:0:0:
153,192,214487,128,0,214569:0:0:0:0:
256,192,214651,128,0,215143:0:0:0:0:
51,192,214651,128,0,214733:0:0:0:0:
153,192,214815,128,0,214979:0:0:0:0:
51,192,214815,1,0,0:0:0:0:
358,192,214979,1,0,0:0:0:0:
51,192,214979,1,0,0:0:0:0:
51,192,215143,128,0,215307:0:0:0:0:
153,192,215143,1,0,0:0:0:0:
460,192,215143,1,0,0:0:0:0:
358,192,215143,1,0,0:0:0:0:
256,192,215307,128,0,215470:0:0:0:0:
460,192,215307,1,0,0:0:0:0:
51,192,215470,128,0,216782:0:0:0:0:
153,192,215470,128,0,215634:0:0:0:0:
358,192,215470,128,0,215634:0:0:0:0:
256,192,215634,128,0,215798:0:0:0:0:
460,192,215634,128,0,215962:0:0:0:0:
358,192,215798,1,0,0:0:0:0:
153,192,215798,128,0,215962:0:0:0:0:
358,192,215962,128,0,216290:0:0:0:0:
256,192,215962,128,0,216290:0:0:0:0:
153,192,216126,128,0,216454:0:0:0:0:
460,192,216126,128,0,216290:0:0:0:0:
358,192,216454,1,0,0:0:0:0:
256,192,216454,128,0,216782:0:0:0:0:
460,192,216454,128,0,217929:0:0:0:0:
358,192,216618,128,0,216782:0:0:0:0:
153,192,216618,128,0,217110:0:0:0:0:
51,192,216946,128,0,217602:0:0:0:0:
256,192,216946,128,0,217110:0:0:0:0:
358,192,216946,128,0,217438:0:0:0:0:
153,192,217274,128,0,217438:0:0:0:0:
256,192,217274,128,0,217929:0:0:0:0:
358,192,217602,1,0,0:0:0:0:
153,192,217602,128,0,217766:0:0:0:0:
358,192,217766,128,0,218093:0:0:0:0:
51,192,217766,128,0,218093:0:0:0:0:
153,192,217929,128,0,219405:0:0:0:0:
460,192,218093,128,0,218421:0:0:0:0:
358,192,218257,128,0,218585:0:0:0:0:
51,192,218421,1,0,0:0:0:0:
256,192,218421,128,0,218749:0:0:0:0:
460,192,218585,128,0,218913:0:0:0:0:
51,192,218749,1,0,0:0:0:0:
358,192,218749,128,0,219077:0:0:0:0:
256,192,218913,128,0,219241:0:0:0:0:
51,192,219077,1,0,0:0:0:0:
460,192,219077,128,0,219241:0:0:0:0:
358,192,219241,128,0,219405:0:0:0:0:
51,192,219405,1,0,0:0:0:0:
460,192,219405,128,0,219733:0:0:0:0:
256,192,219405,1,0,0:0:0:0:
153,192,219487,5,0,0:0:0:0:
358,192,219487,1,0,0:0:0:0:
256,192,219569,1,0,0:0:0:0:
51,192,219569,1,0,0:0:0:0:
153,192,219651,1,0,0:0:0:0:
358,192,219651,1,0,0:0:0:0:
51,192,219733,1,0,0:0:0:0:
256,192,219733,1,0,0:0:0:0:
358,192,219815,1,0,0:0:0:0:
460,192,219815,1,0,0:0:0:0:
256,192,219897,1,0,0:0:0:0:
153,192,219897,1,0,0:0:0:0:
358,192,219979,1,0,0:0:0:0:
460,192,219979,1,0,0:0:0:0:
153,192,220061,1,0,0:0:0:0:
51,192,220061,1,0,0:0:0:0:
256,192,220143,1,0,0:0:0:0:
358,192,220143,1,0,0:0:0:0:
460,192,220225,1,0,0:0:0:0:
51,192,220225,1,0,0:0:0:0:
153,192,220307,1,0,0:0:0:0:
256,192,220307,1,0,0:0:0:0:
358,192,220388,1,0,0:0:0:0:
460,192,220388,1,0,0:0:0:0:
51,192,220470,1,0,0:0:0:0:
153,192,220470,1,0,0:0:0:0:
358,192,220552,1,0,0:0:0:0:
256,192,220552,1,0,0:0:0:0:
51,192,220634,1,0,0:0:0:0:
153,192,220634,1,0,0:0:0:0:
358,192,220716,128,0,220798:0:0:0:0:
460,192,220716,128,0,220798:0:0:0:0:
256,192,220798,128,0,220880:0:0:0:0:
51,192,220798,128,0,220880:0:0:0:0:
358,192,220880,128,0,220962:0:0:0:0:
460,192,220880,128,0,220962:0:0:0:0:
153,192,220962,128,0,221044:0:0:0:0:
51,192,220962,128,0,221044:0:0:0:0:
256,192,221044,128,0,221126:0:0:0:0:
358,192,221044,128,0,221126:0:0:0:0:
460,192,221126,128,0,221208:0:0:0:0:
51,192,221126,128,0,221208:0:0:0:0:
256,192,221208,128,0,221290:0:0:0:0:
153,192,221208,128,0,221290:0:0:0:0:
460,192,221290,128,0,221372:0:0:0:0:
51,192,221290,128,0,221372:0:0:0:0:
153,192,221372,128,0,221454:0:0:0:0:
358,192,221372,128,0,221454:0:0:0:0:
256,192,221454,128,0,221536:0:0:0:0:
51,192,221454,128,0,221536:0:0:0:0:
153,192,221536,128,0,221618:0:0:0:0:
460,192,221536,128,0,221618:0:0:0:0:
358,192,221618,128,0,221700:0:0:0:0:
256,192,221618,128,0,221700:0:0:0:0:
153,192,221700,128,0,221782:0:0:0:0:
460,192,221700,128,0,221782:0:0:0:0:
256,192,221782,128,0,221864:0:0:0:0:
51,192,221782,128,0,221864:0:0:0:0:
358,192,221864,128,0,221946:0:0:0:0:
460,192,221864,128,0,221946:0:0:0:0:
256,192,221946,128,0,222028:0:0:0:0:
51,192,221946,128,0,222028:0:0:0:0:
153,192,222028,128,0,222110:0:0:0:0:
358,192,222028,128,0,222110:0:0:0:0:
460,192,222110,128,0,222192:0:0:0:0:
256,192,222110,128,0,222192:0:0:0:0:
51,192,222192,128,0,222274:0:0:0:0:
358,192,222192,128,0,222274:0:0:0:0:
153,192,222274,128,0,222356:0:0:0:0:
460,192,222274,128,0,222356:0:0:0:0:
256,192,222356,128,0,222438:0:0:0:0:
51,192,222356,128,0,222438:0:0:0:0:
358,192,222438,128,0,222520:0:0:0:0:
460,192,222438,128,0,222520:0:0:0:0:
256,192,222520,128,0,222602:0:0:0:0:
153,192,222520,128,0,222602:0:0:0:0:
51,192,222602,128,0,222684:0:0:0:0:
460,192,222602,128,0,222684:0:0:0:0:
256,192,222684,128,0,222766:0:0:0:0:
358,192,222684,128,0,222766:0:0:0:0:
153,192,222766,128,0,222848:0:0:0:0:
460,192,222766,128,0,222848:0:0:0:0:
51,192,222848,128,0,222929:0:0:0:0:
256,192,222848,128,0,222929:0:0:0:0:
358,192,222929,128,0,223011:0:0:0:0:
460,192,222929,128,0,223011:0:0:0:0:
153,192,223011,128,0,223093:0:0:0:0:
51,192,223011,128,0,223093:0:0:0:0:
256,192,223093,128,0,223175:0:0:0:0:
460,192,223093,128,0,223175:0:0:0:0:
51,192,223175,128,0,223257:0:0:0:0:
358,192,223175,128,0,223257:0:0:0:0:
153,192,223257,128,0,223339:0:0:0:0:
460,192,223257,128,0,223339:0:0:0:0:
358,192,223339,128,0,223421:0:0:0:0:
256,192,223339,128,0,223421:0:0:0:0:
153,192,223421,128,0,223503:0:0:0:0:
460,192,223421,128,0,223503:0:0:0:0:
51,192,223503,128,0,223585:0:0:0:0:
358,192,223503,128,0,223585:0:0:0:0:
153,192,223585,128,0,223667:0:0:0:0:
256,192,223585,128,0,223667:0:0:0:0:
460,192,223667,128,0,223749:0:0:0:0:
51,192,223667,128,0,223749:0:0:0:0:
358,192,223749,128,0,223831:0:0:0:0:
256,192,223749,128,0,223831:0:0:0:0:
153,192,223831,128,0,223913:0:0:0:0:
460,192,223831,128,0,223913:0:0:0:0:
51,192,223913,128,0,223995:0:0:0:0:
256,192,223913,128,0,223995:0:0:0:0:
460,192,223995,128,0,224077:0:0:0:0:
358,192,223995,128,0,224077:0:0:0:0:
153,192,224077,128,0,224159:0:0:0:0:
256,192,224077,128,0,224159:0:0:0:0:
460,192,224159,128,0,224241:0:0:0:0:
51,192,224159,128,0,224241:0:0:0:0:
358,192,224241,128,0,224323:0:0:0:0:
256,192,224241,128,0,224323:0:0:0:0:
153,192,224323,128,0,224405:0:0:0:0:
51,192,224323,128,0,224405:0:0:0:0:
460,192,224405,128,0,224487:0:0:0:0:
256,192,224405,128,0,224487:0:0:0:0:
358,192,224487,128,0,224569:0:0:0:0:
153,192,224487,128,0,224569:0:0:0:0:
256,192,224569,128,0,224651:0:0:0:0:
460,192,224569,128,0,224651:0:0:0:0:
51,192,224651,128,0,224733:0:0:0:0:
358,192,224651,128,0,224733:0:0:0:0:
256,192,224733,128,0,224815:0:0:0:0:
153,192,224733,128,0,224815:0:0:0:0:
358,192,224815,128,0,224897:0:0:0:0:
460,192,224815,128,0,224897:0:0:0:0:
153,192,224897,128,0,224979:0:0:0:0:
51,192,224897,128,0,224979:0:0:0:0:
256,192,224979,128,0,225061:0:0:0:0:
358,192,224979,128,0,225061:0:0:0:0:
153,192,225061,128,0,225143:0:0:0:0:
51,192,225061,128,0,225143:0:0:0:0:
460,192,225143,128,0,225225:0:0:0:0:
358,192,225143,128,0,225225:0:0:0:0:
256,192,225225,128,0,225307:0:0:0:0:
51,192,225225,128,0,225307:0:0:0:0:
153,192,225307,128,0,225388:0:0:0:0:
460,192,225307,128,0,225388:0:0:0:0:
358,192,225388,128,0,225470:0:0:0:0:
51,192,225388,128,0,225470:0:0:0:0:
256,192,225470,128,0,225552:0:0:0:0:
153,192,225470,128,0,225552:0:0:0:0:
460,192,225552,128,0,225634:0:0:0:0:
358,192,225552,128,0,225634:0:0:0:0:
51,192,225634,128,0,225716:0:0:0:0:
153,192,225634,128,0,225716:0:0:0:0:
256,192,225716,128,0,225798:0:0:0:0:
460,192,225798,128,0,225880:0:0:0:0:
358,192,225798,128,0,225880:0:0:0:0:
153,192,225880,128,0,225962:0:0:0:0:
51,192,225880,128,0,225962:0:0:0:0:
460,192,225962,128,0,227110:0:0:0:0:
256,192,225962,128,0,226454:0:0:0:0:
153,192,226126,128,0,226290:0:0:0:0:
51,192,226290,128,0,226782:0:0:0:0:
153,192,226454,1,0,0:0:0:0:
358,192,226454,128,0,227274:0:0:0:0:
256,192,226618,1,0,0:0:0:0:
153,192,226618,128,0,226782:0:0:0:0:
256,192,226782,128,0,226946:0:0:0:0:
153,192,226946,128,0,227274:0:0:0:0:
51,192,226946,128,0,227110:0:0:0:0:
256,192,227110,1,0,0:0:0:0:
256,192,227274,128,0,227766:0:0:0:0:
460,192,227274,128,0,227438:0:0:0:0:
51,192,227274,128,0,228421:0:0:0:0:
358,192,227438,128,0,227602:0:0:0:0:
460,192,227602,128,0,228093:0:0:0:0:
153,192,227766,128,0,228421:0:0:0:0:
358,192,227766,1,0,0:0:0:0:
256,192,227929,1,0,0:0:0:0:
358,192,227929,128,0,228093:0:0:0:0:
256,192,228093,1,0,0:0:0:0:
358,192,228257,128,0,228585:0:0:0:0:
460,192,228257,128,0,228421:0:0:0:0:
256,192,228421,1,0,0:0:0:0:
460,192,228585,128,0,229569:0:0:0:0:
256,192,228585,1,0,0:0:0:0:
51,192,228585,1,0,0:0:0:0:
358,192,228749,1,0,0:0:0:0:
256,192,228913,1,0,0:0:0:0:
153,192,228913,1,0,0:0:0:0:
51,192,228913,1,0,0:0:0:0:
358,192,229077,1,0,0:0:0:0:
153,192,229077,1,0,0:0:0:0:
256,192,229241,1,0,0:0:0:0:
153,192,229241,1,0,0:0:0:0:
51,192,229241,1,0,0:0:0:0:
358,192,229405,128,0,229569:0:0:0:0:
51,192,229405,1,0,0:0:0:0:
51,192,229569,1,0,0:0:0:0:
153,192,229569,1,0,0:0:0:0:
256,192,229569,128,0,229733:0:0:0:0:
51,192,229733,128,0,230552:0:0:0:0:
358,192,229733,1,0,0:0:0:0:
460,192,229897,128,0,229979:0:0:0:0:
358,192,229897,128,0,229979:0:0:0:0:
358,192,230061,128,0,230143:0:0:0:0:
256,192,230061,128,0,230143:0:0:0:0:
256,192,230225,128,0,230307:0:0:0:0:
153,192,230225,128,0,230307:0:0:0:0:
256,192,230388,128,0,230470:0:0:0:0:
358,192,230388,128,0,230470:0:0:0:0:
460,192,230552,1,0,0:0:0:0:
153,192,230552,128,0,230798:0:0:0:0:
358,192,230634,1,0,0:0:0:0:
51,192,230716,1,0,0:0:0:0:
256,192,230716,128,0,230962:0:0:0:0:
460,192,230798,1,0,0:0:0:0:
153,192,230880,1,0,0:0:0:0:
358,192,230880,128,0,231126:0:0:0:0:
51,192,230962,1,0,0:0:0:0:
256,192,231044,1,0,0:0:0:0:
460,192,231044,128,0,231290:0:0:0:0:
153,192,231126,1,0,0:0:0:0:
51,192,231208,128,0,231372:0:0:0:0:
358,192,231208,128,0,231372:0:0:0:0:
256,192,231290,128,0,231454:0:0:0:0:
153,192,231372,128,0,231536:0:0:0:0:
460,192,231372,128,0,231536:0:0:0:0:
358,192,231454,128,0,231618:0:0:0:0:
51,192,231536,128,0,231700:0:0:0:0:
256,192,231536,128,0,231700:0:0:0:0:
460,192,231618,128,0,231782:0:0:0:0:
358,192,231700,128,0,231864:0:0:0:0:
153,192,231700,128,0,231864:0:0:0:0:
51,192,231782,128,0,231946:0:0:0:0:
460,192,231864,128,0,232028:0:0:0:0:
256,192,231864,128,0,232028:0:0:0:0:
153,192,231946,128,0,232110:0:0:0:0:
51,192,232028,128,0,232192:0:0:0:0:
358,192,232028,128,0,232192:0:0:0:0:
256,192,232110,128,0,232274:0:0:0:0:
153,192,232192,128,0,232356:0:0:0:0:
460,192,232192,128,0,232356:0:0:0:0:
358,192,232274,128,0,232356:0:0:0:0:
256,192,232356,128,0,232520:0:0:0:0:
51,192,232356,128,0,232520:0:0:0:0:
358,192,232438,128,0,232602:0:0:0:0:
460,192,232520,128,0,232684:0:0:0:0:
153,192,232520,128,0,232684:0:0:0:0:
256,192,232602,128,0,232766:0:0:0:0:
358,192,232684,128,0,232848:0:0:0:0:
51,192,232684,128,0,232848:0:0:0:0:
153,192,232766,128,0,232929:0:0:0:0:
256,192,232848,128,0,233011:0:0:0:0:
460,192,232848,128,0,233011:0:0:0:0:
51,192,232929,128,0,233093:0:0:0:0:
153,192,233011,128,0,233175:0:0:0:0:
358,192,233011,128,0,233175:0:0:0:0:
460,192,233093,128,0,233257:0:0:0:0:
256,192,233175,128,0,233339:0:0:0:0:
51,192,233175,128,0,233339:0:0:0:0:
358,192,233257,128,0,233421:0:0:0:0:
460,192,233339,128,0,233503:0:0:0:0:
153,192,233339,128,0,233503:0:0:0:0:
256,192,233421,128,0,233585:0:0:0:0:
51,192,233503,128,0,233667:0:0:0:0:
358,192,233503,128,0,233667:0:0:0:0:
153,192,233585,128,0,233667:0:0:0:0:
256,192,233667,128,0,233831:0:0:0:0:
460,192,233667,128,0,233831:0:0:0:0:
153,192,233749,128,0,233913:0:0:0:0:
51,192,233831,128,0,233995:0:0:0:0:
358,192,233831,128,0,233995:0:0:0:0:
256,192,233913,128,0,234077:0:0:0:0:
153,192,233995,128,0,234159:0:0:0:0:
460,192,233995,128,0,234159:0:0:0:0:
358,192,234077,128,0,234241:0:0:0:0:
256,192,234159,128,0,234323:0:0:0:0:
51,192,234159,128,0,234323:0:0:0:0:
460,192,234241,128,0,234323:0:0:0:0:
358,192,234323,128,0,234487:0:0:0:0:
153,192,234323,128,0,234487:0:0:0:0:
51,192,234405,128,0,234569:0:0:0:0:
256,192,234487,128,0,234651:0:0:0:0:
460,192,234487,128,0,234651:0:0:0:0:
153,192,234569,128,0,234733:0:0:0:0:
358,192,234651,128,0,234815:0:0:0:0:
51,192,234651,128,0,234815:0:0:0:0:
256,192,234733,128,0,234897:0:0:0:0:
460,192,234815,128,0,234979:0:0:0:0:
153,192,234815,128,0,234979:0:0:0:0:
358,192,234897,128,0,234979:0:0:0:0:
51,192,234979,128,0,235470:0:0:0:0:
256,192,234979,128,0,235143:0:0:0:0:
153,192,235143,1,0,0:0:0:0:
358,192,235143,1,0,0:0:0:0:
460,192,235143,1,0,0:0:0:0:
460,192,235307,128,0,235798:0:0:0:0:
256,192,235307,128,0,235388:0:0:0:0:
358,192,235307,1,0,0:0:0:0:
358,192,235470,128,0,235798:0:0:0:0:
153,192,235470,128,0,235552:0:0:0:0:
256,192,235470,1,0,0:0:0:0:
256,192,235634,128,0,236126:0:0:0:0:
51,192,235634,128,0,235716:0:0:0:0:
153,192,235634,1,0,0:0:0:0:
153,192,235798,128,0,235962:0:0:0:0:
51,192,235798,1,0,0:0:0:0:
358,192,235962,1,0,0:0:0:0:
51,192,235962,1,0,0:0:0:0:
460,192,235962,1,0,0:0:0:0:
51,192,236126,128,0,236290:0:0:0:0:
460,192,236126,1,0,0:0:0:0:
358,192,236126,1,0,0:0:0:0:
153,192,236126,128,0,236290:0:0:0:0:
256,192,236290,128,0,236454:0:0:0:0:
460,192,236290,128,0,236454:0:0:0:0:
51,192,236454,128,0,237766:0:0:0:0:
153,192,236454,128,0,236618:0:0:0:0:
358,192,236454,128,0,236618:0:0:0:0:
256,192,236618,128,0,236782:0:0:0:0:
460,192,236618,128,0,236946:0:0:0:0:
358,192,236782,1,0,0:0:0:0:
153,192,236782,128,0,236946:0:0:0:0:
358,192,236946,128,0,237274:0:0:0:0:
256,192,236946,128,0,237274:0:0:0:0:
153,192,237110,128,0,237438:0:0:0:0:
460,192,237110,128,0,237274:0:0:0:0:
358,192,237438,1,0,0:0:0:0:
256,192,237438,128,0,237766:0:0:0:0:
460,192,237438,128,0,238913:0:0:0:0:
358,192,237602,128,0,237766:0:0:0:0:
153,192,237602,128,0,238093:0:0:0:0:
51,192,237929,128,0,238585:0:0:0:0:
256,192,237929,128,0,238093:0:0:0:0:
358,192,237929,128,0,238421:0:0:0:0:
153,192,238257,128,0,238421:0:0:0:0:
256,192,238257,128,0,238913:0:0:0:0:
358,192,238585,1,0,0:0:0:0:
153,192,238585,128,0,238749:0:0:0:0:
358,192,238749,128,0,239077:0:0:0:0:
51,192,238749,128,0,239077:0:0:0:0:
153,192,238913,128,0,240388:0:0:0:0:
460,192,239077,1,0,0:0:0:0:
256,192,239077,1,0,0:0:0:0:
256,192,239241,1,0,0:0:0:0:
460,192,239405,1,0,0:0:0:0:
358,192,239405,1,0,0:0:0:0:
256,192,239405,1,0,0:0:0:0:
51,192,239405,1,0,0:0:0:0:
256,192,239569,1,0,0:0:0:0:
256,192,239733,1,0,0:0:0:0:
358,192,239733,1,0,0:0:0:0:
460,192,239733,1,0,0:0:0:0:
51,192,239733,1,0,0:0:0:0:
256,192,239897,1,0,0:0:0:0:
256,192,240061,1,0,0:0:0:0:
358,192,240061,1,0,0:0:0:0:
460,192,240061,1,0,0:0:0:0:
51,192,240061,1,0,0:0:0:0:
256,192,240225,1,0,0:0:0:0:
358,192,240388,1,0,0:0:0:0:
51,192,240388,1,0,0:0:0:0:
460,192,240388,128,0,240716:0:0:0:0:
256,192,240552,1,0,0:0:0:0:
358,192,240716,1,0,0:0:0:0:
51,192,240716,128,0,240880:0:0:0:0:
153,192,240716,1,0,0:0:0:0:
256,192,240798,1,0,0:0:0:0:
460,192,240880,128,0,241044:0:0:0:0:
153,192,240880,1,0,0:0:0:0:
358,192,240962,1,0,0:0:0:0:
256,192,240962,1,0,0:0:0:0:
153,192,241044,1,0,0:0:0:0:
51,192,241044,1,0,0:0:0:0:
256,192,241126,1,0,0:0:0:0:
358,192,241126,1,0,0:0:0:0:
460,192,241208,1,0,0:0:0:0:
51,192,241208,1,0,0:0:0:0:
153,192,241290,1,0,0:0:0:0:
256,192,241290,1,0,0:0:0:0:
358,192,241372,1,0,0:0:0:0:
460,192,241372,1,0,0:0:0:0:
51,192,241454,1,0,0:0:0:0:
153,192,241454,1,0,0:0:0:0:
358,192,241536,1,0,0:0:0:0:
256,192,241536,1,0,0:0:0:0:
153,192,241618,1,0,0:0:0:0:
460,192,241618,1,0,0:0:0:0:
51,192,241700,128,0,241946:0:0:0:0:
358,192,241700,1,0,0:0:0:0:
256,192,241700,128,0,241864:0:0:0:0:
153,192,241864,128,0,242110:0:0:0:0:
358,192,241864,128,0,242028:0:0:0:0:
256,192,242028,128,0,242274:0:0:0:0:
51,192,242028,1,0,0:0:0:0:
460,192,242028,128,0,242192:0:0:0:0:
358,192,242192,128,0,242438:0:0:0:0:
153,192,242192,1,0,0:0:0:0:
51,192,242192,128,0,242356:0:0:0:0:
256,192,242356,1,0,0:0:0:0:
460,192,242356,128,0,242602:0:0:0:0:
153,192,242356,128,0,242520:0:0:0:0:
358,192,242520,1,0,0:0:0:0:
256,192,242520,128,0,242684:0:0:0:0:
51,192,242520,128,0,242766:0:0:0:0:
460,192,242684,1,0,0:0:0:0:
358,192,242684,128,0,242848:0:0:0:0:
153,192,242684,128,0,242929:0:0:0:0:
256,192,242848,128,0,243093:0:0:0:0:
51,192,242848,1,0,0:0:0:0:
460,192,242848,128,0,243011:0:0:0:0:
358,192,243011,128,0,243257:0:0:0:0:
153,192,243011,1,0,0:0:0:0:
51,192,243011,128,0,243175:0:0:0:0:
256,192,243175,1,0,0:0:0:0:
153,192,243175,128,0,243339:0:0:0:0:
460,192,243175,128,0,243421:0:0:0:0:
358,192,243339,1,0,0:0:0:0:
256,192,243339,128,0,243503:0:0:0:0:
51,192,243339,128,0,243585:0:0:0:0:
358,192,243503,128,0,243667:0:0:0:0:
460,192,243503,1,0,0:0:0:0:
153,192,243503,128,0,243749:0:0:0:0:
256,192,243667,1,0,0:0:0:0:
51,192,243667,1,0,0:0:0:0:
51,192,243831,1,0,0:0:0:0:
153,192,243831,1,0,0:0:0:0:
460,192,243831,1,0,0:0:0:0:
256,192,243831,1,0,0:0:0:0:
51,192,243995,128,0,244241:0:0:0:0:
256,192,243995,128,0,244241:0:0:0:0:
153,192,243995,1,0,0:0:0:0:
460,192,243995,128,0,244241:0:0:0:0:
460,192,244323,1,0,0:0:0:0:
51,192,244323,1,0,0:0:0:0:
153,192,244323,1,0,0:0:0:0:
358,192,244323,128,0,245552:0:0:0:0:
256,192,244487,1,0,0:0:0:0:
153,192,244651,128,0,244897:0:0:0:0:
51,192,244651,128,0,244897:0:0:0:0:
460,192,244651,1,0,0:0:0:0:
256,192,244815,1,0,0:0:0:0:
153,192,244979,128,0,245225:0:0:0:0:
51,192,244979,128,0,245225:0:0:0:0:
460,192,244979,1,0,0:0:0:0:
256,192,245143,1,0,0:0:0:0:
153,192,245307,128,0,245552:0:0:0:0:
51,192,245307,128,0,245552:0:0:0:0:
460,192,245307,1,0,0:0:0:0:
256,192,245470,1,0,0:0:0:0:
51,192,245634,1,0,0:0:0:0:
460,192,245634,1,0,0:0:0:0:
358,192,245634,1,0,0:0:0:0:
153,192,245634,128,0,246864:0:0:0:0:
256,192,245798,1,0,0:0:0:0:
358,192,245962,128,0,246208:0:0:0:0:
460,192,245962,128,0,246208:0:0:0:0:
51,192,245962,1,0,0:0:0:0:
256,192,246126,1,0,0:0:0:0:
358,192,246290,128,0,246536:0:0:0:0:
460,192,246290,128,0,246536:0:0:0:0:
51,192,246290,1,0,0:0:0:0:
256,192,246454,1,0,0:0:0:0:
358,192,246618,128,0,246864:0:0:0:0:
460,192,246618,128,0,246864:0:0:0:0:
51,192,246618,1,0,0:0:0:0:
256,192,246782,1,0,0:0:0:0:
51,192,246946,128,0,247192:0:0:0:0:
153,192,246946,1,0,0:0:0:0:
358,192,246946,1,0,0:0:0:0:
460,192,246946,1,0,0:0:0:0:
51,192,247274,1,0,0:0:0:0:
460,192,247274,1,0,0:0:0:0:
358,192,247274,1,0,0:0:0:0:
358,192,247438,1,0,0:0:0:0:
460,192,247438,1,0,0:0:0:0:
51,192,247438,1,0,0:0:0:0:
51,192,247602,1,0,0:0:0:0:
358,192,247602,1,0,0:0:0:0:
460,192,247602,1,0,0:0:0:0:
358,192,247766,1,0,0:0:0:0:
460,192,247766,1,0,0:0:0:0:
51,192,247766,1,0,0:0:0:0:
51,192,247929,1,0,0:0:0:0:
358,192,247929,1,0,0:0:0:0:
460,192,247929,1,0,0:0:0:0:
358,192,248093,1,0,0:0:0:0:
460,192,248093,1,0,0:0:0:0:
51,192,248093,1,0,0:0:0:0:
51,192,248257,1,0,0:0:0:0:
256,192,248257,1,0,0:0:0:0:
358,192,248257,1,0,0:0:0:0:
460,192,248257,1,0,0:0:0:0:
51,192,249241,1,0,0:0:0:0:
153,192,249282,1,0,0:0:0:0:
256,192,249323,1,0,0:0:0:0:
358,192,249364,1,0,0:0:0:0:
460,192,249405,1,0,0:0:0:0:
51,192,249405,1,0,0:0:0:0:
153,192,249446,1,0,0:0:0:0:
256,192,249487,1,0,0:0:0:0:
358,192,249528,1,0,0:0:0:0:
460,192,249569,1,0,0:0:0:0:
153,192,249569,1,0,0:0:0:0:
51,192,249569,1,0,0:0:0:0:
256,192,249651,1,0,0:0:0:0:
51,192,249733,1,0,0:0:0:0:
460,192,249733,1,0,0:0:0:0:
358,192,249733,1,0,0:0:0:0:
153,192,249815,1,0,0:0:0:0:
256,192,249897,1,0,0:0:0:0:
460,192,249897,1,0,0:0:0:0:
51,192,249897,1,0,0:0:0:0:
153,192,249979,1,0,0:0:0:0:
358,192,250061,1,0,0:0:0:0:
51,192,250143,1,0,0:0:0:0:
358,192,250225,1,0,0:0:0:0:
460,192,250225,1,0,0:0:0:0:
153,192,250225,1,0,0:0:0:0:
256,192,250307,1,0,0:0:0:0:
460,192,250388,1,0,0:0:0:0:
358,192,250388,1,0,0:0:0:0:
51,192,250388,1,0,0:0:0:0:
256,192,250470,1,0,0:0:0:0:
460,192,250552,1,0,0:0:0:0:
51,192,250552,1,0,0:0:0:0:
153,192,250552,1,0,0:0:0:0:
358,192,250634,1,0,0:0:0:0:
51,192,250716,1,0,0:0:0:0:
153,192,250798,1,0,0:0:0:0:
460,192,250880,1,0,0:0:0:0:
358,192,250880,1,0,0:0:0:0:
256,192,250880,1,0,0:0:0:0:
51,192,250962,1,0,0:0:0:0:
358,192,251044,1,0,0:0:0:0:
460,192,251044,1,0,0:0:0:0:
256,192,251044,1,0,0:0:0:0:
153,192,251126,1,0,0:0:0:0:
460,192,251208,1,0,0:0:0:0:
256,192,251208,1,0,0:0:0:0:
51,192,251208,1,0,0:0:0:0:
153,192,251290,1,0,0:0:0:0:
358,192,251372,1,0,0:0:0:0:
51,192,251454,1,0,0:0:0:0:
460,192,251536,1,0,0:0:0:0:
358,192,251536,1,0,0:0:0:0:
153,192,251536,1,0,0:0:0:0:
51,192,251618,1,0,0:0:0:0:
460,192,251700,1,0,0:0:0:0:
358,192,251700,1,0,0:0:0:0:
256,192,251700,1,0,0:0:0:0:
153,192,251782,1,0,0:0:0:0:
460,192,251864,1,0,0:0:0:0:
256,192,251864,1,0,0:0:0:0:
51,192,251864,1,0,0:0:0:0:
153,192,251946,1,0,0:0:0:0:
358,192,252028,1,0,0:0:0:0:
460,192,252110,1,0,0:0:0:0:
51,192,252192,1,0,0:0:0:0:
153,192,252192,1,0,0:0:0:0:
256,192,252274,1,0,0:0:0:0:
460,192,252356,1,0,0:0:0:0:
51,192,252356,1,0,0:0:0:0:
153,192,252356,1,0,0:0:0:0:
256,192,252438,1,0,0:0:0:0:
358,192,252520,1,0,0:0:0:0:
51,192,252520,1,0,0:0:0:0:
460,192,252520,1,0,0:0:0:0:
256,192,252602,1,0,0:0:0:0:
153,192,252684,1,0,0:0:0:0:
460,192,252766,1,0,0:0:0:0:
153,192,252848,1,0,0:0:0:0:
51,192,252848,1,0,0:0:0:0:
358,192,252848,1,0,0:0:0:0:
256,192,252929,1,0,0:0:0:0:
51,192,253011,1,0,0:0:0:0:
153,192,253011,1,0,0:0:0:0:
460,192,253011,1,0,0:0:0:0:
256,192,253093,1,0,0:0:0:0:
51,192,253175,1,0,0:0:0:0:
460,192,253175,1,0,0:0:0:0:
358,192,253175,1,0,0:0:0:0:
153,192,253257,1,0,0:0:0:0:
460,192,253339,1,0,0:0:0:0:
358,192,253421,1,0,0:0:0:0:
51,192,253503,1,0,0:0:0:0:
153,192,253503,1,0,0:0:0:0:
256,192,253503,1,0,0:0:0:0:
460,192,253585,1,0,0:0:0:0:
153,192,253667,1,0,0:0:0:0:
51,192,253667,1,0,0:0:0:0:
256,192,253667,1,0,0:0:0:0:
358,192,253749,1,0,0:0:0:0:
51,192,253831,1,0,0:0:0:0:
153,192,253831,1,0,0:0:0:0:
460,192,253831,1,0,0:0:0:0:
358,192,253913,1,0,0:0:0:0:
153,192,253995,1,0,0:0:0:0:
460,192,254077,1,0,0:0:0:0:
51,192,254159,1,0,0:0:0:0:
153,192,254159,1,0,0:0:0:0:
358,192,254159,1,0,0:0:0:0:
460,192,254241,1,0,0:0:0:0:
51,192,254323,1,0,0:0:0:0:
153,192,254323,1,0,0:0:0:0:
256,192,254323,1,0,0:0:0:0:
460,192,254405,1,0,0:0:0:0:
51,192,254487,1,0,0:0:0:0:
256,192,254487,1,0,0:0:0:0:
358,192,254487,1,0,0:0:0:0:
153,192,254569,1,0,0:0:0:0:
256,192,254651,1,0,0:0:0:0:
153,192,254733,1,0,0:0:0:0:
460,192,254815,1,0,0:0:0:0:
358,192,254815,1,0,0:0:0:0:
51,192,254815,1,0,0:0:0:0:
256,192,254897,1,0,0:0:0:0:
51,192,254979,1,0,0:0:0:0:
460,192,254979,1,0,0:0:0:0:
358,192,254979,1,0,0:0:0:0:
153,192,255061,1,0,0:0:0:0:
256,192,255143,1,0,0:0:0:0:
460,192,255143,1,0,0:0:0:0:
51,192,255143,1,0,0:0:0:0:
153,192,255225,1,0,0:0:0:0:
358,192,255307,1,0,0:0:0:0:
51,192,255388,1,0,0:0:0:0:
358,192,255470,1,0,0:0:0:0:
460,192,255470,1,0,0:0:0:0:
153,192,255470,1,0,0:0:0:0:
256,192,255552,1,0,0:0:0:0:
460,192,255634,1,0,0:0:0:0:
358,192,255634,1,0,0:0:0:0:
51,192,255634,1,0,0:0:0:0:
256,192,255716,1,0,0:0:0:0:
460,192,255798,1,0,0:0:0:0:
51,192,255798,1,0,0:0:0:0:
153,192,255798,1,0,0:0:0:0:
358,192,255880,1,0,0:0:0:0:
51,192,255962,1,0,0:0:0:0:
153,192,256044,1,0,0:0:0:0:
460,192,256126,1,0,0:0:0:0:
358,192,256126,1,0,0:0:0:0:
256,192,256126,1,0,0:0:0:0:
51,192,256208,1,0,0:0:0:0:
358,192,256290,1,0,0:0:0:0:
460,192,256290,1,0,0:0:0:0:
256,192,256290,1,0,0:0:0:0:
153,192,256372,1,0,0:0:0:0:
460,192,256454,1,0,0:0:0:0:
256,192,256454,1,0,0:0:0:0:
51,192,256454,1,0,0:0:0:0:
153,192,256536,1,0,0:0:0:0:
358,192,256618,1,0,0:0:0:0:
51,192,256700,1,0,0:0:0:0:
460,192,256782,1,0,0:0:0:0:
358,192,256782,1,0,0:0:0:0:
153,192,256782,1,0,0:0:0:0:
51,192,256864,1,0,0:0:0:0:
460,192,256946,1,0,0:0:0:0:
358,192,256946,1,0,0:0:0:0:
256,192,256946,1,0,0:0:0:0:
153,192,257028,1,0,0:0:0:0:
460,192,257110,1,0,0:0:0:0:
256,192,257110,1,0,0:0:0:0:
51,192,257110,1,0,0:0:0:0:
153,192,257192,1,0,0:0:0:0:
358,192,257274,1,0,0:0:0:0:
256,192,257356,1,0,0:0:0:0:
358,192,257438,1,0,0:0:0:0:
51,192,257438,1,0,0:0:0:0:
460,192,257438,1,0,0:0:0:0:
153,192,257520,1,0,0:0:0:0:
358,192,257602,1,0,0:0:0:0:
51,192,257602,1,0,0:0:0:0:
153,192,257684,1,0,0:0:0:0:
460,192,257766,1,0,0:0:0:0:
256,192,257766,1,0,0:0:0:0:
358,192,257766,1,0,0:0:0:0:
51,192,257848,1,0,0:0:0:0:
256,192,257929,1,0,0:0:0:0:
153,192,258011,1,0,0:0:0:0:
256,192,258093,1,0,0:0:0:0:
460,192,258093,1,0,0:0:0:0:
358,192,258093,1,0,0:0:0:0:
51,192,258175,1,0,0:0:0:0:
256,192,258257,1,0,0:0:0:0:
153,192,258339,1,0,0:0:0:0:
256,192,258421,1,0,0:0:0:0:
460,192,258421,1,0,0:0:0:0:
358,192,258421,1,0,0:0:0:0:
51,192,258503,1,0,0:0:0:0:
256,192,258585,1,0,0:0:0:0:
153,192,258667,1,0,0:0:0:0:
358,192,258749,1,0,0:0:0:0:
460,192,258749,1,0,0:0:0:0:
256,192,258749,1,0,0:0:0:0:
51,192,258831,1,0,0:0:0:0:
256,192,258913,1,0,0:0:0:0:
153,192,258995,1,0,0:0:0:0:
358,192,259077,1,0,0:0:0:0:
460,192,259077,1,0,0:0:0:0:
256,192,259077,1,0,0:0:0:0:
51,192,259159,1,0,0:0:0:0:
256,192,259241,1,0,0:0:0:0:
153,192,259323,1,0,0:0:0:0:
460,192,259405,1,0,0:0:0:0:
256,192,259405,1,0,0:0:0:0:
358,192,259405,1,0,0:0:0:0:
51,192,259569,1,0,0:0:0:0:
153,192,259569,1,0,0:0:0:0:
460,192,259569,1,0,0:0:0:0:
358,192,259651,1,0,0:0:0:0:
256,192,259651,1,0,0:0:0:0:
460,192,259733,1,0,0:0:0:0:
51,192,259733,1,0,0:0:0:0:
153,192,259815,1,0,0:0:0:0:
256,192,259815,1,0,0:0:0:0:
460,192,259897,1,0,0:0:0:0:
51,192,259897,1,0,0:0:0:0:
256,192,259979,1,0,0:0:0:0:
358,192,259979,1,0,0:0:0:0:
153,192,260061,1,0,0:0:0:0:
51,192,260061,1,0,0:0:0:0:
460,192,260061,1,0,0:0:0:0:
256,192,260143,1,0,0:0:0:0:
51,192,260225,1,0,0:0:0:0:
460,192,260225,1,0,0:0:0:0:
358,192,260225,1,0,0:0:0:0:
153,192,260307,1,0,0:0:0:0:
256,192,260388,1,0,0:0:0:0:
460,192,260388,1,0,0:0:0:0:
51,192,260388,1,0,0:0:0:0:
153,192,260470,1,0,0:0:0:0:
358,192,260552,1,0,0:0:0:0:
51,192,260634,1,0,0:0:0:0:
358,192,260716,1,0,0:0:0:0:
460,192,260716,1,0,0:0:0:0:
153,192,260716,1,0,0:0:0:0:
256,192,260798,1,0,0:0:0:0:
460,192,260880,1,0,0:0:0:0:
358,192,260880,1,0,0:0:0:0:
51,192,260880,1,0,0:0:0:0:
256,192,260962,1,0,0:0:0:0:
460,192,261044,1,0,0:0:0:0:
51,192,261044,1,0,0:0:0:0:
153,192,261044,1,0,0:0:0:0:
358,192,261126,1,0,0:0:0:0:
51,192,261208,1,0,0:0:0:0:
153,192,261290,1,0,0:0:0:0:
460,192,261372,1,0,0:0:0:0:
358,192,261372,1,0,0:0:0:0:
256,192,261372,1,0,0:0:0:0:
51,192,261454,1,0,0:0:0:0:
358,192,261536,1,0,0:0:0:0:
460,192,261536,1,0,0:0:0:0:
256,192,261536,1,0,0:0:0:0:
153,192,261618,1,0,0:0:0:0:
460,192,261700,1,0,0:0:0:0:
256,192,261700,1,0,0:0:0:0:
51,192,261700,1,0,0:0:0:0:
153,192,261782,1,0,0:0:0:0:
358,192,261864,1,0,0:0:0:0:
51,192,261946,1,0,0:0:0:0:
460,192,262028,1,0,0:0:0:0:
358,192,262028,1,0,0:0:0:0:
153,192,262028,1,0,0:0:0:0:
51,192,262110,1,0,0:0:0:0:
460,192,262192,1,0,0:0:0:0:
358,192,262192,1,0,0:0:0:0:
256,192,262192,1,0,0:0:0:0:
153,192,262274,1,0,0:0:0:0:
460,192,262356,1,0,0:0:0:0:
256,192,262356,1,0,0:0:0:0:
51,192,262356,1,0,0:0:0:0:
153,192,262438,1,0,0:0:0:0:
358,192,262520,1,0,0:0:0:0:
460,192,262602,1,0,0:0:0:0:
51,192,262684,1,0,0:0:0:0:
153,192,262684,1,0,0:0:0:0:
256,192,262766,1,0,0:0:0:0:
460,192,262848,1,0,0:0:0:0:
51,192,262848,1,0,0:0:0:0:
153,192,262848,1,0,0:0:0:0:
256,192,262929,1,0,0:0:0:0:
358,192,263011,1,0,0:0:0:0:
51,192,263011,1,0,0:0:0:0:
460,192,263011,1,0,0:0:0:0:
256,192,263093,1,0,0:0:0:0:
153,192,263175,1,0,0:0:0:0:
460,192,263257,1,0,0:0:0:0:
153,192,263339,1,0,0:0:0:0:
51,192,263339,1,0,0:0:0:0:
358,192,263339,1,0,0:0:0:0:
256,192,263421,1,0,0:0:0:0:
51,192,263503,1,0,0:0:0:0:
153,192,263503,1,0,0:0:0:0:
460,192,263503,1,0,0:0:0:0:
256,192,263585,1,0,0:0:0:0:
51,192,263667,1,0,0:0:0:0:
460,192,263667,1,0,0:0:0:0:
358,192,263667,1,0,0:0:0:0:
153,192,263749,1,0,0:0:0:0:
460,192,263831,1,0,0:0:0:0:
358,192,263913,1,0,0:0:0:0:
51,192,263995,1,0,0:0:0:0:
153,192,263995,1,0,0:0:0:0:
256,192,263995,1,0,0:0:0:0:
460,192,264077,1,0,0:0:0:0:
153,192,264159,1,0,0:0:0:0:
51,192,264159,1,0,0:0:0:0:
256,192,264159,1,0,0:0:0:0:
358,192,264241,1,0,0:0:0:0:
51,192,264323,1,0,0:0:0:0:
153,192,264323,1,0,0:0:0:0:
460,192,264323,1,0,0:0:0:0:
358,192,264405,1,0,0:0:0:0:
153,192,264487,1,0,0:0:0:0:
460,192,264569,1,0,0:0:0:0:
51,192,264651,1,0,0:0:0:0:
153,192,264651,1,0,0:0:0:0:
358,192,264651,1,0,0:0:0:0:
460,192,264733,1,0,0:0:0:0:
51,192,264815,1,0,0:0:0:0:
153,192,264815,1,0,0:0:0:0:
256,192,264815,1,0,0:0:0:0:
460,192,264897,1,0,0:0:0:0:
51,192,264979,1,0,0:0:0:0:
256,192,264979,1,0,0:0:0:0:
358,192,264979,1,0,0:0:0:0:
153,192,265061,1,0,0:0:0:0:
256,192,265143,1,0,0:0:0:0:
51,192,265225,1,0,0:0:0:0:
358,192,265307,1,0,0:0:0:0:
153,192,265307,1,0,0:0:0:0:
460,192,265307,1,0,0:0:0:0:
256,192,265388,1,0,0:0:0:0:
460,192,265470,1,0,0:0:0:0:
358,192,265470,1,0,0:0:0:0:
51,192,265470,1,0,0:0:0:0:
153,192,265552,1,0,0:0:0:0:
460,192,265634,1,0,0:0:0:0:
256,192,265634,1,0,0:0:0:0:
358,192,265634,1,0,0:0:0:0:
51,192,265716,1,0,0:0:0:0:
358,192,265798,1,0,0:0:0:0:
153,192,265880,1,0,0:0:0:0:
256,192,265962,1,0,0:0:0:0:
460,192,265962,1,0,0:0:0:0:
51,192,265962,1,0,0:0:0:0:
153,192,266044,1,0,0:0:0:0:
256,192,266126,1,0,0:0:0:0:
460,192,266126,1,0,0:0:0:0:
51,192,266126,1,0,0:0:0:0:
153,192,266208,1,0,0:0:0:0:
256,192,266290,1,0,0:0:0:0:
358,192,266290,1,0,0:0:0:0:
460,192,266290,1,0,0:0:0:0:
51,192,266372,1,0,0:0:0:0:
256,192,266454,1,0,0:0:0:0:
358,192,266454,1,0,0:0:0:0:
460,192,266454,1,0,0:0:0:0:
153,192,266536,1,0,0:0:0:0:
51,192,266618,1,0,0:0:0:0:
460,192,266618,1,0,0:0:0:0:
358,192,266700,1,0,0:0:0:0:
51,192,266782,1,0,0:0:0:0:
153,192,266782,1,0,0:0:0:0:
256,192,266782,1,0,0:0:0:0:
460,192,266864,1,0,0:0:0:0:
153,192,266946,1,0,0:0:0:0:
256,192,266946,1,0,0:0:0:0:
358,192,266946,1,0,0:0:0:0:
51,192,267028,1,0,0:0:0:0:
256,192,267110,1,0,0:0:0:0:
358,192,267110,1,0,0:0:0:0:
460,192,267110,1,0,0:0:0:0:
153,192,267192,1,0,0:0:0:0:
358,192,267274,1,0,0:0:0:0:
256,192,267356,1,0,0:0:0:0:
358,192,267438,1,0,0:0:0:0:
460,192,267438,1,0,0:0:0:0:
153,192,267438,1,0,0:0:0:0:
51,192,267438,1,0,0:0:0:0:
51,192,267602,1,0,0:0:0:0:
153,192,267602,1,0,0:0:0:0:
358,192,267602,1,0,0:0:0:0:
460,192,267602,1,0,0:0:0:0:
460,192,267766,128,0,273175:0:0:0:0:
358,192,267766,128,0,273175:0:0:0:0:
256,192,267766,128,0,273175:0:0:0:0:
153,192,267766,128,0,273175:0:0:0:0:
51,192,267766,128,0,273175:0:0:0:0:
