osu file format v14

[General]
AudioFilename: audio.mp3
AudioLeadIn: 0
PreviewTime: 377
Countdown: 0
SampleSet: Soft
StackLeniency: 0.2
Mode: 0
LetterboxInBreaks: 0
WidescreenStoryboard: 0

[Editor]
Bookmarks: 13537,29853,41081,66344
DistanceSpacing: 0.3
BeatDivisor: 4
GridSize: 16
TimelineZoom: 1.2

[Metadata]
Title:IGNITE
TitleUnicode:IGNITE
Artist:Eir Aoi
ArtistUnicode:藍井エイル
Creator:imbor
Version:Insane
Source:ソードアート・オンラインⅡ
Tags:sword art online ii sao 2nd season opening phantom bullet saoii sao2 asuna kirigaya kazuto kirito sinon shinon bor TV size
BeatmapID:1179257
BeatmapSetID:557304

[Difficulty]
HPDrainRate:5
CircleSize:4.2
OverallDifficulty:7.5
ApproachRate:8.8
SliderMultiplier:1.9
SliderTickRate:1

[Events]
//Background and Video events
0,0,"bg3.jpg",0,0
//Break Periods
//Storyboard Layer 0 (Background)
//Storyboard Layer 1 (Fail)
//Storyboard Layer 2 (Pass)
//Storyboard Layer 3 (Foreground)
//Storyboard Sound Samples

[TimingPoints]
377,350.877192982456,4,2,0,30,1,0
12309,-100,4,2,10,55,0,0
17920,-83.3333333333333,4,2,10,55,0,0
18622,-133.333333333333,4,2,10,55,0,0
28271,-200,4,2,10,40,0,0
28359,-200,4,2,10,14,0,0
29148,-200,4,2,10,55,0,0
29850,-100,4,2,10,55,0,0
38271,-83.3333333333333,4,2,10,55,0,0
52657,-133.333333333333,4,2,10,55,0,0
55113,-76.9230769230769,4,2,10,55,0,1
77569,-100,4,2,10,55,0,0

[Colours]
Combo1 : 215,101,252
Combo2 : 255,137,81
Combo3 : 128,185,255
Combo4 : 216,14,65

[HitObjects]
194,93,552,5,2,0:0:0:0:
194,93,727,2,0,B|214:109|214:109|290:115,1,95,2|0,0:0|0:0,0:0:0:0:
360,139,1078,1,2,0:0:0:0:
407,74,1254,1,0,0:0:0:0:
360,8,1429,1,2,0:0:0:0:
283,33,1605,1,2,0:0:0:0:
168,202,1780,6,0,P|149:155|169:108,1,95,2|0,0:0|0:0,0:0:0:0:
283,114,2131,2,0,P|297:158|279:201,1,95,2|0,0:0|0:0,0:0:0:0:
163,208,2482,2,0,P|144:161|164:114,1,95,2|0,0:0|0:0,0:0:0:0:
278,120,2833,2,0,P|292:164|274:207,2,95,2|0|0,0:0|0:0|0:0,0:0:0:0:
154,126,3359,5,0,0:0:0:0:
154,126,3534,2,0,B|175:142|175:142|167:243,1,95,2|0,0:0|0:0,0:0:0:0:
150,304,3885,1,2,0:0:0:0:
243,287,4061,1,0,0:0:0:0:
336,270,4236,1,2,0:0:0:0:
429,253,4412,1,2,0:0:0:0:
373,114,4587,6,0,P|354:160|374:207,1,95,2|0,0:0|0:0,0:0:0:0:
488,202,4938,2,0,P|502:157|484:114,1,95
430,282,5289,2,0,L|328:268,1,95,2|0,0:0|0:0,0:0:0:0:
262,192,5640,1,0,0:0:0:0:
189,269,5815,1,0,0:0:0:0:
189,269,5991,6,0,L|94:281,1,95,2|0,0:0|0:0,0:0:0:0:
1,196,6341,2,0,L|96:184,1,95
249,134,6692,2,0,P|208:106|146:105,3,95,2|0|0|0,0:0|0:0|0:0|0:0,0:0:0:0:
298,32,7394,6,0,B|273:50|273:50|281:217,1,190,2|0,0:0|0:0,0:0:0:0:
280,209,7920,1,0,0:0:0:0:
409,69,8096,2,0,B|384:87|384:87|392:254,1,190,2|0,0:0|0:0,0:0:0:0:
391,246,8622,1,0,0:0:0:0:
454,328,8798,6,0,B|425:348|425:348|261:334,1,190,2|0,0:0|0:0,0:0:0:0:
270,334,9324,1,0,0:0:0:0:
98,253,9499,2,0,B|127:233|127:233|281:246,1,190,2|0,0:0|0:0,0:0:0:0:
281,246,10026,1,0,0:0:0:0:
137,361,10201,6,0,L|150:279,1,47.5,2|0,0:0|0:0,0:0:0:0:
161,154,10376,2,0,B|69:171|69:171|-4:93,3,190,2|2|2|2,0:0|0:0|0:0|0:0,0:0:0:0:
2,101,11605,1,0,0:0:0:0:
130,29,11780,2,0,L|121:89,1,47.5,2|0,0:0|0:0,0:0:0:0:
157,49,11955,2,0,L|135:105,1,47.5,2|0,0:0|0:0,0:0:0:0:
179,74,12131,2,0,L|145:124,1,47.5,2|0,0:0|0:0,0:0:0:0:
86,188,12306,1,0,1:0:0:0:
153,323,12482,1,4,1:3:0:0:
277,4,12833,1,2,0:0:0:0:
277,4,12920,1,2,0:0:0:0:
277,4,13008,6,0,B|249:40|249:40|285:189,1,190,4|0,0:0|1:0,0:0:0:0:
339,266,13534,1,0,3:0:0:0:
339,266,13622,1,0,3:0:0:0:
339,266,13710,1,2,3:0:0:0:
444,142,13885,2,0,L|422:243,1,95,0|0,0:0|1:0,0:0:0:0:
401,313,14236,1,0,0:0:0:0:
225,352,14412,6,0,B|206:332|206:332|35:341,1,190,4|0,0:0|1:0,0:0:0:0:
141,294,14938,1,0,3:0:0:0:
141,294,15026,1,0,3:0:0:0:
141,294,15113,1,2,3:0:0:0:
172,223,15289,1,0,0:0:0:0:
227,122,15464,6,0,B|260:144|260:144|280:324,1,190,0|4,1:0|0:0,0:0:0:0:
497,232,16166,2,0,B|510:207|510:207|490:112,1,95,0|0,1:0|0:0,0:0:0:0:
433,77,16517,1,0,0:0:0:0:
470,305,16692,1,2,0:0:0:0:
470,305,16780,1,2,0:0:0:0:
470,305,16868,1,2,1:2:0:0:
383,207,17043,6,0,B|354:211|354:211|307:265,1,95,8|0,0:3|0:0,0:0:0:0:
275,119,17394,2,0,B|251:136|251:136|238:207,1,95,4|0,0:3|0:0,0:0:0:0:
153,76,17745,2,0,L|153:156,1,47.5,4|0,0:3|0:0,0:0:0:0:
206,266,17920,2,0,L|65:245,1,113.999996520996,0|2,1:0|0:0,0:0:0:0:
82,256,18622,6,0,L|175:270,1,71.2500027179719,4|0,1:0|0:0,0:0:0:0:
258,343,18973,2,0,L|248:185,2,142.500005435944,0|0|2,0:0|0:0|0:0,0:0:0:0:
356,320,19850,1,2,0:0:0:0:
454,297,20026,2,0,P|464:248|440:171,1,106.875004076958,2|0,0:0|0:0,0:0:0:0:
446,189,20376,1,0,0:0:0:0:
379,132,20552,2,0,P|378:76|383:46,1,71.2500027179719,2|0,0:0|0:0,0:0:0:0:
436,13,20903,1,2,0:0:0:0:
219,67,21254,1,4,0:3:0:0:
162,18,21429,6,0,B|139:52|139:52|167:184,1,142.500005435944,4|0,0:3|0:0,0:0:0:0:
182,255,21955,2,0,B|196:325,1,71.2500027179719,2|2,0:0|0:0,0:0:0:0:
196,325,22482,1,0,3:0:0:0:
196,325,22833,1,0,3:0:0:0:
196,325,23184,1,0,3:0:0:0:
202,331,23534,2,0,L|349:343,1,142.500005435944,2|2,3:2|3:2,0:0:0:0:
512,268,24236,5,4,0:3:0:0:
512,268,24412,2,0,B|500:250|500:250|501:189,1,71.2500027179719,2|0,0:0|0:0,0:0:0:0:
439,110,24762,2,0,B|435:88|435:88|461:33,1,71.2500027179719,2|0,0:0|0:0,0:0:0:0:
339,29,25113,2,0,L|370:186,1,142.500005435944,2|4,0:0|0:3,0:0:0:0:
366,168,25640,1,4,0:3:0:0:
361,176,25991,2,0,B|324:199|324:199|191:208,2,142.500005435944,2|2|2,3:2|3:2|3:2,0:0:0:0:
322,240,26868,1,4,0:3:0:0:
282,305,27043,6,0,L|122:315,1,142.500005435944,4|0,0:3|0:0,0:0:0:0:
59,256,27569,1,0,0:0:0:0:
136,322,27745,2,0,L|279:313,1,142.500005435944,2|0,0:0|0:0,0:0:0:0:
495,201,28271,2,2,P|526:124|404:121,1,237.5,0|2,0:1|0:0,0:1:0:0:
419,101,29850,6,0,B|430:128|430:128|416:210,1,95,4|0,0:1|0:0,0:0:0:0:
289,194,30201,2,0,B|277:129|277:129|288:102,1,95,4|0,0:3|0:0,0:0:0:0:
358,250,30552,1,4,0:3:0:0:
358,250,30727,2,0,B|296:274|296:274|268:269,1,95,0|0,0:3|1:0,0:0:0:0:
189,219,31078,1,0,3:0:0:0:
36,280,31254,2,0,B|192:293|192:293|230:323,1,190,4|4,0:3|0:3,0:0:0:0:
305,363,31780,2,0,P|355:373|375:339,1,95,2|4,0:0|0:3,0:0:0:0:
437,249,32131,2,0,P|447:199|413:178,1,95,2|0,0:0|1:0,0:0:0:0:
414,179,32482,1,0,3:0:0:0:
419,168,32569,1,0,3:0:0:0:
423,156,32657,6,0,P|366:132|308:244,1,190,4|4,3:3|3:0,0:0:0:0:
298,219,33184,1,2,0:0:0:0:
359,275,33359,2,0,B|334:298|334:298|180:317,1,190,2|0,0:0|1:0,0:0:0:0:
92,284,33885,1,2,0:0:0:0:
0,253,34061,2,0,B|3:184|3:184|26:147,1,95,2|0,0:0|0:0,0:0:0:0:
135,109,34412,1,4,0:3:0:0:
60,69,34587,1,8,0:3:0:0:
56,73,34762,2,0,P|105:25|196:47,1,142.5,2|0,0:0|0:0,0:0:0:0:
181,34,35113,2,0,P|227:13|291:25,1,95,0|0,1:0|0:0,0:0:0:0:
345,53,35464,5,4,0:3:0:0:
345,53,35640,2,0,B|326:72|326:72|332:182,1,95,0|4,0:0|0:3,0:0:0:0:
405,208,35991,2,0,B|385:231|385:231|226:216,1,190,2|2,0:0|0:0,0:0:0:0:
165,148,36517,1,0,1:0:0:0:
221,221,36692,2,0,P|269:217|266:275,1,95,2|4,0:0|3:0,0:0:0:0:
342,325,37043,1,0,0:0:0:0:
341,332,37219,2,0,P|357:291|401:298,1,95,4|0,3:0|0:0,0:0:0:0:
480,263,37569,1,2,0:0:0:0:
426,114,37745,2,0,B|417:93|417:93|398:122,1,47.5,2|0,0:1|0:0,0:0:0:0:
488,144,37920,2,0,L|314:150,1,142.5,4|0,0:0|0:0,0:0:0:0:
280,118,38271,6,0,P|241:174|291:287,1,170.999994781494,4|4,1:0|3:0,0:0:0:0:
274,271,38622,1,0,1:0:0:0:
156,359,38798,2,0,P|178:294|98:199,1,170.999994781494,4|4,3:0|3:0,0:0:0:0:
120,211,39148,1,0,1:0:0:0:
77,298,39324,1,4,3:0:0:0:
3,203,39499,2,0,L|18:82,1,113.999996520996,2|4,0:0|3:0,0:0:0:0:
0,17,39850,2,0,P|44:52|156:42,1,170.999994781494,0|4,1:0|3:0,0:0:0:0:
156,38,40201,1,4,3:0:0:0:
130,136,40376,1,0,1:0:0:0:
265,111,40552,1,8,3:0:0:0:
275,114,40640,1,8,3:0:0:0:
285,117,40727,1,4,3:0:0:0:
392,145,40903,1,4,3:0:0:0:
343,249,41078,5,4,1:0:0:0:
306,307,41254,2,0,B|313:282|313:282|299:191,1,113.999996520996,2|0,1:0|0:0,0:0:0:0:
220,135,41605,2,0,B|213:110|213:110|227:19,1,113.999996520996,2|2,0:0|0:0,0:0:0:0:
226,22,41955,1,4,3:0:0:0:
99,145,42131,1,0,1:0:0:0:
51,209,42306,2,0,B|76:223|76:223|171:218,1,113.999996520996,2|0,1:0|0:0,0:0:0:0:
266,332,42657,2,0,B|241:318|241:318|146:323,1,113.999996520996,4|4,0:3|0:3,0:0:0:0:
106,153,43008,1,2,0:0:0:0:
106,153,43096,1,2,0:0:0:0:
106,153,43184,1,0,1:0:0:0:
181,94,43359,1,4,3:0:0:0:
315,158,43534,1,0,1:0:0:0:
384,133,43710,1,4,3:0:0:0:
392,253,43885,5,4,1:0:0:0:
354,313,44061,2,0,B|337:326|337:326|234:314,1,113.999996520996,2|0,1:0|0:0,0:0:0:0:
151,366,44412,2,0,B|134:353|134:353|31:365,1,113.999996520996,2|2,0:0|0:0,0:0:0:0:
42,363,44762,1,4,3:0:0:0:
101,213,44938,1,0,1:0:0:0:
131,147,45113,2,0,B|148:134|148:134|251:146,1,113.999996520996,2|0,1:0|0:0,0:0:0:0:
390,47,45464,2,0,B|373:60|373:60|270:48,1,113.999996520996,2|2,0:0|0:0,0:0:0:0:
231,230,45815,1,0,3:0:0:0:
231,230,45903,1,0,3:0:0:0:
231,230,45991,1,0,1:0:0:0:
309,251,46166,1,4,3:0:0:0:
196,308,46341,1,8,3:0:0:0:
103,300,46517,1,8,3:0:0:0:
0,235,46692,6,0,B|18:209|18:209|39:10,1,227.999993041992,4|0,0:1|0:0,0:0:0:0:
130,51,47219,1,4,3:0:0:0:
221,89,47394,2,0,P|268:42|305:68,1,113.999996520996,0|0,1:0|0:0,0:0:0:0:
392,60,47745,2,0,P|442:44|471:88,1,113.999996520996,2|2,0:0|0:0,0:0:0:0:
471,88,48096,1,4,3:0:0:0:
512,175,48271,2,0,L|273:202,1,227.999993041992,0|0,1:0|0:0,0:0:0:0:
188,191,48798,1,2,1:0:0:0:
133,251,48973,1,2,1:0:0:0:
207,334,49148,1,2,1:0:0:0:
196,376,49324,1,2,0:0:0:0:
115,331,49499,6,0,B|95:295|95:295|125:104,1,227.999993041992,4|2,0:0|0:0,0:0:0:0:
123,110,50026,1,4,3:0:0:0:
150,32,50201,2,0,B|172:45|172:45|261:54,1,113.999996520996,2|0,1:2|0:0,0:0:0:0:
381,36,50552,2,0,B|403:23|403:23|492:14,1,113.999996520996,0|0,1:0|0:0,0:0:0:0:
490,14,50903,1,0,1:0:0:0:
478,135,51078,2,0,P|405:134|364:215,1,170.999994781494,4|4,3:0|3:0,0:0:0:0:
370,218,51429,1,0,1:0:0:0:
417,282,51605,1,4,3:0:0:0:
370,347,51780,1,4,3:0:0:0:
295,322,51955,1,0,1:0:0:0:
295,243,52131,1,0,1:0:0:0:
223,365,52306,5,0,3:0:0:0:
157,274,52482,1,0,3:0:0:0:
157,274,52569,1,0,3:0:0:0:
157,274,52657,2,0,L|147:320,1,35.625001358986,0|0,1:0|0:0,0:0:0:0:
58,202,52833,2,0,L|67:248,1,35.625001358986,0|0,1:0|0:0,0:0:0:0:
157,130,53008,2,0,L|147:176,1,35.625001358986,0|0,1:0|0:0,0:0:0:0:
66,73,53184,1,2,3:0:0:0:
66,73,53271,1,2,3:0:0:0:
66,73,53359,1,2,3:0:0:0:
152,6,53534,1,0,1:0:0:0:
55,264,53885,5,2,1:1:0:0:
138,245,54061,1,2,1:1:0:0:
114,327,54236,1,2,1:1:0:0:
242,243,54412,1,2,1:1:0:0:
261,313,54587,1,2,1:1:0:0:
364,384,54762,1,2,0:0:0:0:
354,357,54850,1,2,0:0:0:0:
355,328,54938,1,2,0:0:0:0:
362,300,55026,1,2,0:0:0:0:
402,221,55113,6,0,P|401:147|366:72,1,123.499994346619,4|0,1:0|0:0,0:0:0:0:
297,20,55464,1,0,1:0:0:0:
216,112,55640,1,2,3:0:0:0:
216,112,55727,1,2,3:0:0:0:
216,112,55815,1,4,3:0:0:0:
165,170,55991,1,4,3:0:0:0:
68,295,56166,2,0,B|55:271|55:271|73:176,1,123.499994346619,0|0,1:0|0:0,0:0:0:0:
52,51,56517,6,0,P|125:61|136:20,1,123.499994346619,2|0,0:0|0:0,0:0:0:0:
136,26,56868,1,0,1:0:0:0:
254,0,57043,1,0,3:0:0:0:
249,11,57131,1,0,3:0:0:0:
244,22,57219,1,4,3:0:0:0:
259,118,57394,1,4,3:0:0:0:
277,238,57569,1,0,1:0:0:0:
352,205,57745,1,2,0:0:0:0:
158,220,57920,6,0,L|154:371,1,123.499994346619,2|0,0:1|0:0,0:0:0:0:
306,344,58271,1,0,1:0:0:0:
307,214,58447,1,0,3:0:0:0:
307,214,58534,1,0,3:0:0:0:
307,214,58622,1,2,1:0:0:0:
396,44,58798,2,0,B|374:70|374:70|355:168,1,123.499994346619,0|0,0:0|1:0,0:0:0:0:
507,229,59148,1,2,3:0:0:0:
507,229,59236,1,2,3:0:0:0:
507,229,59324,6,0,B|482:194|482:194|265:167,1,246.999988693238,2|0,1:0|1:0,0:0:0:0:
190,210,59850,1,0,0:0:0:0:
101,252,60026,1,2,0:0:0:0:
21,148,60201,2,0,B|107:169|107:169|149:152,1,123.499994346619,4|0,3:0|1:0,0:0:0:0:
259,54,60552,1,2,3:0:0:0:
259,54,60640,1,2,3:0:0:0:
259,54,60727,6,0,B|235:88|235:88|252:301,1,246.999988693238,2|0,2:1|1:0,0:0:0:0:
94,88,61254,1,4,3:0:0:0:
0,160,61429,2,0,L|134:176,1,123.499994346619,2|0,0:1|0:0,0:0:0:0:
276,193,61780,1,0,1:0:0:0:
334,364,61955,1,2,0:0:0:0:
334,364,62043,1,2,0:0:0:0:
334,364,62131,6,0,B|358:330|358:330|341:117,1,246.999988693238,2|0,0:1|1:0,0:0:0:0:
341,125,62657,1,4,3:0:0:0:
268,21,62833,2,0,P|231:72|289:139,1,123.499994346619,2|0,0:1|0:0,0:0:0:0:
379,218,63184,1,0,1:0:0:0:
309,280,63359,1,2,3:0:0:0:
309,280,63447,1,2,3:0:0:0:
309,280,63534,6,0,L|318:356,1,61.7499971733095,2|0,0:0|0:0,0:0:0:0:
121,258,63710,2,0,B|141:238|141:238|266:230,1,123.499994346619,2|0,0:1|1:0,0:0:0:0:
396,116,64061,2,0,B|376:136|376:136|280:142,1,123.499994346619,2|4,0:1|0:3,0:0:0:0:
116,268,64412,1,2,0:1:0:0:
169,208,64587,2,0,L|158:115,1,61.7499971733095,4|0,3:0|0:3,0:3:0:0:
47,38,64762,2,0,B|23:56|23:56|37:178,1,123.499994346619,0|2,1:0|0:0,0:0:0:0:
114,278,65113,5,2,0:0:0:0:
246,202,65289,1,2,3:1:0:0:
258,204,65376,1,4,3:3:0:0:
270,206,65464,1,2,3:1:0:0:
366,185,65640,1,2,0:1:0:0:
412,271,65815,1,2,0:1:0:0:
262,362,65991,1,2,0:0:0:0:
239,352,66078,1,2,0:0:0:0:
216,342,66166,1,2,0:0:0:0:
193,332,66254,1,2,0:0:0:0:
124,302,66341,6,0,P|106:247|134:165,1,123.499994346619,4|0,0:1|0:0,0:0:0:0:
207,65,66692,1,0,1:0:0:0:
277,180,66868,1,0,3:0:0:0:
277,180,66955,1,0,3:0:0:0:
277,180,67043,1,4,3:0:0:0:
321,244,67219,1,4,0:3:0:0:
411,368,67394,2,0,B|403:332|403:332|421:248,1,123.499994346619,0|0,1:0|0:0,0:0:0:0:
481,95,67745,6,0,P|418:112|386:56,1,123.499994346619,2|0,0:0|0:0,0:0:0:0:
386,71,68096,1,2,1:2:0:0:
258,14,68271,1,2,3:2:0:0:
270,27,68359,1,2,3:2:0:0:
282,40,68447,1,4,3:0:0:0:
310,134,68622,1,0,0:0:0:0:
348,263,68798,1,2,1:2:0:0:
269,230,68973,1,0,0:0:0:0:
454,240,69148,6,0,B|442:267|442:267|321:285,1,123.499994346619,2|0,0:0|0:0,0:0:0:0:
194,318,69499,1,0,1:0:0:0:
52,200,69675,1,0,3:0:0:0:
52,200,69762,1,0,3:0:0:0:
52,200,69850,1,2,3:2:0:0:
0,317,70026,2,0,B|21:294|21:294|134:295,1,123.499994346619,4|0,3:0|1:0,0:0:0:0:
258,183,70376,1,0,0:0:0:0:
222,17,70552,6,0,B|188:53|188:53|168:264,1,246.999988693238,2|0,0:0|1:0,0:0:0:0:
301,359,71078,1,0,3:0:0:0:
301,359,71166,1,0,3:0:0:0:
301,359,71254,2,0,B|319:339|319:339|329:230,1,123.499994346619,2|4,0:0|3:0,0:0:0:0:
169,249,71605,1,0,1:0:0:0:
118,0,71780,1,2,0:0:0:0:
118,0,71868,1,2,0:0:0:0:
118,0,71955,6,0,B|84:36|84:36|64:247,1,246.999988693238,2|0,0:0|1:0,0:0:0:0:
65,232,72482,1,0,0:0:0:0:
117,309,72657,2,0,B|130:326|130:326|249:322,1,123.499994346619,2|4,0:0|3:0,0:0:0:0:
424,246,73008,2,0,B|411:229|411:229|292:233,1,123.499994346619,0|0,1:0|0:0,0:0:0:0:
310,367,73359,6,0,P|386:354|395:304,1,123.499994346619,2|0,0:0|0:0,0:0:0:0:
276,144,73710,2,0,P|217:141|188:193,1,123.499994346619,0|0,1:0|0:0,0:0:0:0:
314,376,74061,1,2,0:0:0:0:
371,189,74236,2,0,L|381:257,1,61.7499971733095,0|0,3:0|3:0,3:0:0:0:
269,136,74412,1,8,3:0:0:0:
265,124,74499,1,8,3:0:0:0:
261,112,74587,1,4,3:0:0:0:
257,100,74675,1,4,3:0:0:0:
253,88,74762,6,0,P|210:89|196:112,1,61.7499971733095,2|0,0:1|0:0,0:0:0:0:
136,265,74938,2,0,B|120:253|120:253|125:128,1,123.499994346619,2|0,0:1|1:0,0:0:0:0:
0,16,75289,2,0,B|16:28|16:28|11:153,1,123.499994346619,2|4,0:1|3:0,0:0:0:0:
145,272,75640,1,0,0:0:0:0:
189,210,75815,2,0,B|278:237,1,61.7499971733095,0|0,1:0|0:0,0:0:0:0:
409,178,75991,2,0,B|394:152|394:152|303:124,1,123.499994346619,2|0,1:2|0:0,0:0:0:0:
119,120,76341,5,4,3:3:0:0:
113,127,76429,1,4,3:3:0:0:
107,134,76517,1,8,1:3:0:0:
41,201,76692,1,2,0:0:0:0:
88,327,76868,1,0,3:0:0:0:
88,327,76955,1,0,3:0:0:0:
88,327,77043,2,0,P|119:343|157:344,1,61.7499971733095,0|0,1:0|0:0,0:0:0:0:
248,296,77219,2,0,P|278:299|305:314,1,61.7499971733095,8|8,3:0|3:0,0:0:0:0:
430,364,77394,1,4,3:0:0:0:
430,364,77482,1,4,3:0:0:0:
430,364,77569,6,0,L|421:242,1,95,2|0,0:0|0:0,0:0:0:0:
459,172,77920,1,0,1:0:0:0:
376,91,78096,1,0,3:0:0:0:
368,96,78184,1,0,3:0:0:0:
360,101,78271,2,0,L|249:101,1,95,4|0,0:3|0:0,0:0:0:0:
165,53,78622,1,0,1:0:0:0:
99,100,78798,1,2,0:0:0:0:
84,213,78973,2,0,P|116:178|186:195,1,95,4|2,0:0|0:0,0:0:0:0:
269,247,79324,2,0,P|283:292|233:344,1,95,0|2,1:2|0:0,0:0:0:0:
137,337,79675,1,2,0:0:0:0:
189,248,79850,1,2,0:0:0:0:
241,159,80026,2,0,P|241:96|180:66,1,95,2|0,1:2|0:0,0:0:0:0:
81,33,80376,6,0,B|116:19|116:19|297:52,1,190,4|0,0:0|1:0,0:0:0:0:
375,146,80903,1,0,3:0:0:0:
375,146,80991,1,0,3:0:0:0:
375,146,81078,1,4,3:0:0:0:
312,202,81254,1,2,0:0:0:0:
196,311,81429,2,0,B|271:317|271:317|303:349,1,95,0|2,1:0|0:0,0:0:0:0:
471,284,81780,2,0,B|396:278|396:278|364:246,1,95,4|2,0:0|0:0,0:0:0:0:
424,203,82131,1,0,1:0:0:0:
279,343,82306,1,0,1:0:0:0:
260,268,82482,1,8,0:3:0:0:
263,259,82569,1,8,0:3:0:0:
266,250,82657,1,8,0:3:0:0:
256,141,82833,2,0,P|224:121|196:187,1,95,2|0,1:2|0:0,0:0:0:0:
123,255,83184,6,0,B|143:215|143:215|132:54,1,190,4|0,2:0|1:0,0:0:0:0:
133,70,83710,1,0,3:0:0:0:
146,74,83798,1,0,3:0:0:0:
159,78,83885,2,0,P|197:75|229:26,1,95,4|0,3:0|0:0,0:0:0:0:
228,31,84236,1,0,1:0:0:0:
297,104,84412,1,0,3:0:0:0:
297,104,84499,1,0,3:0:0:0:
297,104,84587,1,4,3:0:0:0:
219,349,84938,6,0,B|198:318|198:318|205:132,2,190,2|2|2,1:2|2:1|1:0,0:0:0:0:
31,185,85991,2,0,B|194:172|194:172|227:145,1,190,4|0,0:0|1:0,0:0:0:0:
99,106,86517,1,0,1:0:0:0:
95,257,86692,2,0,B|258:244|258:244|291:217,1,190,4|2,3:0|0:0,0:0:0:0:
332,151,87219,1,2,0:0:0:0:
457,100,87394,5,8,0:3:0:0:
379,58,87569,1,8,0:3:0:0:
251,162,87745,1,4,0:3:0:0:
165,186,87920,1,4,0:3:0:0:
34,97,88096,1,8,3:0:0:0:
159,51,88271,1,8,3:0:0:0:
21,90,88447,1,4,3:0:0:0:
165,36,88622,1,4,1:2:0:0:
