osu file format v14

[General]
AudioFilename: audio.mp3
AudioLeadIn: 0
PreviewTime: 377
Countdown: 0
SampleSet: None
StackLeniency: 0.7
Mode: 0
LetterboxInBreaks: 0
WidescreenStoryboard: 1

[Editor]
Bookmarks: 13537,29853,41081,66344
DistanceSpacing: 1
BeatDivisor: 4
GridSize: 16
TimelineZoom: 1.2

[Metadata]
Title:IGNITE
TitleUnicode:IGNITE
Artist:Eir Aoi
ArtistUnicode:藍井エイル
Creator:imbor
Version:Normal
Source:ソードアート・オンラインⅡ
Tags:sword art online ii sao 2nd season opening phantom bullet saoii sao2 asuna kirigaya kazuto kirito sinon shinon bor TV size
BeatmapID:1330332
BeatmapSetID:557304

[Difficulty]
HPDrainRate:2
CircleSize:3
OverallDifficulty:2
ApproachRate:3
SliderMultiplier:0.999999999999999
SliderTickRate:1

[Events]
//Background and Video events
0,0,"bg3.jpg",0,0
//Break Periods
//Storyboard Layer 0 (Background)
//Storyboard Layer 1 (Fail)
//Storyboard Layer 2 (Pass)
//Storyboard Layer 3 (Foreground)
//Storyboard Sound Samples

[TimingPoints]
377,350.877192982456,4,2,0,30,1,0
12309,-100,4,2,10,55,0,0
17920,-100,4,2,10,55,0,0
18622,-111.111111111111,4,2,10,55,0,0
28271,-100,4,2,10,40,0,0
29148,-100,4,2,10,55,0,0
29850,-100,4,2,10,55,0,0
38271,-100,4,2,10,55,0,0
52657,-100,4,2,10,55,0,0
55113,-100,4,2,10,55,0,1
77569,-100,4,2,10,55,0,0

[Colours]
Combo1 : 215,101,252
Combo2 : 255,137,81
Combo3 : 128,185,255
Combo4 : 216,14,65

[HitObjects]
103,106,552,5,2,0:0:0:0:
103,106,1078,2,0,P|141:187|144:206,1,99.9999999999999,2|2,0:0|0:0,0:0:0:0:
61,254,1780,6,0,P|152:233|265:228,1,200,2|2,0:0|0:0,0:0:0:0:
430,330,3184,1,0,0:0:0:0:
430,330,3885,2,0,P|411:269|406:220,1,99.9999999999999,2|2,0:0|0:0,0:0:0:0:
434,137,4587,2,0,P|387:181|259:253,3,200,2|2|2|2,0:0|0:0|0:0|0:0,0:0:0:0:
125,110,7394,6,0,P|174:54|305:62,1,200,2|2,0:0|0:0,0:0:0:0:
360,242,8798,2,0,P|311:298|180:290,1,200,2|2,0:0|0:0,0:0:0:0:
125,110,10201,5,2,0:0:0:0:
125,110,10727,2,0,L|109:221,1,99.9999999999999,2|2,0:0|0:0,0:0:0:0:
161,295,11429,2,0,P|202:219|255:158,1,150,2|2,0:0|0:0,0:0:0:0:
240,70,12306,2,0,L|242:3,1,50,0|4,1:0|1:3,0:0:0:0:
391,2,13008,6,0,P|399:70|515:83,1,200,4|2,0:0|3:0,0:0:0:0:
504,185,14061,1,0,1:0:0:0:
490,284,14412,2,0,L|383:300,1,99.9999999999999,4|0,0:0|1:0,0:0:0:0:
322,372,15113,2,0,L|215:356,1,99.9999999999999,2|0,3:0|1:0,0:0:0:0:
122,356,15815,6,0,P|128:295|111:148,1,200,4|0,0:0|0:0,0:0:0:0:
61,71,16868,2,0,P|66:34|74:15,1,50,2|8,1:2|0:3,0:0:0:0:
200,96,17569,1,0,0:0:0:0:
292,134,17920,2,0,L|361:139,1,50,0|2,1:0|0:0,0:0:0:0:
375,8,18622,6,0,P|350:52|500:129,1,269.999991760254,4|2,1:0|0:0,0:0:0:0:
432,204,20026,2,0,L|440:345,2,134.999995880127,2|2|0,0:0|0:0|0:0,0:0:0:0:
350,242,21429,6,0,P|290:236|210:333,1,179.999994506836,4|2,0:3|0:0,0:0:0:0:
219,324,22833,1,0,3:0:0:0:
219,324,23534,2,0,L|122:313,1,89.999997253418,2|2,3:2|3:2,0:0:0:0:
41,333,24236,6,0,P|53:245|39:145,1,179.999994506836,4|0,0:3|0:0,0:0:0:0:
134,0,25640,2,0,P|117:58|212:129,1,179.999994506836,4|2,0:3|3:2,0:0:0:0:
278,91,26692,1,2,3:2:0:0:
350,37,27043,6,0,P|403:75|513:106,2,179.999994506836,4|2|0,0:3|0:0|0:0,0:0:0:0:
370,235,29148,1,2,0:0:0:0:
370,235,29850,6,0,B|277:273|277:273|185:236|185:236|82:281,1,300,4|0,0:1|1:0,0:0:0:0:
25,201,31254,2,0,B|67:188|106:145|106:145|159:148|198:179|198:179|248:152|267:106|267:106,1,300,4|0,0:3|1:0,0:0:0:0:
338,37,32657,6,0,P|429:8|422:165,1,300,4|0,3:3|1:0,0:0:0:0:
376,242,34061,2,0,B|349:342|349:342|255:371|255:371|173:302,1,300,2|0,0:0|1:0,0:0:0:0:
90,351,35464,6,0,P|42:360|10:233,1,200,4|0,0:3|0:0,0:0:0:0:
58,162,36517,1,0,1:0:0:0:
32,63,36868,2,0,L|151:78,1,99.9999999999999,4|4,3:0|3:0,0:0:0:0:
217,24,37569,2,0,L|336:9,1,99.9999999999999,2|4,0:0|0:0,0:0:0:0:
411,43,38271,6,0,P|430:95|370:164,2,150,4|4|4,1:0|3:0|3:0,0:0:0:0:
316,11,39675,2,0,L|217:24,1,99.9999999999999,4|0,3:0|0:0,0:0:0:0:
135,81,40376,1,0,1:0:0:0:
135,81,40727,1,4,3:0:0:0:
66,153,41078,6,0,L|73:223,1,50,4|2,1:0|1:0,0:0:0:0:
123,288,41605,2,0,L|116:358,1,50,2|2,0:0|0:0,0:0:0:0:
217,324,42131,6,0,L|287:331,1,50,0|2,1:0|1:0,0:0:0:0:
352,381,42657,2,0,L|422:374,1,50,4|4,0:3|0:3,0:0:0:0:
458,293,43184,5,0,1:0:0:0:
458,293,43534,1,0,1:0:0:0:
487,197,43885,6,0,L|416:188,1,50,4|2,1:0|1:0,0:0:0:0:
348,143,44412,2,0,L|298:149,1,50,2|2,0:0|0:0,0:0:0:0:
208,192,44938,6,0,L|201:122,1,50,0|2,1:0|1:0,0:0:0:0:
151,57,45464,2,0,L|158:-13,1,50,2|2,0:0|0:0,0:0:0:0:
254,25,45991,5,0,1:0:0:0:
254,25,46341,1,8,3:0:0:0:
341,72,46692,6,0,P|332:154|219:179,1,200,4|0,0:1|1:0,0:0:0:0:
133,158,47745,1,2,0:0:0:0:
38,124,48096,2,0,P|45:182|32:273,2,150,4|0|2,3:0|0:0|1:0,0:0:0:0:
95,42,49499,6,0,P|71:98|185:144,1,200,4|2,0:0|1:2,0:0:0:0:
243,83,50552,1,0,1:0:0:0:
316,14,50903,2,0,P|362:24|419:34,1,99.9999999999999,0|0,1:0|0:0,0:0:0:0:
492,95,51605,2,0,P|468:138|457:202,1,99.9999999999999,4|0,3:0|1:0,0:0:0:0:
480,284,52306,5,0,3:0:0:0:
480,284,52657,1,0,1:0:0:0:
392,332,53008,1,0,1:0:0:0:
392,332,53359,2,0,L|321:345,1,50,2|0,3:0|1:0,0:0:0:0:
256,290,53885,2,0,B|216:260|216:260|176:291|176:291|138:259|138:259|88:302,1,200,2|2,1:1|1:1,0:0:0:0:
17,235,54938,1,2,0:0:0:0:
43,192,55113,6,0,B|74:156|81:100|81:100|26:74|1:42,1,200,4|4,1:0|3:0,0:0:0:0:
101,48,56166,1,0,1:0:0:0:
194,82,56517,2,0,P|250:76|292:49,1,99.9999999999999,2|0,0:0|1:0,0:0:0:0:
371,0,57219,1,4,3:0:0:0:
463,37,57569,1,0,1:0:0:0:
512,123,57920,6,0,P|455:177|447:311,1,200,2|2,0:1|1:0,0:0:0:0:
483,384,58973,1,0,1:0:0:0:
406,321,59324,2,0,P|353:267|303:145,1,200,2|2,1:0|0:0,0:0:0:0:
218,100,60376,1,0,1:0:0:0:
120,74,60727,6,0,P|62:71|3:186,1,200,2|2,2:1|0:1,0:0:0:0:
57,265,61780,1,0,1:0:0:0:
48,364,62131,2,0,L|152:349,1,99.9999999999999,2|0,0:1|1:0,0:0:0:0:
245,328,62833,2,0,L|349:343,1,99.9999999999999,2|0,0:1|1:0,0:0:0:0:
442,360,63534,5,2,0:0:0:0:
462,314,63710,2,0,L|442:194,1,99.9999999999999,2|2,0:1|0:1,0:0:0:0:
459,115,64412,1,2,0:1:0:0:
422,80,64587,2,0,L|359:74,1,50,4|0,3:0|1:0,0:0:0:0:
279,37,65113,2,0,L|215:47,1,50,2|2,0:0|3:1,0:0:0:0:
134,11,65640,1,2,0:1:0:0:
134,11,65991,1,2,0:0:0:0:
43,53,66341,6,0,P|111:56|134:168,1,200,4|4,0:1|3:0,0:0:0:0:
72,247,67394,1,0,1:0:0:0:
118,335,67745,2,0,P|146:293|191:247,1,99.9999999999999,2|2,0:0|1:2,0:0:0:0:
256,191,68447,2,0,P|266:136|262:78,1,99.9999999999999,4|2,3:0|1:2,0:0:0:0:
341,29,69148,6,0,P|364:109|434:228,1,200,2|2,0:0|3:2,0:0:0:0:
485,287,70201,1,0,1:0:0:0:
389,256,70552,2,0,P|338:258|187:313,1,200,2|2,0:0|0:0,0:0:0:0:
130,379,71605,1,0,1:0:0:0:
165,285,71955,6,0,P|156:206|39:196,1,200,2|2,0:0|0:0,0:0:0:0:
0,272,73008,1,0,1:0:0:0:
18,171,73359,2,0,L|35:68,1,99.9999999999999,2|0,0:0|1:0,0:0:0:0:
117,13,74061,2,0,L|134:116,1,99.9999999999999,2|8,0:0|3:0,0:0:0:0:
189,197,74762,5,2,0:1:0:0:
236,179,74938,2,0,L|345:190,1,99.9999999999999,2|2,0:1|0:1,0:0:0:0:
413,252,75640,2,0,L|512:241,1,99.9999999999999,0|2,0:0|1:2,0:0:0:0:
447,106,76517,1,8,1:3:0:0:
373,38,76868,2,0,L|255:53,1,99.9999999999999,0|8,3:0|3:0,0:0:0:0:
232,78,77394,2,0,L|166:62,1,50,4|2,3:0|0:0,0:0:0:0:
100,9,77920,5,0,1:0:0:0:
32,83,78271,2,0,L|50:189,1,99.9999999999999,4|0,0:3|1:0,0:0:0:0:
31,280,78973,1,4,0:0:0:0:
110,341,79324,1,0,1:2:0:0:
203,305,79675,2,0,L|316:327,1,99.9999999999999,2|2,0:0|1:2,0:0:0:0:
391,366,80376,6,0,P|394:320|424:261,1,99.9999999999999,4|0,0:0|1:0,0:0:0:0:
500,216,81078,1,4,3:0:0:0:
477,118,81429,1,0,1:0:0:0:
407,46,81780,2,0,L|292:57,1,99.9999999999999,4|0,0:0|1:0,0:0:0:0:
226,114,82482,2,0,L|111:103,1,99.9999999999999,8|2,0:3|1:2,0:0:0:0:
124,4,83184,6,0,P|190:5|268:193,1,300,4|0,2:0|1:0,0:0:0:0:
209,272,84587,1,4,3:0:0:0:
109,277,84938,2,0,L|-9:255,2,99.9999999999999,2|2|2,1:2|2:1|1:0,0:0:0:0:
192,333,85991,6,0,P|265:326|309:259,2,150,4|0|2,0:0|1:0|0:0,0:0:0:0:
127,256,87394,2,0,L|135:141,1,99.9999999999999,8|4,0:3|0:3,0:0:0:0:
81,70,88096,2,0,L|147:61,1,50,8|8,3:0|3:0,0:0:0:0:
175,41,88447,2,0,L|241:50,1,50,4|4,3:0|1:2,0:0:0:0:
