osu file format v14

[General]
AudioFilename: audio.mp3
AudioLeadIn: 0
PreviewTime: 377
Countdown: 0
SampleSet: None
StackLeniency: 0.4
Mode: 0
LetterboxInBreaks: 0
WidescreenStoryboard: 1

[Editor]
Bookmarks: 13537,29853,41081,53008,66344
DistanceSpacing: 0.3
BeatDivisor: 4
GridSize: 16
TimelineZoom: 1.2

[Metadata]
Title:IGNITE
TitleUnicode:IGNITE
Artist:Eir Aoi
ArtistUnicode:藍井エイル
Creator:imbor
Version:Hard
Source:ソードアート・オンラインⅡ
Tags:sword art online ii sao 2nd season opening phantom bullet saoii sao2 asuna kirigaya kazuto kirito sinon shinon bor TV size
BeatmapID:1351200
BeatmapSetID:557304

[Difficulty]
HPDrainRate:4
CircleSize:4
OverallDifficulty:6
ApproachRate:8
SliderMultiplier:1.6
SliderTickRate:1

[Events]
//Background and Video events
0,0,"bg3.jpg",0,0
//Break Periods
//Storyboard Layer 0 (Background)
//Storyboard Layer 1 (Fail)
//Storyboard Layer 2 (Pass)
//Storyboard Layer 3 (Foreground)
//Storyboard Sound Samples

[TimingPoints]
377,350.877192982456,4,2,0,30,1,0
12309,-100,4,2,10,55,0,0
17920,-83.3333333333333,4,2,10,55,0,0
18622,-133.333333333333,4,2,10,55,0,0
28271,-200,4,2,10,40,0,0
28359,-200,4,2,10,14,0,0
29148,-200,4,2,10,55,0,0
29850,-100,4,2,10,55,0,0
38271,-83.3333333333333,4,2,10,55,0,0
55113,-76.9230769230769,4,2,10,55,0,1
77569,-83.3333333333333,4,2,10,55,0,0

[Colours]
Combo1 : 215,101,252
Combo2 : 255,137,81
Combo3 : 128,185,255
Combo4 : 216,14,65

[HitObjects]
132,131,552,6,0,L|128:40,2,80,2|2|0,0:0|0:0|0:0,0:0:0:0:
204,195,1078,1,2,0:0:0:0:
128,135,1254,2,0,L|37:139,2,80,0|2|2,0:0|0:0|0:0,0:0:0:0:
208,199,1780,6,0,P|286:178|389:167,1,160,2|2,0:0|0:0,0:0:0:0:
421,319,2482,2,0,P|343:340|240:351,1,160,2|2,0:0|0:0,0:0:0:0:
101,338,3184,1,0,0:0:0:0:
33,282,3359,2,0,L|7:366,2,80,0|2|0,0:0|0:0|0:0,0:0:0:0:
112,251,3885,2,0,P|139:205|126:158,1,80,2|0,0:0|0:0,0:0:0:0:
74,118,4236,1,2,0:0:0:0:
71,121,4412,6,0,P|180:137|297:193,1,240,2|0,0:0|0:0,0:0:0:0:
374,333,5289,2,0,P|392:233|516:248,1,240,2|0,0:0|0:0,0:0:0:0:
476,315,5991,2,0,B|502:264|458:216|453:207|448:200|424:149|455:85,1,240,2|0,0:0|0:0,0:0:0:0:
426,0,6692,2,0,P|412:65|326:60,1,160,2|0,0:0|0:0,0:0:0:0:
141,37,7394,6,0,B|189:18|189:18|408:37,1,240,2|0,0:0|0:0,0:0:0:0:
474,85,8096,2,0,P|354:82|230:106,1,240,2|0,0:0|0:0,0:0:0:0:
124,86,8798,2,0,B|159:135|159:135|118:333,1,240,2|0,0:0|0:0,0:0:0:0:
41,382,9499,1,2,0:0:0:0:
383,306,10201,5,2,0:0:0:0:
445,231,10376,2,0,P|429:165|437:71,3,160,2|2|2|2,0:0|0:0|0:0|0:0,0:0:0:0:
439,76,11780,1,2,0:0:0:0:
347,88,11955,2,0,L|239:74,1,80,2|2,0:0|0:0,0:0:0:0:
209,18,12306,1,0,1:0:0:0:
146,130,12482,1,4,1:3:0:0:
176,366,12833,1,2,0:0:0:0:
176,366,12920,1,2,0:0:0:0:
176,366,13008,6,0,P|172:294|79:288,1,160,4|0,0:0|1:0,0:0:0:0:
25,326,13534,1,0,3:0:0:0:
73,264,13710,2,0,L|86:168,1,80,2|0,3:0|0:0,0:0:0:0:
63,100,14061,1,0,1:0:0:0:
63,100,14236,1,0,0:0:0:0:
151,52,14412,6,0,P|138:140|153:240,1,160,4|0,0:0|1:0,0:0:0:0:
238,258,14938,1,0,3:0:0:0:
238,258,15026,1,0,3:0:0:0:
238,258,15113,2,0,B|291:198|291:198|349:265,1,160,2|0,3:0|1:0,0:0:0:0:
486,160,15815,6,0,L|292:177,1,160,4|0,0:0|1:0,0:0:0:0:
235,199,16341,1,0,0:0:0:0:
176,127,16517,2,0,P|178:70|198:38,1,80,0|2,0:0|0:0,0:0:0:0:
187,50,16780,1,2,0:0:0:0:
187,50,16868,1,2,1:2:0:0:
282,15,17043,6,0,L|460:51,1,160,8|4,0:3|0:3,0:0:0:0:
506,124,17569,2,0,P|486:157|483:225,1,80,0|4,0:0|0:3,0:0:0:0:
506,299,17920,1,0,1:0:0:0:
440,381,18096,1,2,0:0:0:0:
175,367,18622,6,0,P|192:312|52:309,1,240.000009155274,4|0,1:0|0:0,0:0:0:0:
193,378,19675,2,0,P|230:378|269:351,1,60.0000022888184,2|2,0:0|0:0,0:0:0:0:
308,308,20026,2,0,L|287:120,2,180.000006866455,2|2|0,0:0|0:0|0:0,0:0:0:0:
386,351,21254,1,4,0:3:0:0:
386,351,21429,6,0,P|388:284|485:249,1,180.000006866455,4|2,0:3|0:0,0:0:0:0:
486,252,22131,2,0,L|237:229,1,240.000009155274,2|0,0:0|3:0,0:0:0:0:
48,12,23534,2,0,P|24:54|72:100,1,120.000004577637,2|2,3:2|3:2,0:0:0:0:
67,99,24236,5,4,0:3:0:0:
142,63,24412,2,0,L|281:82,2,120.000004577637,2|2|2,0:0|0:0|0:0,0:0:0:0:
142,63,25464,1,4,0:3:0:0:
67,99,25640,2,0,P|70:162|57:235,1,120.000004577637,4|2,0:3|3:2,0:0:0:0:
0,314,26341,2,0,P|28:261|98:254,1,120.000004577637,2|2,3:2|3:2,0:0:0:0:
207,355,27043,6,0,B|248:335|248:335|399:326,1,180.000006866455,4|0,0:3|0:0,0:0:0:0:
456,360,27745,2,0,B|372:328|294:352|284:357|276:361|182:396|100:355,1,360.000013732911,2|0,0:0|0:0,0:0:0:0:
102,356,29148,1,2,0:0:0:0:
17,124,29850,6,0,P|1:189|82:228,1,160,4|4,0:1|0:3,0:0:0:0:
181,106,30552,2,0,P|197:41|116:2,1,160,4|0,0:3|1:0,0:0:0:0:
23,28,31078,1,0,3:0:0:0:
23,28,31166,1,0,0:0:0:0:
23,28,31254,6,0,L|191:43,1,160,4|4,0:3|0:3,0:0:0:0:
259,89,31780,2,0,L|419:65,1,160,2|2,0:0|0:0,0:0:0:0:
512,94,32306,2,0,L|479:188,1,80,0|0,1:0|3:0,0:0:0:0:
485,169,32569,1,0,3:0:0:0:
485,169,32657,6,0,P|498:248|412:283,1,160,4|4,3:3|3:0,0:0:0:0:
285,228,33359,2,0,P|269:153|331:109,1,160,2|0,0:0|1:0,0:0:0:0:
486,138,34061,6,0,L|313:147,1,160,2|4,0:0|0:3,0:0:0:0:
239,91,34587,1,8,0:3:0:0:
239,91,34762,2,0,P|235:135|206:187,1,80,2|0,0:0|0:0,0:0:0:0:
140,128,35113,2,0,P|106:156|48:172,1,80,0|0,1:0|0:0,0:0:0:0:
0,122,35464,5,4,0:3:0:0:
40,200,35640,2,0,P|97:200|151:307,2,160,0|2|2,0:0|0:0|0:0,0:0:0:0:
0,282,36517,2,0,L|10:374,1,80,0|2,1:0|0:0,0:0:0:0:
8,361,36780,1,0,0:0:0:0:
8,361,36868,6,0,L|181:375,1,160,4|4,3:0|3:0,0:0:0:0:
343,315,37569,2,0,P|306:287|252:280,1,80,2|2,0:0|0:1,0:0:0:0:
191,298,37920,2,0,L|211:173,1,120,4|0,0:0|0:0,0:0:0:0:
205,183,38271,6,0,L|403:217,1,191.999994140625,4|0,1:0|1:0,0:0:0:0:
474,175,38798,1,4,3:0:0:0:
478,179,39148,1,0,1:0:0:0:
398,138,39324,2,0,L|208:170,1,191.999994140625,4|4,3:0|3:0,0:0:0:0:
130,175,39850,5,0,1:0:0:0:
0,309,40201,1,4,3:0:0:0:
89,362,40376,2,0,L|198:374,1,95.9999970703126,0|8,1:0|3:0,0:0:0:0:
184,372,40640,1,8,3:0:0:0:
184,372,40727,2,0,L|279:361,1,95.9999970703126,4|4,3:0|3:0,0:0:0:0:
375,375,41078,5,4,1:0:0:0:
375,375,41254,1,2,1:0:0:0:
466,220,41605,1,2,0:0:0:0:
466,220,41781,1,2,0:0:0:0:
463,376,42131,5,0,1:0:0:0:
463,376,42307,1,2,1:0:0:0:
372,221,42658,1,4,0:3:0:0:
372,221,42834,1,4,0:3:0:0:
491,11,43184,6,0,P|449:51|399:53,1,95.9999970703126,0|4,1:0|3:0,0:0:0:0:
337,67,43534,2,0,P|279:65|242:31,1,95.9999970703126,0|4,1:0|3:0,0:0:0:0:
172,3,43885,5,4,1:0:0:0:
172,3,44061,1,2,1:0:0:0:
81,158,44412,1,2,0:0:0:0:
81,158,44588,1,2,0:0:0:0:
84,2,44938,5,0,1:0:0:0:
84,2,45114,1,2,1:0:0:0:
175,157,45465,1,2,0:0:0:0:
175,157,45641,1,2,0:0:0:0:
4,246,45991,6,0,L|15:359,1,95.9999970703126,0|4,1:0|3:0,0:0:0:0:
107,339,46341,2,0,L|116:243,1,95.9999970703126,8|8,3:0|3:0,0:0:0:0:
68,198,46692,6,0,P|97:285|192:242,1,191.999994140625,4|0,0:1|0:0,0:0:0:0:
299,341,47394,2,0,L|497:315,1,191.999994140625,0|2,1:0|0:0,0:0:0:0:
492,149,48096,1,4,3:0:0:0:
492,149,48271,2,0,P|477:204|351:227,1,191.999994140625,0|0,1:0|0:0,0:0:0:0:
292,155,48798,2,0,P|272:289|134:261,1,287.999991210938,2|2,1:0|0:0,0:0:0:0:
101,193,49499,6,0,L|107:391,1,191.999994140625,4|2,0:0|0:0,0:0:0:0:
12,375,50026,1,4,3:0:0:0:
52,298,50201,2,0,P|112:333|138:375,1,95.9999970703126,2|0,1:2|0:0,0:0:0:0:
229,379,50552,2,0,P|223:302|233:247,1,95.9999970703126,0|0,1:0|0:0,0:0:0:0:
286,209,50903,5,0,1:0:0:0:
286,209,51078,1,4,3:0:0:0:
433,117,51429,2,0,P|424:184|298:152,1,191.999994140625,0|4,1:0|3:0,0:0:0:0:
240,118,51955,2,0,P|189:131|143:186,1,95.9999970703126,0|0,1:0|1:0,0:0:0:0:
112,231,52306,5,0,3:0:0:0:
161,309,52482,1,0,3:0:0:0:
161,309,52569,1,0,3:0:0:0:
161,309,52657,2,0,L|223:300,3,47.9999985351563,0|0|0|0,1:0|0:0|1:0|0:0,0:0:0:0:
235,286,53008,2,0,L|297:295,3,47.9999985351563,0|0|2|2,1:0|0:0|3:0|3:0,0:0:0:0:
312,313,53359,1,2,3:0:0:0:
326,216,53534,1,0,1:0:0:0:
417,379,53885,6,0,P|452:353|521:357,2,95.9999970703126,2|2|2,1:1|1:1|1:1,0:0:0:0:
421,283,54412,2,0,P|444:231|441:190,1,95.9999970703126,2|2,1:1|1:1,0:0:0:0:
394,155,54762,1,2,0:0:0:0:
394,155,54850,1,2,0:0:0:0:
394,155,54938,1,2,0:0:0:0:
394,155,55026,1,2,0:0:0:0:
394,155,55113,6,0,B|328:147|328:147|165:173,1,207.999990478516,4|0,1:0|1:0,0:0:0:0:
74,276,55815,2,0,P|176:211|139:132,1,207.999990478516,4|0,3:0|1:0,0:0:0:0:
23,58,56517,5,2,0:0:0:0:
23,58,56692,2,0,L|134:73,1,103.999995239258,0|0,0:0|1:0,0:0:0:0:
218,44,57043,1,0,3:0:0:0:
218,44,57131,1,0,3:0:0:0:
218,44,57219,2,0,P|242:83|226:149,1,103.999995239258,4|4,3:0|3:0,0:0:0:0:
298,209,57569,2,0,P|333:145|396:113,1,103.999995239258,0|2,1:0|0:0,0:0:0:0:
436,55,57920,6,0,P|397:147|386:278,1,207.999990478516,2|0,0:1|1:0,0:0:0:0:
512,372,58622,2,0,P|490:296|371:301,1,207.999990478516,2|0,1:0|1:0,0:0:0:0:
317,358,59148,1,2,3:0:0:0:
233,375,59324,6,0,P|235:312|170:171,1,207.999990478516,2|0,1:0|1:0,0:0:0:0:
1,107,60026,2,0,B|34:132|34:132|233:161,1,207.999990478516,2|0,0:0|1:0,0:0:0:0:
261,77,60552,1,2,3:0:0:0:
261,77,60640,1,2,3:0:0:0:
261,77,60727,6,0,P|195:37|121:127,1,207.999990478516,2|0,2:1|1:0,0:0:0:0:
165,306,61429,2,0,P|231:346|305:256,1,207.999990478516,2|0,0:1|1:0,0:0:0:0:
270,167,61955,1,2,0:0:0:0:
270,167,62043,1,2,0:0:0:0:
270,167,62131,6,0,P|252:252|329:376,1,207.999990478516,2|0,0:1|1:0,0:0:0:0:
491,311,62833,2,0,P|468:250|430:217,1,103.999995239258,2|0,0:1|0:0,0:0:0:0:
352,222,63184,1,0,1:0:0:0:
373,37,63534,5,2,0:0:0:0:
450,85,63710,2,0,B|391:76|391:76|226:101,1,207.999990478516,2|2,0:1|0:1,0:0:0:0:
94,209,64412,2,0,L|210:191,1,103.999995239258,2|4,0:1|3:0,0:0:0:0:
260,129,64762,1,0,1:0:0:0:
214,318,65113,5,2,0:0:0:0:
130,334,65289,2,0,L|119:384,2,51.999997619629,2|4|2,3:1|3:3|3:1,0:0:0:0:
68,273,65640,2,0,L|44:165,1,103.999995239258,2|2,0:1|0:1,0:0:0:0:
27,88,65991,1,2,0:0:0:0:
27,88,66078,1,2,0:0:0:0:
27,88,66166,2,0,L|94:98,1,51.999997619629,2|2,0:0|0:0,0:0:0:0:
112,71,66341,6,0,P|127:137|259:168,1,207.999990478516,4|0,0:1|1:0,0:0:0:0:
364,24,67043,2,0,L|337:245,1,207.999990478516,4|0,3:0|1:0,0:0:0:0:
496,328,67745,5,2,0:0:0:0:
455,246,67920,2,0,P|477:200|480:136,2,103.999995239258,0|2|2,0:0|1:2|3:2,0:0:0:0:
376,210,68447,2,0,L|241:215,1,103.999995239258,4|0,3:0|0:0,0:0:0:0:
190,259,68798,2,0,L|55:254,1,103.999995239258,2|0,1:2|0:0,0:0:0:0:
14,215,69148,6,0,P|86:204|95:329,1,207.999990478516,2|0,0:0|1:0,0:0:0:0:
286,369,69850,2,0,P|255:264|285:161,1,207.999990478516,2|0,3:2|1:0,0:0:0:0:
359,113,70376,1,0,0:0:0:0:
386,27,70552,6,0,P|376:102|483:149,1,207.999990478516,2|0,0:0|1:0,0:0:0:0:
512,325,71254,2,0,P|453:277|311:250,1,207.999990478516,2|0,0:0|1:0,0:0:0:0:
245,311,71780,1,2,0:0:0:0:
245,311,71868,1,2,0:0:0:0:
245,311,71955,6,0,P|161:266|165:157,1,207.999990478516,2|0,0:0|1:0,0:0:0:0:
314,84,72657,2,0,P|398:129|394:238,1,207.999990478516,2|0,0:0|1:0,0:0:0:0:
232,320,73359,6,0,B|130:338|130:338|9:298,1,207.999990478516,2|0,0:0|1:0,0:0:0:0:
25,116,74061,2,0,P|85:133|137:190,1,103.999995239258,2|0,0:0|3:0,0:0:0:0:
154,242,74412,2,0,L|92:256,2,51.999997619629,8|8|4,3:0|3:0|3:0,0:0:0:0:
230,193,74762,1,2,0:1:0:0:
255,106,74938,6,0,P|247:208|294:314,2,207.999990478516,2|2|0,0:1|0:1|0:0,0:0:0:0:
422,40,75991,2,0,P|396:125|288:138,1,207.999990478516,2|4,1:2|3:3,0:0:0:0:
203,80,76517,2,0,P|156:85|99:117,1,103.999995239258,8|2,1:3|0:0,0:0:0:0:
70,201,76868,1,0,3:0:0:0:
70,201,76955,1,0,3:0:0:0:
70,201,77043,2,0,L|74:265,1,51.999997619629,0|0,1:0|0:0,0:0:0:0:
104,269,77219,2,0,L|100:333,3,51.999997619629,8|8|4|4,3:0|3:0|3:0|3:0,0:0:0:0:
70,355,77569,6,0,P|114:290|237:301,1,191.999994140625,2|0,0:0|1:0,0:0:0:0:
253,363,78096,2,0,L|460:378,1,191.999994140625,0|0,3:0|0:0,0:0:0:0:
512,319,78622,1,0,1:0:0:0:
483,158,78973,6,0,P|463:237|359:264,1,191.999994140625,4|0,0:0|1:2,0:0:0:0:
237,124,79675,2,0,P|250:66|288:24,1,95.9999970703126,2|2,0:0|0:0,0:0:0:0:
365,0,80026,2,0,P|423:13|465:51,1,95.9999970703126,2|0,1:2|0:0,0:0:0:0:
512,114,80376,6,0,B|451:110|451:110|297:144,1,191.999994140625,4|0,0:0|1:0,0:0:0:0:
296,229,80903,2,0,P|209:228|181:129,1,191.999994140625,0|2,3:0|0:0,0:0:0:0:
225,64,81429,1,0,1:0:0:0:
65,0,81780,6,0,L|85:204,1,191.999994140625,4|0,0:0|1:0,0:0:0:0:
22,362,82482,2,0,L|17:314,2,47.9999985351563,8|8|8,0:3|0:3|0:3,0:0:0:0:
107,335,82833,2,0,P|149:356|241:360,1,95.9999970703126,2|0,1:2|0:0,0:0:0:0:
288,328,83184,6,0,P|286:272|408:251,1,191.999994140625,4|0,2:0|1:0,0:0:0:0:
446,325,83710,1,0,3:0:0:0:
446,325,83798,1,0,3:0:0:0:
446,325,83885,2,0,B|415:274|415:274|431:104,1,191.999994140625,4|0,3:0|1:0,0:0:0:0:
482,69,84412,1,0,3:0:0:0:
482,69,84499,1,0,3:0:0:0:
482,69,84587,5,4,3:0:0:0:
320,0,84938,2,0,P|338:78|261:153,2,191.999994140625,2|2|2,1:2|2:1|1:0,0:0:0:0:
199,47,85991,6,0,B|68:23|68:23|101:180,2,287.999991210938,4|0|2,0:0|1:0|0:0,0:0:0:0:
266,106,87219,1,2,0:0:0:0:
266,106,87394,6,0,P|250:173|265:217,1,95.9999970703126,8|8,0:3|0:3,0:0:0:0:
341,222,87745,2,0,P|377:280|418:301,1,95.9999970703126,4|4,0:3|0:3,0:0:0:0:
496,313,88096,2,0,L|368:326,1,95.9999970703126,8|8,3:0|3:0,0:0:0:0:
321,289,88447,1,4,3:0:0:0:
250,336,88622,1,4,1:2:0:0:
