osu file format v14

[General]
AudioFilename: audio.mp3
AudioLeadIn: 0
PreviewTime: 57373
Countdown: 0
SampleSet: Soft
StackLeniency: 0.5
Mode: 0
LetterboxInBreaks: 0
WidescreenStoryboard: 1

[Editor]
DistanceSpacing: 1.1
BeatDivisor: 2
GridSize: 8
TimelineZoom: 1

[Metadata]
Title:Cynthia no Hikari
TitleUnicode:シンシアの光
Artist:Eir Aoi
ArtistUnicode:藍井エイル
Creator:Nozaki
Version:Normal
Source:ソードアート・オンライン -ロスト・ソング-
Tags:Sword Art Online Lost Song BEST -E- D'AZUR Hiroki Arai 新井弘毅 sao opening Gaia Mentai SnowNiNo_ missa1912 psvita sony playstation
BeatmapID:1627575
BeatmapSetID:621575

[Difficulty]
HPDrainRate:3
CircleSize:3.5
OverallDifficulty:4
ApproachRate:4.5
SliderMultiplier:1
SliderTickRate:1

[Events]
//Background and Video events
0,0,"saols.jpg",0,0
Video,1583,"lostop.avi"
//Break Periods
//Storyboard Layer 0 (Background)
//Storyboard Layer 1 (Fail)
//Storyboard Layer 2 (Pass)
//Storyboard Layer 3 (Foreground)
//Storyboard Sound Samples

[TimingPoints]
3423,361.44578313253,4,2,1,70,1,0
11736,-100,4,2,3,70,0,0
17880,-111.111111111111,4,2,11,70,0,0
28362,-100,4,2,1,70,0,0
58362,-100,4,2,1,80,0,1
82941,-100,4,2,1,80,0,0
84386,-100,4,2,3,75,0,0
96676,-100,4,2,0,5,0,0

[Colours]
Combo1 : 232,224,89
Combo2 : 137,223,255
Combo3 : 139,250,139
Combo4 : 255,159,213

[HitObjects]
127,153,3423,6,0,B|187:133|235:150|235:150|218:83|243:44|243:44|293:73|363:53,1,300,2|0,0:0|0:0,0:0:0:0:
406,129,4868,2,0,B|389:186|418:236|418:236|379:261|312:244|312:244|329:292|310:352,1,300,0|0,0:0|0:0,0:0:0:0:
214,284,6314,6,0,B|147:270|94:284|94:284|67:237|85:196|85:196|133:194|169:160,1,300,2|0,0:0|0:0,0:0:0:0:
270,192,7760,2,0,B|301:162|349:160|349:160|367:119|340:72|340:72|287:86|220:72,1,300,0|2,0:0|0:0,0:0:0:0:
117,32,9206,6,0,L|102:133,1,100,2|2,0:0|0:0,0:0:0:0:
23,207,9929,2,0,L|38:320,1,100,2|2,0:0|0:0,0:0:0:0:
138,345,10651,2,0,B|318:377|280:251|474:320,1,300,2|2,0:0|0:1,0:0:0:0:
463,201,12097,6,0,P|392:204|344:190,1,100,12|8,0:0|0:0,0:0:0:0:
323,160,12639,2,0,P|255:143|193:149,1,100,2|2,0:0|0:0,0:0:0:0:
117,166,13362,2,0,L|157:292,1,100,4|2,0:0|0:0,0:0:0:0:
169,311,13904,1,8,0:0:0:0:
169,311,14085,2,0,P|231:291|293:297,1,100,0|0,0:0|0:0,0:0:0:0:
312,320,14627,1,8,0:0:0:0:
400,254,14989,6,0,P|380:202|376:144,1,100,4|8,0:0|0:0,0:0:0:0:
334,121,15531,2,0,P|282:132|224:123,1,100,2|2,0:0|0:0,0:0:0:0:
130,93,16254,2,0,L|150:224,1,100,4|2,0:0|0:0,0:0:0:0:
109,233,16796,1,8,0:0:0:0:
72,274,16977,2,0,B|121:262|121:262|196:307|270:259,1,200,2|4,0:0|0:3,0:0:0:0:
296,227,17880,6,0,P|291:153|273:116,2,89.9999972534181,2|0|0,0:0|0:0|0:0,0:0:0:0:
328,325,18965,1,0,0:0:0:0:
328,325,19145,2,0,P|382:314|439:328,2,89.9999972534181,2|2|2,0:0|0:0|0:0,0:0:0:0:
236,363,20230,1,2,0:0:0:0:
296,227,20772,6,0,L|304:121,1,89.9999972534181,2|0,0:0|0:0,0:0:0:0:
257,48,21495,1,0,0:0:0:0:
157,48,21856,1,0,0:0:0:0:
157,48,22037,2,0,P|101:47|47:70,1,89.9999972534181,2|0,0:0|0:0,0:0:0:0:
16,144,22760,2,0,P|29:205|69:261,1,89.9999972534181,2|2,0:0|0:0,0:0:0:0:
169,153,23663,6,0,L|144:276,2,89.9999972534181,2|2|2,0:0|0:0|0:0,0:0:0:0:
211,126,24567,1,2,0:0:0:0:
310,124,24929,2,0,L|285:21,2,89.9999972534181,2|2|0,0:0|0:0|0:0,0:0:0:0:
354,145,25832,1,2,0:0:0:0:
384,239,26194,1,2,0:0:0:0:
364,334,26555,6,0,P|311:326|265:291,2,89.9999972534181,2|2|2,0:0|0:0|0:0,0:0:0:0:
384,239,27639,1,2,0:0:0:0:
354,145,28001,2,8,B|332:88|348:33|348:33|315:46|267:24,1,179.999994506836,2|8,0:0|0:0,0:0:0:0:
188,86,29085,1,8,0:0:0:0:
277,149,29447,6,0,L|293:263,2,100,4|8|8,0:0|0:0|0:0,0:0:0:0:
188,86,30531,1,8,0:0:0:0:
114,167,30892,2,0,L|14:153,1,100,8|8,0:0|0:0,0:0:0:0:
54,256,31615,2,0,L|154:270,1,100,8|8,0:0|0:0,0:0:0:0:
263,272,32338,6,0,P|242:333|215:360,1,100,4|8,0:3|0:0,0:0:0:0:
327,366,33061,2,0,P|348:305|375:278,1,100,8|8,0:0|0:0,0:0:0:0:
424,262,33603,2,0,P|456:224|468:176,1,100,2|2,0:0|0:0,0:0:0:0:
384,104,34326,1,2,0:0:0:0:
494,107,34688,1,2,0:0:0:0:
344,175,35230,6,0,P|309:129|305:68,2,100,4|8|8,0:0|0:0|0:0,0:0:0:0:
315,222,36133,2,0,L|262:325,1,100,2|0,0:0|0:0,0:0:0:0:
270,368,36676,2,0,P|208:338|161:344,1,100,6|8,0:0|0:0,0:0:0:0:
76,379,37398,1,8,0:0:0:0:
111,274,37760,1,8,0:0:0:0:
47,184,38121,6,0,L|19:81,2,100,4|8|8,0:0|0:0|0:0,0:0:0:0:
111,274,39206,1,8,0:0:0:0:
160,175,39567,2,0,B|207:203|220:252|220:252|256:221|326:229,1,200,8|8,0:0|0:0,0:0:0:0:
290,335,40651,1,8,0:0:0:0:
395,302,41013,6,0,L|504:299,1,100,8|8,0:0|0:0,0:0:0:0:
426,213,41736,2,0,P|410:156|420:108,1,100,8|8,3:2|3:2,3:3:0:0:
452,75,42278,2,0,L|332:70,1,100,4|2,0:0|0:0,0:0:0:0:
246,39,43001,2,0,P|250:109|272:148,1,100,2|2,0:0|0:0,0:0:0:0:
304,170,43543,1,8,0:0:0:0:
207,222,43904,6,0,L|137:218,2,50,8|8|8,0:0|0:0|0:0,0:0:0:0:
206,332,44627,2,0,P|144:308|96:310,1,100,8|8,0:0|0:0,0:0:0:0:
61,332,45169,2,0,L|40:218,1,100,4|2,0:0|0:0,0:0:0:0:
29,179,45712,1,8,0:0:0:0:
29,179,45892,2,0,P|96:182|140:168,1,100,10|8,0:0|0:0,0:0:0:0:
168,137,46435,1,8,0:0:0:0:
217,235,46796,6,0,P|268:187|276:133,1,100,4|8,0:0|0:0,0:0:0:0:
375,207,47519,2,0,P|356:252|363:301,1,100,8|8,0:0|0:0,0:0:0:0:
416,286,48061,1,2,0:0:0:0:
467,265,48242,2,0,P|483:196|466:152,1,100,4|8,0:0|0:0,0:0:0:0:
390,99,48965,2,0,L|251:131,1,100,8|8,0:0|0:0,0:0:0:0:
243,95,49507,1,2,0:0:0:0:
198,63,49688,6,0,L|188:191,1,100,4|8,0:0|0:0,0:0:0:0:
90,208,50410,2,0,L|103:307,1,100,8|8,0:0|0:0,0:0:0:0:
201,357,51133,2,0,P|260:328|331:344,1,100,4|8,0:0|0:0,0:0:0:0:
395,368,51856,1,8,0:0:0:0:
384,258,52218,1,8,0:0:0:0:
482,305,52579,6,0,P|488:244|431:160,1,150,4|2,0:0|0:0,0:0:0:0:
390,162,53302,2,0,B|316:167|316:167|216:141,1,150,8|2,0:0|0:0,0:0:0:0:
196,118,54025,2,0,L|205:259,1,100,8|8,0:0|0:0,0:0:0:0:
212,327,54748,1,8,3:0:0:0:
112,280,55109,1,8,0:0:0:0:
202,217,55471,6,0,L|339:234,2,100,8|8|8,0:0|0:0|0:0,0:0:0:0:
156,248,56374,1,8,0:0:0:0:
118,144,56736,2,0,B|103:98|103:98|44:82,1,100,8|8,0:0|0:0,0:0:0:0:
53,84,58362,6,0,L|153:59,1,100,4|0,0:0|0:0,0:0:0:0:
197,32,58904,2,0,P|195:87|211:131,1,100,2|2,0:0|0:0,0:0:0:0:
248,168,59447,1,8,0:0:0:0:
248,168,59627,2,0,L|351:153,2,100,2|0|2,0:0|0:0|0:0,0:0:0:0:
210,209,60531,1,0,0:0:0:0:
252,310,60892,1,8,0:0:0:0:
360,331,61254,6,0,P|401:296|464:291,1,100,4|8,0:0|0:0,0:0:0:0:
492,315,61796,2,0,L|493:205,1,100,2|2,0:0|0:0,0:0:0:0:
495,104,62519,1,2,0:0:0:0:
495,104,62700,2,0,B|449:114|449:114|386:107,1,100,4|8,0:0|0:0,0:0:0:0:
298,57,63422,1,2,0:0:0:0:
302,167,63784,1,8,0:0:0:0:
205,114,64145,6,0,L|100:101,1,100,4|8,0:0|0:0,0:0:0:0:
63,137,64688,2,0,P|47:73|18:29,2,100,2|2|2,0:0|0:0|0:0,0:0:0:0:
26,178,65591,2,0,L|48:298,1,100,4|8,0:0|0:0,0:0:0:0:
144,232,66314,1,0,0:0:0:0:
136,341,66676,1,8,0:0:0:0:
235,295,67037,6,0,L|342:305,2,100,4|8|8,0:0|0:0|0:0,0:0:0:0:
136,341,68121,1,8,0:0:0:0:
144,232,68483,2,0,P|142:182|117:122,1,100,8|8,0:0|3:2,3:3:0:0:
83,99,69025,2,0,L|196:76,1,100,8|8,0:0|3:2,3:3:0:0:
226,109,69567,2,0,L|290:74,1,50,10|10,3:2|3:2,0:0:0:0:
319,59,69929,6,0,P|319:132|340:165,1,100,4|8,0:0|0:0,0:0:0:0:
373,189,70471,2,0,L|478:174,1,100,2|2,0:0|0:0,0:0:0:0:
456,227,71013,1,8,0:0:0:0:
428,274,71194,2,0,P|419:319|435:371,2,100,2|0|2,0:0|0:0|0:0,0:0:0:0:
456,227,72097,1,0,0:0:0:0:
364,165,72459,1,8,0:0:0:0:
290,246,72820,6,0,B|243:260|243:260|146:240,1,100,4|8,0:0|0:0,0:0:0:0:
140,152,73543,2,0,B|187:138|187:138|284:158,1,100,4|8,0:0|0:0,0:0:0:0:
193,249,74266,1,4,0:0:0:0:
83,249,74627,1,8,0:0:0:0:
140,152,74989,2,0,L|128:96,1,50,8|0,0:0|0:0,0:0:0:0:
114,50,75350,1,8,0:0:0:0:
217,88,75712,6,0,P|309:90|329:79,1,100,4|8,0:0|0:0,0:0:0:0:
385,171,76435,2,0,P|360:222|358:286,1,100,2|8,0:0|0:0,0:0:0:0:
424,350,77157,1,4,0:0:0:0:
315,369,77519,1,8,0:0:0:0:
248,281,77880,2,0,L|136:283,1,100,8|8,0:0|0:3,0:0:0:0:
132,173,78603,6,0,L|254:150,1,100,12|8,0:0|0:0,0:0:0:0:
287,60,79326,2,0,L|165:83,1,100,8|8,0:0|0:0,0:0:0:0:
132,173,80049,6,0,P|167:234|229:250,1,100,8|8,0:0|0:0,0:0:0:0:
301,246,80772,2,0,P|341:218|360:172,1,100,8|8,0:0|0:0,0:0:0:0:
349,62,81495,1,8,0:0:0:0:
249,14,81856,1,8,0:0:0:0:
150,63,82218,2,0,P|97:69|46:50,2,100,8|8|4,0:0|0:0|0:0,0:0:0:0:
150,63,84386,6,0,P|192:89|240:103,1,100,4|8,0:0|0:0,0:0:0:0:
293,87,84928,2,0,P|342:94|387:114,1,100,2|2,0:0|0:0,0:0:0:0:
395,224,85651,2,0,L|326:345,1,100,4|2,0:0|0:0,0:0:0:0:
354,365,86193,1,8,0:0:0:0:
354,365,86374,2,0,P|292:345|230:351,1,100,0|2,0:0|0:0,0:0:0:0:
210,373,86916,1,8,0:0:0:0:
141,286,87278,6,0,P|121:234|117:176,1,100,4|8,0:0|0:0,0:0:0:0:
152,148,87820,2,0,P|204:149|254:176,1,100,2|2,0:0|0:0,0:0:0:0:
326,245,88543,2,0,L|439:221,1,100,4|2,0:0|0:0,0:0:0:0:
448,174,89085,1,8,0:0:0:0:
471,124,89266,2,0,B|440:100|434:65|434:65|361:99|304:62|304:62|380:36,1,250,2|4,0:0|0:0,0:0:0:0:
256,192,90350,12,0,96676,0:0:0:0:
