osu file format v14

[General]
AudioFilename: audio.mp3
AudioLeadIn: 0
PreviewTime: 57373
Countdown: 0
SampleSet: Soft
StackLeniency: 0.5
Mode: 0
LetterboxInBreaks: 0
WidescreenStoryboard: 0

[Editor]
DistanceSpacing: 0.4
BeatDivisor: 4
GridSize: 8
TimelineZoom: 1

[Metadata]
Title:Cynthia no Hikari
TitleUnicode:シンシアの光
Artist:Eir Aoi
ArtistUnicode:藍井エイル
Creator:Nozaki
Version:Lost
Source:ソードアート・オンライン -ロスト・ソング-
Tags:Sword Art Online Lost Song BEST -E- D'AZUR Hiroki Arai 新井弘毅 sao opening Gaia Mentai SnowNiNo_ missa1912 psvita sony playstation
BeatmapID:1310614
BeatmapSetID:621575

[Difficulty]
HPDrainRate:6
CircleSize:4.2
OverallDifficulty:8.6
ApproachRate:9.2
SliderMultiplier:1.7
SliderTickRate:1

[Events]
//Background and Video events
0,0,"saols.jpg",0,0
Video,1583,"lostop.avi"
//Break Periods
//Storyboard Layer 0 (Background)
//Storyboard Layer 1 (Fail)
//Storyboard Layer 2 (Pass)
//Storyboard Layer 3 (Foreground)
//Storyboard Sound Samples

[TimingPoints]
3423,361.44578313253,4,2,1,70,1,0
3423,-133.333333333333,4,2,1,70,0,0
10651,-76.9230769230769,4,2,1,70,0,0
11736,-76.9230769230769,4,1,0,70,0,0
12097,-76.9230769230769,4,2,3,70,0,0
17880,-100,4,2,11,70,0,0
28362,-100,4,2,1,70,0,0
29447,-100,4,2,1,70,0,0
40290,-86.9565217391304,4,2,1,70,0,0
46796,-83.3333333333333,4,2,1,70,0,0
54567,-86.9565217391304,4,2,1,65,0,0
55109,-86.9565217391304,4,2,1,70,0,0
57459,-200,4,2,1,30,0,0
58362,-76.9230769230769,4,2,1,80,0,1
69025,-73.5294117647059,4,2,1,80,0,1
82941,-133.333333333333,4,2,1,80,0,0
83031,-133.333333333333,4,2,1,60,0,0
83121,-133.333333333333,4,2,1,40,0,0
83212,-133.333333333333,4,2,1,20,0,0
83302,-133.333333333333,4,2,1,5,0,0
84386,-76.9230769230769,4,2,3,75,0,0
92157,-76.9230769230769,4,2,3,65,0,0
94145,-76.9230769230769,4,2,3,50,0,0
95230,-76.9230769230769,4,2,3,35,0,0
95953,-76.9230769230769,4,2,3,25,0,0
96314,-76.9230769230769,4,2,3,20,0,0
96495,-76.9230769230769,4,2,3,10,0,0
96676,-76.9230769230769,4,2,1,5,0,0

[Colours]
Combo1 : 232,224,89
Combo2 : 137,223,255
Combo3 : 139,250,139
Combo4 : 255,159,213

[HitObjects]
253,89,3423,6,0,P|314:75|370:102,1,127.500004863739,2|0,0:0|0:0,0:0:0:0:
302,167,3965,2,0,P|282:88|318:32,1,127.500004863739,2|0,0:0|0:0,0:0:0:0:
383,18,4507,1,0,0:0:0:0:
393,190,4688,2,0,P|296:170|231:248,1,191.250007295609,2|2,0:0|0:0,0:0:0:0:
330,267,5410,5,2,0:0:0:0:
330,267,5591,1,0,0:0:0:0:
393,190,5772,1,0,0:0:0:0:
393,190,5952,1,0,0:0:0:0:
269,145,6133,1,2,0:0:0:0:
289,345,6314,6,0,P|366:346|408:307,1,127.500004863739,2|0,0:0|0:0,0:0:0:0:
206,296,6856,2,0,P|196:341|209:382,1,63.7500024318696,2|0,0:0|0:0,0:0:0:0:
330,267,7218,2,0,P|341:211|334:183,1,63.7500024318696
197,213,7579,6,0,P|124:287|162:366,1,191.250007295609,2|0,0:0|0:0,0:0:0:0:
230,211,8302,2,0,P|208:166|200:215,1,127.500004863739,2|0,0:0|0:0,0:0:0:0:
330,267,8844,1,2,0:0:0:0:
196,212,9025,1,0,0:0:0:0:
298,77,9206,5,2,0:0:0:0:
321,68,9386,1,0,0:0:0:0:
365,163,9567,5,2,0:0:0:0:
346,180,9747,1,0,0:0:0:0:
394,281,9929,5,2,0:0:0:0:
415,294,10109,1,0,0:0:0:0:
294,356,10290,5,2,0:0:0:0:
285,331,10470,1,0,0:0:0:0:
258,137,10651,5,2,0:0:0:0:
271,177,10742,1,0,0:0:0:0:
264,218,10832,1,0,0:0:0:0:
250,258,10922,1,0,0:0:0:0:
258,299,11013,1,2,0:0:0:0:
285,331,11103,1,0,0:0:0:0:
325,344,11194,1,0,0:0:0:0:
367,339,11284,1,0,0:0:0:0:
399,312,11374,6,0,B|418:267|418:267|402:224|402:224|424:186|408:144,1,165.749992412568,2|0,0:0|0:0,0:0:0:0:
326,176,11736,6,0,L|246:177,1,55.2499974708558,2|0,0:1|0:1,0:1:0:0:
150,313,11916,2,0,L|226:311,1,55.2499974708558,2|0,0:0|0:0,0:0:0:0:
217,81,12097,6,0,B|165:78|165:78|79:97,1,110.499994941712,12|0,0:0|0:0,0:0:0:0:
23,234,12459,2,0,B|75:237|75:237|161:218,1,110.499994941712,8|0,0:0|0:0,0:0:0:0:
211,248,12730,1,8,0:0:0:0:
211,248,12820,2,0,B|237:200|237:200|262:129,1,110.499994941712,0|2,0:0|0:0,0:0:0:0:
280,314,13182,1,8,0:0:0:0:
146,131,13362,6,0,B|192:146|192:146|310:118|310:118|364:137,1,220.999989883423,4|2,0:0|0:0,0:0:0:0:
297,213,13904,1,8,0:0:0:0:
201,55,14085,1,0,0:0:0:0:
201,55,14176,1,8,0:0:0:0:
201,55,14266,2,0,B|213:97|213:97|221:184,1,110.499994941712,2|0,0:0|0:0,0:0:0:0:
138,366,14627,2,0,B|119:325|119:325|105:243,1,110.499994941712,8|0,0:0|0:0,0:0:0:0:
300,121,14989,6,0,B|343:131|343:131|423:171,1,110.499994941712,4|0,0:0|0:0,0:0:0:0:
336,312,15350,2,0,B|276:341|276:341|233:351,1,110.499994941712,8|0,0:0|0:0,0:0:0:0:
205,273,15621,1,8,0:0:0:0:
205,273,15712,2,0,B|215:216|215:216|214:146,1,110.499994941712,0|2,0:0|0:0,0:0:0:0:
95,262,16073,1,8,0:0:0:0:
336,312,16254,6,0,B|327:252|327:252|343:153|343:153|332:70,1,220.999989883423,4|2,0:0|0:0,0:0:0:0:
215,163,16796,1,8,0:0:0:0:
410,248,16977,1,2,0:0:0:0:
261,361,17157,5,4,3:3:0:0:
228,368,17248,1,8,0:2:0:0:
195,362,17338,1,8,0:2:0:0:
169,339,17429,1,8,0:2:0:0:
163,312,17519,1,8,0:3:0:0:
171,291,17609,1,8,0:3:0:0:
183,279,17700,1,4,0:3:0:0:
193,275,17790,1,4,0:3:0:0:
201,273,17880,6,0,P|252:273|305:294,1,85,2|0,0:0|0:0,0:0:0:0:
380,332,18242,2,0,P|427:338|497:313,1,85
481,126,18603,2,0,P|436:113|384:120,1,85
290,144,18965,1,0,0:0:0:0:
362,226,19145,1,0,0:0:0:0:
166,262,19326,6,0,P|169:220|183:180,1,85,2|0,0:0|0:0,0:0:0:0:
320,336,19688,2,0,P|277:338|236:327,1,85
240,77,20049,2,0,P|271:106|290:144,1,85
183,180,20410,1,0,0:0:0:0:
131,82,20591,1,0,0:0:0:0:
372,66,20772,6,0,P|430:103|438:142,1,85,2|0,0:0|0:0,0:0:0:0:
434,225,21133,2,0,P|410:259|370:274,1,85
183,180,21495,2,0,P|256:178|291:202,1,85
221,350,21856,1,0,0:0:0:0:
135,279,22037,1,0,0:0:0:0:
235,85,22218,6,0,P|272:80|323:100,1,85,2|0,0:0|0:0,0:0:0:0:
380,192,22579,2,0,P|384:234|370:274,1,85
221,350,22941,1,0,0:0:0:0:
260,180,23121,1,0,0:0:0:0:
260,180,23212,1,0,0:0:0:0:
260,180,23302,2,0,P|274:224|274:269,1,85
221,350,23573,1,0,0:0:0:0:
221,350,23663,6,0,P|181:307|175:250,1,85,2|0,0:0|0:0,0:0:0:0:
173,167,24025,2,0,P|173:125|160:85,1,85
2,203,24386,2,0,P|38:224|80:227,1,85
173,167,24748,1,0,0:0:0:0:
261,231,24929,1,0,0:0:0:0:
401,151,25109,6,0,P|405:101|382:42,1,85,2|0,0:0|0:0,0:0:0:0:
261,231,25471,2,0,P|263:273|279:313,1,85
455,267,25832,1,0,0:0:0:0:
328,186,26013,1,0,0:0:0:0:
478,70,26193,2,0,P|380:75|365:87,1,85
188,62,26555,6,0,P|238:52|279:62,1,85,2|0,0:0|0:0,0:0:0:0:
364,117,26916,2,0,P|303:142|265:138,1,85,2|0,0:0|0:0,0:0:0:0:
192,201,27278,2,0,P|252:226|290:222,1,85,2|0,0:0|0:0,0:0:0:0:
362,288,27639,2,0,P|301:313|263:309,1,85,2|0,0:0|0:0,0:0:0:0:
108,284,28001,5,2,0:0:0:0:
89,255,28091,1,0,0:0:0:0:
79,222,28182,1,0,0:0:0:0:
80,188,28272,1,0,0:0:0:0:
90,155,28362,2,0,L|129:127,1,42.5,8|0,0:3|0:3,3:2:0:0:
266,71,28543,5,2,0:3:0:0:
266,71,28633,1,2,0:3:0:0:
266,71,28724,2,8,L|253:129,1,42.5,8|0,0:0|0:0,0:0:0:0:
192,201,28904,2,8,L|215:252,1,42.5,8|0,0:0|0:0,0:0:0:0:
262,345,29085,5,8,0:0:0:0:
292,303,29176,1,8,0:0:0:0:
340,288,29266,1,8,0:3:0:0:
388,302,29356,1,4,0:3:0:0:
433,325,29447,6,0,L|461:220,1,85,4|0,0:0|0:0,0:0:0:0:
292,123,29808,1,8,0:0:0:0:
340,288,29989,1,0,0:0:0:0:
498,127,30169,2,0,P|451:124|392:136,1,85,8|0,0:0|0:0,0:0:0:0:
278,215,30531,1,8,0:0:0:0:
465,325,30712,6,0,P|467:292|444:223,1,85,2|8,0:0|0:0,0:0:0:0:
296,133,31073,2,0,P|280:169|282:235,1,85,2|8,0:0|0:0,0:0:0:0:
503,154,31435,2,0,P|462:140|420:144,1,85,2|8,0:0|0:0,0:0:0:0:
243,295,31796,2,0,P|294:297|334:276,1,85,2|8,0:0|0:0,0:0:0:0:
165,58,32157,1,0,0:0:0:0:
165,58,32248,1,0,0:0:0:0:
169,61,32338,6,0,L|182:144,1,85,4|0,0:3|0:3,0:3:0:0:
94,277,32700,1,8,0:0:0:0:
76,123,32880,1,0,0:0:0:0:
212,218,33061,1,8,0:0:0:0:
30,207,33242,1,0,0:0:0:0:
156,339,33422,1,8,0:0:0:0:
182,144,33603,6,0,P|187:97|210:57,1,85,2|8,0:0|0:0,0:0:0:0:
82,143,33965,2,0,P|106:178|111:221,1,85,2|8,0:0|0:0,0:0:0:0:
247,323,34326,2,0,P|237:281|247:240,1,85,2|8,0:0|0:0,0:0:0:0:
111,219,34687,1,2,0:0:0:0:
323,280,34868,1,8,0:0:0:0:
156,339,35049,1,0,0:0:0:0:
182,144,35230,6,0,B|179:38,1,85,4|0,0:0|0:0,0:0:0:0:
111,219,35591,1,8,0:0:0:0:
316,188,35772,1,0,0:0:0:0:
240,311,35953,1,8,0:0:0:0:
271,113,36134,2,0,P|285:73|311:39,1,85,0|8,0:0|0:0,0:0:0:0:
417,224,36494,2,0,P|417:245|413:273,1,42.5
324,314,36676,6,0,P|263:307|219:316,1,85,4|0,0:0|0:0,0:0:0:0:
111,219,37037,1,8,0:0:0:0:
271,113,37218,1,0,0:0:0:0:
239,310,37398,1,8,0:0:0:0:
150,87,37579,1,0,0:0:0:0:
82,298,37759,1,8,0:0:0:0:
316,188,37940,1,0,0:0:0:0:
297,178,38030,1,0,0:0:0:0:
278,166,38121,6,0,L|366:147,1,85,4|0,0:0|0:0,0:0:0:0:
203,222,38483,1,8,0:0:0:0:
324,314,38663,1,0,0:0:0:0:
431,104,38844,2,0,B|407:66|359:65,1,85,8|0,0:0|0:0,0:0:0:0:
123,216,39206,2,0,P|136:175|167:146,1,85,8|0,0:0|0:0,0:0:0:0:
407,298,39567,6,0,L|291:320,1,85,8|0,0:0|0:0,0:0:0:0:
203,222,39929,1,8,0:0:0:0:
280,384,40109,1,0,0:0:0:0:
323,113,40290,5,8,0:0:0:0:
323,113,40380,1,8,0:0:0:0:
323,113,40471,2,8,L|347:156,1,48.8750009322167,8|8,0:0|0:0,0:0:0:0:
450,263,40651,5,8,0:0:0:0:
407,298,40742,1,8,0:0:0:0:
352,293,40832,1,8,0:3:0:0:
307,261,40922,1,4,0:3:0:0:
250,279,41013,5,8,0:0:0:0:
210,23,41194,1,8,0:0:0:0:
101,291,41374,1,8,0:0:0:0:
84,281,41736,6,0,L|153:263,1,48.8750009322167,8|0,3:2|3:2,3:2:0:0:
202,340,41916,1,8,3:2:0:0:
256,350,42007,1,8,3:2:0:0:
302,320,42097,1,8,3:2:0:0:
357,315,42188,1,8,3:2:0:0:
415,339,42278,6,0,P|464:310|452:223,1,146.62500279665,4|0,0:0|0:0,0:0:0:0:
388,219,42639,1,2,0:0:0:0:
501,96,42820,1,8,0:0:0:0:
288,49,43001,1,0,0:0:0:0:
288,49,43091,1,0,0:0:0:0:
288,49,43182,2,0,B|312:82|312:82|361:130,1,97.7500018644333,8|2,0:0|0:0,0:0:0:0:
512,175,43543,1,8,0:0:0:0:
310,190,43724,1,0,0:0:0:0:
512,302,43904,5,8,0:0:0:0:
436,17,44085,1,8,0:0:0:0:
352,256,44266,1,8,0:0:0:0:
342,273,44627,5,8,0:0:0:0:
429,36,44808,1,2,0:0:0:0:
512,302,44989,1,8,0:0:0:0:
283,19,45169,6,0,P|254:57|327:72,1,146.62500279665,4|0,0:0|0:0,0:0:0:0:
354,14,45531,1,2,0:0:0:0:
164,133,45712,1,8,0:0:0:0:
366,233,45892,5,10,0:0:0:0:
381,244,45983,1,8,0:0:0:0:
397,254,46073,2,8,B|423:254|423:254|450:251,1,48.8750009322167,8|0,0:3|0:3,0:3:0:0:
273,321,46254,5,8,0:0:0:0:
229,289,46344,1,8,0:0:0:0:
211,237,46435,1,8,0:0:0:0:
220,184,46525,1,8,0:0:0:0:
257,146,46615,1,10,0:0:0:0:
310,136,46706,1,4,0:0:0:0:
362,155,46796,6,0,B|400:156|400:156|468:145,1,101.999996887207,4|0,0:0|0:0,0:0:0:0:
354,14,47157,1,8,0:0:0:0:
301,230,47338,1,2,0:0:0:0:
288,246,47429,1,0,0:0:0:0:
276,262,47519,2,0,L|150:276,1,101.999996887207,8|0,0:0|0:0,0:0:0:0:
362,155,47880,1,8,0:0:0:0:
286,337,48061,1,2,0:0:0:0:
86,173,48242,6,0,B|77:48,1,101.999996887207,4|0,0:0|0:0,0:0:0:0:
0,224,48603,1,8,0:0:0:0:
211,153,48784,1,2,0:0:0:0:
224,137,48875,1,0,0:0:0:0:
236,121,48965,2,0,L|229:-7,1,101.999996887207,8|0,0:0|0:0,0:0:0:0:
86,173,49326,1,8,0:0:0:0:
264,280,49507,1,2,0:0:0:0:
432,78,49688,6,0,B|289:93,1,101.999996887207,4|0,0:0|0:0,0:0:0:0:
152,43,50049,1,8,0:0:0:0:
276,262,50229,1,2,0:0:0:0:
289,246,50320,1,0,0:0:0:0:
301,230,50410,2,0,L|402:218,1,101.999996887207,8|0,0:0|0:0,0:0:0:0:
211,153,50772,1,8,0:0:0:0:
262,365,50953,1,2,0:0:0:0:
475,152,51133,6,0,B|473:120|473:120|478:83|478:83|475:35,1,101.999996887207,4|0,0:0|0:0,0:0:0:0:
243,63,51495,1,8,0:0:0:0:
276,262,51675,1,2,0:0:0:0:
289,246,51766,1,0,0:0:0:0:
301,230,51856,1,8,0:0:0:0:
152,43,52037,1,2,0:0:0:0:
389,117,52218,1,8,0:0:0:0:
120,237,52398,1,2,0:0:0:0:
416,348,52579,6,0,L|538:306,1,101.999996887207,4|0,0:0|0:0,0:0:0:0:
475,152,52941,1,8,0:0:0:0:
152,265,53121,1,2,0:0:0:0:
136,251,53212,1,0,0:0:0:0:
120,237,53302,2,0,L|140:115,1,101.999996887207,8|0,0:0|0:0,0:0:0:0:
320,87,53663,1,8,0:0:0:0:
248,311,53844,1,2,0:0:0:0:
128,113,54025,6,0,P|129:82|142:50,1,50.9999984436036,8|0,0:0|0:0,0:0:0:0:
250,160,54206,1,8,0:0:0:0:
294,184,54297,1,8,0:0:0:0:
344,184,54387,1,8,0:0:0:0:
390,163,54477,1,8,0:0:0:0:
417,120,54566,6,8,P|418:94|411:67,1,50.9999984436036
250,160,54747,2,0,P|249:186|258:226,1,48.8750009322167,8|4,3:0|3:0,3:0:0:0:
386,346,54928,2,4,P|387:320|381:295,1,48.8750009322167
194,101,55109,6,0,B|183:88|172:62|172:62|154:110|173:162,1,146.62500279665,8|0,0:0|0:0,0:0:0:0:
212,309,55471,5,8,0:0:0:0:
412,69,55651,1,0,0:0:0:0:
80,160,55832,5,8,0:0:0:0:
494,244,56013,1,0,0:0:0:0:
168,384,56194,5,8,0:0:0:0:
228,22,56374,2,0,B|232:15|235:-8|235:-8|260:4|252:50,1,97.7500018644333,8|0,0:0|0:0,0:0:0:0:
372,312,56736,5,8,0:0:0:0:
252,52,56916,1,0,0:0:0:0:
255,384,57097,1,8,0:0:0:0:
358,166,57459,6,0,B|288:99|249:182|185:111,1,191.25,2|0,0:0|0:0,0:0:0:0:
168,201,58362,6,0,P|262:156|253:53,1,220.999989883423,4|8,0:0|0:0,0:0:0:0:
34,56,58904,1,2,0:0:0:0:
34,56,58995,1,0,0:0:0:0:
34,56,59085,2,0,B|58:93|58:93|109:146,1,110.499994941712,0|2,0:0|0:0,0:0:0:0:
252,52,59447,1,8,0:0:0:0:
107,25,59627,1,2,0:0:0:0:
274,212,59808,6,0,B|326:237|326:237|437:217|437:217|491:237,1,220.999989883423,4|8,0:0|0:0,0:0:0:0:
340,120,60350,1,2,0:0:0:0:
306,333,60531,1,0,0:0:0:0:
438,143,60712,1,2,0:0:0:0:
210,296,60892,1,8,0:0:0:0:
484,234,61073,1,2,0:0:0:0:
161,203,61254,6,0,B|96:174|95:98|95:98|181:93,1,165.749992412568,4|0,0:0|0:0,0:0:0:0:
176,105,61615,2,0,P|230:112|277:84,1,110.499994941712,8|2,0:0|0:0,0:0:0:0:
125,16,61977,1,0,0:0:0:0:
248,195,62157,1,2,0:0:0:0:
248,195,62248,1,0,0:0:0:0:
248,195,62338,1,8,0:0:0:0:
51,217,62519,1,2,0:0:0:0:
276,84,62700,6,0,P|353:157|339:263,1,220.999989883423,4|8,0:0|0:0,0:0:0:0:
123,306,63242,1,2,0:0:0:0:
123,306,63332,1,0,0:0:0:0:
123,306,63422,1,0,0:0:0:0:
248,195,63603,1,2,0:0:0:0:
287,384,63784,1,8,0:0:0:0:
148,205,63965,1,2,0:0:0:0:
381,331,64145,6,0,P|436:279|387:209,1,165.749992412568,4|0,0:0|0:0,0:0:0:0:
349,235,64507,2,0,B|310:229|310:229|226:183,1,110.499994941712,8|2,0:0|0:0,0:0:0:0:
173,26,64868,1,0,0:0:0:0:
360,75,65049,1,2,0:0:0:0:
360,75,65139,1,0,0:0:0:0:
360,75,65230,1,8,0:0:0:0:
167,228,65410,1,2,0:0:0:0:
312,0,65591,6,0,P|371:-10|439:31,1,110.499994941712,4|0,0:0|0:0,0:0:0:0:
248,195,65953,2,0,P|224:152|232:77,1,110.499994941712,8|0,0:0|0:0,0:0:0:0:
469,90,66314,2,0,P|471:144|446:192,1,110.499994941712
280,368,66676,5,8,0:0:0:0:
225,172,66856,1,2,0:0:0:0:
179,150,66947,1,8,0:0:0:0:
129,155,67037,5,4,0:0:0:0:
280,368,67218,1,0,0:0:0:0:
186,46,67398,5,8,0:0:0:0:
119,365,67579,1,0,0:0:0:0:
305,42,67760,5,8,0:0:0:0:
6,258,67941,1,0,0:0:0:0:
356,156,68121,5,8,0:0:0:0:
24,102,68302,1,2,0:0:0:0:
293,258,68483,5,8,0:0:0:0:
343,275,68573,1,0,3:0:0:0:
388,247,68663,1,0,3:0:0:0:
394,194,68754,1,0,3:0:0:0:
356,156,68844,2,0,P|329:147|277:146,1,55.2499974708558,8|0,3:2|3:2,3:2:0:0:
406,328,69025,5,8,0:0:0:0:
451,293,69115,1,0,3:0:0:0:
476,241,69205,1,0,3:0:0:0:
475,184,69296,1,0,3:0:0:0:
449,133,69386,2,0,P|425:108|387:83,1,57.8000003527832,8|0,3:2|3:2,3:2:0:0:
157,59,69567,5,10,3:2:0:0:
116,114,69657,1,8,3:2:0:0:
105,182,69747,1,10,3:2:0:0:
128,247,69838,1,8,3:2:0:0:
188,286,69929,6,0,P|209:189|91:202,1,231.200001411133,4|8,0:0|0:0,0:0:0:0:
261,373,70471,1,2,0:0:0:0:
261,373,70561,1,0,0:0:0:0:
261,373,70651,2,0,P|296:332|329:265,1,115.600000705566,0|2,0:0|0:0,0:0:0:0:
219,169,71013,1,8,0:0:0:0:
367,76,71194,1,2,0:0:0:0:
146,67,71374,6,0,B|200:85|200:85|306:57|306:57|380:80,1,231.200001411133,4|8,0:0|0:0,0:0:0:0:
437,272,71916,1,2,0:0:0:0:
241,177,72097,1,0,0:0:0:0:
493,145,72278,1,2,0:0:0:0:
241,19,72459,1,8,0:0:0:0:
506,7,72639,1,2,0:0:0:0:
241,177,72820,6,0,B|194:161|194:161|129:119,1,115.600000705566,4|0,0:0|0:0,0:0:0:0:
5,32,73182,1,8,0:0:0:0:
241,19,73362,1,2,0:0:0:0:
216,252,73543,6,0,B|169:236|169:236|104:194,1,115.600000705566,4|2,0:0|0:0,0:0:0:0:
5,32,73905,1,8,0:0:0:0:
308,79,74085,1,2,0:0:0:0:
186,328,74266,5,4,0:0:0:0:
32,175,74447,1,0,0:0:0:0:
247,141,74627,2,0,B|243:180|243:180|215:253,1,115.600000705566,8|0,0:0|0:0,0:0:0:0:
85,94,74989,1,8,0:0:0:0:
85,94,75079,1,8,0:0:0:0:
85,94,75169,1,0,0:0:0:0:
308,79,75350,2,0,P|336:148|263:227,1,173.40000105835,8|0,0:0|0:0,0:0:0:0:
215,251,75712,5,4,0:0:0:0:
407,198,75892,1,2,0:0:0:0:
204,64,76073,1,8,0:0:0:0:
278,293,76254,1,2,0:0:0:0:
352,51,76435,1,0,0:0:0:0:
156,203,76615,2,0,P|139:260|176:317,1,115.600000705566,2|8,0:0|0:0,0:0:0:0:
204,64,76977,1,2,0:0:0:0:
175,58,77067,1,0,0:0:0:0:
146,59,77157,6,0,P|106:77|64:151,1,115.600000705566,4|0,0:0|0:0,0:0:0:0:
163,307,77519,1,8,0:0:0:0:
15,217,77700,1,2,0:0:0:0:
286,172,77880,5,8,0:0:0:0:
343,160,77971,1,8,0:0:0:0:
374,111,78061,1,8,0:0:0:0:
364,54,78151,1,8,0:0:0:0:
311,30,78242,5,8,0:3:0:0:
274,49,78332,1,8,0:3:0:0:
232,40,78422,1,4,0:3:0:0:
191,44,78513,1,4,0:3:0:0:
152,32,78603,5,12,0:0:0:0:
63,290,78784,1,0,0:0:0:0:
232,40,78965,5,8,0:0:0:0:
244,325,79145,1,0,0:0:0:0:
311,30,79326,5,8,0:0:0:0:
428,281,79507,1,0,0:0:0:0:
178,106,79688,5,8,0:0:0:0:
512,177,79868,1,0,0:0:0:0:
180,194,80049,5,8,0:0:0:0:
473,42,80230,1,0,0:0:0:0:
238,260,80410,5,8,0:0:0:0:
389,0,80591,1,0,0:0:0:0:
448,296,80772,5,8,0:0:0:0:
311,30,80953,1,0,0:0:0:0:
244,349,81133,5,8,0:0:0:0:
232,40,81314,1,0,0:0:0:0:
52,313,81495,5,8,0:0:0:0:
151,31,81676,1,8,0:0:0:0:
238,260,81856,1,8,0:0:0:0:
27,70,82037,1,8,0:0:0:0:
293,7,82218,5,8,0:0:0:0:
328,45,82308,1,8,0:0:0:0:
338,95,82398,2,8,P|334:134|308:178,1,57.8000003527832
104,187,82579,5,8,0:0:0:0:
134,144,82669,1,8,0:0:0:0:
180,123,82760,2,8,P|219:119|268:135,1,57.8000003527832
241,305,82941,6,0,B|191:310|191:310|181:315|181:315|169:312|169:312|100:319,1,127.500004863739,4|0,0:0|0:0,0:0:0:0:
174,207,84386,6,0,B|216:203|216:203|304:174,1,110.499994941712,4|0,0:0|0:0,0:0:0:0:
119,60,84748,2,0,B|73:76|73:76|11:117,1,110.499994941712,8|0,0:0|0:0,0:0:0:0:
17,204,85019,1,8,0:0:0:0:
17,203,85109,2,0,B|45:237|45:237|105:280,1,110.499994941712,0|2,0:0|0:0,0:0:0:0:
119,60,85471,1,8,0:0:0:0:
286,274,85651,6,0,B|338:303|338:303|447:281|447:281|510:313,1,220.999989883423,4|2,0:0|0:0,0:0:0:0:
304,384,86194,1,8,0:0:0:0:
369,112,86374,1,0,0:0:0:0:
369,112,86465,1,8,0:0:0:0:
369,112,86555,2,0,B|368:157|368:157|351:233,1,110.499994941712,2|2,0:0|0:0,0:0:0:0:
201,384,86916,1,8,0:0:0:0:
110,184,87097,1,2,0:0:0:0:
112,179,87188,1,0,0:0:0:0:
114,174,87278,6,0,B|123:123|123:123|118:45,1,110.499994941712,4|0,0:0|0:0,0:0:0:0:
343,106,87639,2,0,B|389:120|389:120|480:172,1,110.499994941712,8|0,0:0|0:0,0:0:0:0:
369,218,87910,1,8,0:0:0:0:
369,218,88001,2,0,B|317:204|317:204|241:163,1,110.499994941712,0|2,0:0|0:0,0:0:0:0:
158,3,88362,1,8,0:0:0:0:
392,41,88543,6,0,B|328:76|328:76|240:89|240:89|182:130,1,220.999989883423,4|2,0:0|0:0,0:0:0:0:
160,320,89085,1,8,0:0:0:0:
11,159,89266,1,2,0:0:0:0:
30,125,89356,1,2,0:0:0:0:
58,107,89447,1,8,0:0:0:0:
91,107,89537,1,8,0:0:0:0:
121,118,89627,6,2,P|147:128|173:153,1,55.2499974708558
306,208,89808,2,8,P|286:227|261:238,1,55.2499974708558
160,320,89989,2,0,P|132:264|132:246,1,55.2499974708558,8|4,0:3|0:3,0:3:0:0:
290,55,90169,5,4,0:0:0:0:
256,192,90260,12,0,96676,0:0:0:0:
