osu file format v14

[General]
AudioFilename: audio.mp3
AudioLeadIn: 0
PreviewTime: 57373
Countdown: 0
SampleSet: Soft
StackLeniency: 0.5
Mode: 0
LetterboxInBreaks: 0
WidescreenStoryboard: 1

[Editor]
DistanceSpacing: 0.2
BeatDivisor: 4
GridSize: 8
TimelineZoom: 1

[Metadata]
Title:Cynthia no Hikari
TitleUnicode:シンシアの光
Artist:Eir Aoi
ArtistUnicode:藍井エイル
Creator:Nozaki
Version:Insane
Source:ソードアート・オンライン -ロスト・ソング-
Tags:Sword Art Online Lost Song BEST -E- D'AZUR Hiroki Arai 新井弘毅 sao opening Gaia Mentai SnowNiNo_ missa1912 psvita sony playstation
BeatmapID:1310613
BeatmapSetID:621575

[Difficulty]
HPDrainRate:5.5
CircleSize:3.8
OverallDifficulty:7.3
ApproachRate:9
SliderMultiplier:1.7
SliderTickRate:1

[Events]
//Background and Video events
0,0,"saols.jpg",0,0
Video,1583,"lostop.avi"
//Break Periods
//Storyboard Layer 0 (Background)
//Storyboard Layer 1 (Fail)
//Storyboard Layer 2 (Pass)
//Storyboard Layer 3 (Foreground)
//Storyboard Sound Samples

[TimingPoints]
3423,361.44578313253,4,2,1,70,1,0
3423,-125,4,2,1,70,0,0
9206,-100,4,2,1,70,0,0
11736,-100,4,1,0,70,0,0
12097,-100,4,2,3,70,0,0
17880,-105.263157894737,4,2,11,70,0,0
28362,-100,4,2,1,70,0,0
40290,-90.9090909090909,4,2,1,70,0,0
57459,-200,4,2,1,30,0,0
58362,-90.9090909090909,4,2,1,80,0,1
69025,-86.9565217391304,4,2,1,80,0,1
82941,-90.9090909090909,4,2,1,80,0,0
84386,-90.9090909090909,4,2,3,75,0,0
96676,-90.9090909090909,4,2,0,5,0,0

[Colours]
Combo1 : 232,224,89
Combo2 : 137,223,255
Combo3 : 139,250,139
Combo4 : 255,159,213

[HitObjects]
126,188,3423,6,0,P|184:224|275:207,1,136,2|0,0:0|0:0,0:0:0:0:
301,111,3965,2,0,P|234:107|168:121,1,136,2|0,0:0|0:0,0:0:0:0:
126,188,4507,1,0,0:0:0:0:
171,44,4688,2,0,P|93:98|125:187,1,204,2|2,0:0|0:0,0:0:0:0:
249,220,5410,1,2,0:0:0:0:
197,165,5591,1,0,0:0:0:0:
232,296,5772,1,0,0:0:0:0:
173,248,5953,1,0,0:0:0:0:
278,144,6133,1,2,0:0:0:0:
417,162,6314,6,0,B|372:239|428:244|381:313,1,136,2|0,0:0|0:0,0:0:0:0:
312,343,6856,2,0,P|367:332|450:392,2,136,2|2|2,0:0|0:0|0:0,0:0:0:0:
236,195,7760,6,0,L|251:291,1,68
188,347,8121,1,0,0:0:0:0:
312,343,8302,2,0,P|263:322|186:348,1,136,2|0,0:0|0:0,0:0:0:0:
321,368,8844,1,2,0:0:0:0:
424,317,9025,1,0,0:0:0:0:
381,201,9206,6,0,P|312:198|266:213,1,85,2|0,0:0|0:0,0:0:0:0:
161,255,9567,2,0,P|211:268|262:259,1,85,2|0,0:0|0:0,0:0:0:0:
129,168,9929,2,0,P|79:163|25:183,1,85,2|0,0:0|0:0,0:0:0:0:
75,314,10290,2,0,P|124:304|163:254,1,85,2|0,0:0|0:0,0:0:0:0:
222,118,10651,5,2,0:0:0:0:
244,105,10742,1,0,0:0:0:0:
269,102,10832,1,0,0:0:0:0:
293,109,10922,1,0,0:0:0:0:
311,126,11013,1,2,0:0:0:0:
322,148,11103,1,0,0:0:0:0:
331,171,11194,1,0,0:0:0:0:
330,196,11284,1,0,0:0:0:0:
322,220,11374,6,0,B|383:222|383:222|411:235|440:273,1,127.5,2|0,0:0|0:0,0:0:0:0:
353,307,11736,6,0,L|281:307,1,42.5,2|0,0:1|0:1,0:0:0:0:
204,177,11916,2,0,L|265:177,1,42.5,2|0,0:0|0:0,0:0:0:0:
168,281,12097,6,0,B|128:253|128:253|79:200,1,85,12|0,0:0|0:0,0:0:0:0:
174,74,12459,1,8,0:0:0:0:
16,114,12639,1,0,0:0:0:0:
16,114,12730,1,8,0:0:0:0:
16,114,12820,2,0,B|49:126|49:126|128:135,1,85,0|2,0:0|0:0,0:0:0:0:
237,22,13182,1,8,0:0:0:0:
201,170,13362,6,0,B|175:199|175:199|192:118|192:118|169:62,1,170,4|2,0:0|0:0,0:0:0:0:
16,114,13904,1,8,0:0:0:0:
89,253,14085,2,0,B|116:133|116:133|48:180,1,170,0|0,0:0|0:0,0:0:0:0:
0,279,14627,2,0,P|26:323|68:344,1,85,8|0,0:0|0:0,0:0:0:0:
178,227,14989,6,0,L|152:344,1,85,4|0,0:0|0:0,0:0:0:0:
286,384,15350,1,8,0:0:0:0:
359,231,15531,1,0,0:0:0:0:
358,236,15621,1,8,0:0:0:0:
356,241,15712,2,0,B|322:269|322:269|263:298,1,85,0|2,0:0|0:0,0:0:0:0:
87,275,16073,1,8,0:0:0:0:
264,163,16254,6,0,B|221:177|221:177|140:157|140:157|67:166,1,170,4|2,0:0|0:0,0:0:0:0:
203,378,16796,1,8,0:0:0:0:
87,275,16977,1,2,0:0:0:0:
252,269,17157,5,4,3:3:0:0:
255,241,17248,1,8,0:2:0:0:
257,215,17338,1,8,0:2:0:0:
260,189,17429,1,8,0:2:0:0:
264,163,17519,6,0,L|318:148,1,42.5,8|8,0:3|0:3,3:3:0:0:
191,96,17700,2,0,L|265:78,1,42.5,4|4,0:3|0:3,3:3:0:0:
341,72,17880,6,0,P|379:101|398:158,1,80.7499978437424,2|0,0:0|0:0,0:0:0:0:
287,227,18242,2,0,P|287:187|305:151,1,80.7499978437424,0|0,0:0|0:0,0:0:0:0:
452,192,18603,2,0,P|403:215|349:199,1,80.7499978437424,0|0,0:0|0:0,0:0:0:0:
227,179,18965,1,0,0:0:0:0:
304,151,19145,1,0,0:0:0:0:
219,269,19326,6,0,P|172:255|138:213,1,80.7499978437424,2|0,0:0|0:0,0:0:0:0:
223,101,19688,2,0,P|234:148|215:199,1,80.7499978437424,0|0,0:0|0:0,0:0:0:0:
70,186,20049,2,0,P|105:152|158:143,1,80.7499978437424,0|0,0:0|0:0,0:0:0:0:
236,195,20410,1,0,0:0:0:0:
264,97,20591,1,0,0:0:0:0:
411,156,20772,6,0,L|324:165,1,80.7499978437424,2|0,0:0|0:0,0:0:0:0:
424,300,21133,2,0,L|376:234,1,80.7499978437424,0|0,0:0|0:0,0:0:0:0:
307,383,21495,2,0,L|339:309,1,80.7499978437424,0|0,0:0|0:0,0:0:0:0:
330,164,21856,1,0,0:0:0:0:
285,241,22037,1,0,0:0:0:0:
246,100,22218,6,0,L|334:69,1,80.7499978437424,2|0,0:0|0:0,0:0:0:0:
167,54,22579,2,0,L|140:143,1,80.7499978437424,0|0,0:0|0:0,0:0:0:0:
200,243,22941,1,0,0:0:0:0:
60,204,23121,1,0,0:0:0:0:
60,204,23212,1,0,0:0:0:0:
60,204,23302,2,0,L|126:288,1,80.7499978437424,0|0,0:0|0:0,0:0:0:0:
251,310,23663,6,0,P|276:279|284:240,1,80.7499978437424,2|0,0:0|0:0,0:0:0:0:
155,179,24025,2,0,P|169:216|199:242,1,80.7499978437424,0|0,0:0|0:0,0:0:0:0:
319,160,24386,2,0,P|279:153|241:166,1,80.7499978437424,0|0,0:0|0:0,0:0:0:0:
251,310,24748,1,0,0:0:0:0:
337,299,24929,1,0,0:0:0:0:
395,148,25109,6,0,P|355:143|319:160,1,80.7499978437424,2|0,0:0|0:0,0:0:0:0:
337,299,25471,2,0,P|361:267|367:228,1,80.7499978437424,0|0,0:0|0:0,0:0:0:0:
251,310,25832,1,0,0:0:0:0:
366,227,26013,1,0,0:0:0:0:
216,140,26194,2,0,P|232:103|262:77,1,80.7499978437424,0|0,0:0|0:0,0:0:0:0:
434,72,26555,6,0,P|471:109|483:153,1,80.7499978437424,2|0,0:0|0:0,0:0:0:0:
408,226,26916,2,0,P|393:171|401:121,1,80.7499978437424,2|0,0:0|0:0,0:0:0:0:
264,76,27278,2,0,P|301:113|313:157,1,80.7499978437424,2|0,0:0|0:0,0:0:0:0:
238,230,27639,2,0,P|223:175|231:125,1,80.7499978437424,2|0,0:0|0:0,0:0:0:0:
320,276,28001,6,0,P|283:316|223:318,1,80.7499978437424,2|0,0:0|0:0,0:0:0:0:
128,161,28362,2,0,L|122:39,1,85,8|2,0:3|0:3,3:3:0:0:
197,207,28724,2,8,L|242:211,3,42.5,8|0|8|0,0:0|0:0|0:0|0:0,0:0:0:0:
225,242,29085,5,8,0:0:0:0:
212,272,29176,1,8,0:0:0:0:
199,301,29266,1,8,0:3:0:0:
185,330,29356,1,4,0:3:0:0:
170,359,29447,6,0,L|156:258,1,85,4|0,0:0|0:0,0:0:0:0:
82,172,29808,2,0,L|176:207,1,85,8|0,0:0|0:0,0:0:0:0:
293,191,30169,2,0,L|212:250,1,85,8|0,0:0|0:0,0:0:0:0:
79,257,30531,1,8,0:0:0:0:
141,107,30712,1,0,0:0:0:0:
224,241,30892,6,0,P|295:274|332:264,1,85,8|0,0:0|0:0,0:0:0:0:
215,137,31254,2,0,P|173:108|127:110,1,85,8|0,0:0|0:0,0:0:0:0:
158,279,31615,1,8,0:0:0:0:
149,183,31796,1,0,0:0:0:0:
91,316,31977,1,8,0:0:0:0:
223,241,32157,1,0,0:0:0:0:
65,220,32338,6,0,P|58:175|75:126,1,85,4|0,0:0|0:0,0:0:0:0:
219,143,32700,2,0,P|189:172|148:183,1,85,8|0,0:0|0:0,0:0:0:0:
77,48,33061,2,0,P|116:63|146:94,1,85,8|0,0:0|0:0,0:0:0:0:
65,220,33422,1,8,0:0:0:0:
16,128,33603,1,0,0:0:0:0:
219,143,33784,6,0,P|189:172|148:183,1,85,8|0,0:0|0:0,0:0:0:0:
128,272,34145,2,0,P|87:250|64:218,1,85,8|0,0:0|0:0,0:0:0:0:
270,220,34507,1,8,0:0:0:0:
219,142,34688,1,0,0:0:0:0:
214,295,34868,1,8,0:0:0:0:
363,230,35049,1,0,0:0:0:0:
192,115,35230,6,0,L|168:206,1,85,4|0,0:0|0:0,0:0:0:0:
279,360,35591,2,0,L|297:267,1,85,8|0,0:0|0:0,0:0:0:0:
274,122,35953,1,8,0:0:0:0:
243,222,36133,1,0,0:0:0:0:
373,116,36314,1,8,0:0:0:0:
223,32,36495,1,0,0:0:0:0:
223,32,36585,1,0,0:0:0:0:
223,32,36676,6,0,P|276:68|325:65,1,85,4|0,0:0|0:0,0:0:0:0:
391,196,37037,2,0,P|333:223|312:269,1,85,8|0,0:0|0:0,0:0:0:0:
164,250,37398,2,0,P|168:186|140:144,1,85,8|0,0:0|0:0,0:0:0:0:
306,151,37760,1,8,0:0:0:0:
302,316,37941,1,0,0:0:0:0:
302,316,38031,1,0,0:0:0:0:
302,316,38121,6,0,B|264:344|190:351,1,85,4|0,0:0|0:0,0:0:0:0:
164,250,38483,1,8,0:0:0:0:
299,230,38663,1,0,0:0:0:0:
208,139,38844,2,0,P|189:90|197:42,1,85,8|0,0:0|0:0,0:0:0:0:
61,35,39206,2,0,P|80:84|71:131,1,85,8|0,0:0|0:0,0:0:0:0:
0,283,39567,6,0,L|113:275,1,85,8|0,0:0|0:0,0:0:0:0:
307,357,39929,2,0,L|205:343,1,85,8|0,0:0|0:0,0:0:0:0:
256,177,40290,2,8,L|217:108,3,46.7500014266968,8|8|8|8,0:0|0:0|0:0|0:0,0:0:0:0:
268,124,40651,5,8,0:0:0:0:
304,114,40742,1,8,0:0:0:0:
340,104,40832,1,8,0:3:0:0:
376,95,40922,1,4,0:3:0:0:
412,86,41013,6,0,L|298:56,1,93.5000028533936,8|8,0:0|0:0,0:0:0:0:
487,180,41374,1,8,0:0:0:0:
509,188,41736,5,8,3:2:0:0:
485,202,41826,1,0,3:2:0:0:
461,216,41916,1,8,3:2:0:0:
436,230,42007,1,8,3:2:0:0:
412,244,42097,1,8,3:2:0:0:
387,258,42188,1,8,3:2:0:0:
363,273,42278,6,0,B|269:193|269:193|334:196,1,187.000005706787,4|2,0:0|0:0,0:0:0:0:
257,293,42820,1,8,0:0:0:0:
157,162,43001,1,0,0:0:0:0:
157,162,43091,1,0,0:0:0:0:
157,162,43182,2,0,P|212:178|261:174,1,93.5000028533936,8|2,0:0|0:0,0:0:0:0:
345,53,43543,2,0,P|282:57|243:82,1,93.5000028533936,8|0,0:0|0:0,0:0:0:0:
257,293,43904,5,8,0:0:0:0:
318,130,44085,1,8,0:0:0:0:
155,266,44266,1,8,0:0:0:0:
161,288,44627,5,8,0:0:0:0:
130,166,44808,1,2,0:0:0:0:
78,332,44989,1,8,0:0:0:0:
219,171,45169,6,0,P|187:98|77:92,1,187.000005706787,4|2,0:0|0:0,0:0:0:0:
11,203,45712,1,8,0:0:0:0:
161,288,45892,2,8,L|239:263,3,46.7500014266968,10|8|8|0,0:0|0:0|0:3|0:3,0:0:0:0:
244,310,46254,5,8,0:0:0:0:
270,302,46344,1,8,0:0:0:0:
297,293,46435,1,8,0:0:0:0:
323,285,46525,1,8,0:0:0:0:
349,277,46615,1,10,0:0:0:0:
376,269,46706,1,4,0:0:0:0:
402,260,46796,6,0,B|434:208|434:208|442:122|442:122|459:72,1,187.000005706787,4|8,0:0|0:0,0:0:0:0:
261,90,47338,1,2,0:0:0:0:
261,90,47429,1,0,0:0:0:0:
261,90,47519,2,0,P|278:140|330:187,1,93.5000028533936,8|0,0:0|0:0,0:0:0:0:
494,167,47880,2,0,P|482:123|445:76,1,93.5000028533936,8|2,0:0|0:0,0:0:0:0:
402,260,48242,6,0,B|358:276|358:276|264:258|264:258|184:282,1,187.000005706787,4|8,0:0|0:0,0:0:0:0:
340,384,48784,1,2,0:0:0:0:
344,382,48874,1,0,0:0:0:0:
348,379,48965,2,0,P|384:342|399:298,1,93.5000028533936,8|0,0:0|0:0,0:0:0:0:
294,122,49326,2,0,P|251:144|220:191,1,93.5000028533936,8|2,0:0|0:0,0:0:0:0:
432,199,49688,6,0,B|436:157|436:157|394:62|394:62|403:8,1,187.000005706787,4|8,0:0|0:0,0:0:0:0:
294,122,50230,1,2,0:0:0:0:
294,122,50320,1,0,0:0:0:0:
294,122,50410,2,0,P|236:133|174:111,1,93.5000028533936,8|0,0:0|0:0,0:0:0:0:
400,21,50772,2,0,P|399:64|377:122,1,93.5000028533936,8|2,0:0|0:0,0:0:0:0:
245,212,51133,6,0,B|200:224|200:224|108:204|108:204|19:222,1,187.000005706787,4|8,0:0|0:0,0:0:0:0:
106,360,51676,1,2,0:0:0:0:
108,356,51766,1,0,0:0:0:0:
110,352,51856,2,0,P|126:298|117:255,1,93.5000028533936,8|2,0:0|0:0,0:0:0:0:
0,162,52218,1,8,0:0:0:0:
43,299,52398,1,2,0:0:0:0:
245,212,52579,6,0,B|236:170|236:170|261:66|261:66|252:17,1,187.000005706787,4|8,0:0|0:0,0:0:0:0:
51,71,53121,1,2,0:0:0:0:
51,71,53212,1,0,0:0:0:0:
51,71,53302,2,0,B|64:134|64:134|109:190|109:190|127:251,1,187.000005706787,8|8,0:0|0:0,0:0:0:0:
124,376,53844,1,2,0:0:0:0:
193,275,54025,5,8,0:0:0:0:
321,349,54206,2,0,L|367:335,3,46.7500014266968,8|8|8|8,0:0|0:0|0:0|0:0,3:3:0:0:
370,236,54567,2,0,L|322:212,3,46.7500014266968,8|8|8|4,3:0|3:0|3:0|3:0,3:3:0:0:
376,136,54929,2,0,L|435:126,1,46.7500014266968,4|4,3:0|3:0,3:3:0:0:
461,254,55109,2,0,L|358:233,1,93.5000028533936,8|0,0:0|0:0,0:0:0:0:
188,119,55471,6,0,L|312:83,1,93.5000028533936,8|0,0:0|0:0,0:0:0:0:
397,318,55832,2,0,L|277:294,1,93.5000028533936,8|0,0:0|0:0,0:0:0:0:
164,384,56194,5,8,0:0:0:0:
113,268,56374,2,0,L|114:146,1,93.5000028533936,8|0,0:0|0:0,0:0:0:0:
277,92,56736,6,0,L|294:211,1,93.5000028533936,8|0,0:0|0:0,0:0:0:0:
188,304,57097,1,8,0:0:0:0:
401,359,57459,6,0,P|424:306|379:356,1,191.25,2|0,0:0|0:0,0:0:0:0:
504,363,58362,6,0,P|504:281|401:209,1,187.000005706787,4|8,0:0|0:0,0:0:0:0:
294,311,58904,1,2,0:0:0:0:
294,311,58995,1,0,0:0:0:0:
294,311,59085,2,0,P|334:343|398:351,1,93.5000028533936,0|2,0:0|0:0,0:0:0:0:
430,213,59447,1,8,0:0:0:0:
467,322,59627,1,2,0:0:0:0:
495,142,59808,6,0,P|404:118|334:207,1,187.000005706787,4|8,0:0|0:0,0:0:0:0:
374,352,60350,1,2,0:0:0:0:
430,213,60531,1,0,0:0:0:0:
264,234,60712,1,2,0:0:0:0:
379,338,60892,1,8,0:0:0:0:
340,174,61073,1,2,0:0:0:0:
190,294,61254,6,0,P|173:213|253:136,1,187.000005706787,4|8,0:0|0:0,0:0:0:0:
78,294,61796,2,0,B|57:254|79:171,1,93.5000028533936,2|0,0:0|0:0,0:0:0:0:
215,83,62157,1,2,0:0:0:0:
215,83,62248,1,0,0:0:0:0:
215,83,62338,2,0,P|262:103|295:144,1,93.5000028533936,8|2,0:0|0:0,0:0:0:0:
132,220,62700,6,0,P|72:196|54:66,1,187.000005706787,4|8,0:0|0:0,0:0:0:0:
224,90,63242,1,2,0:0:0:0:
224,90,63332,1,0,0:0:0:0:
224,90,63422,2,0,B|181:116|124:123,1,93.5000028533936,0|2,0:0|0:0,0:0:0:0:
0,24,63784,1,8,0:0:0:0:
46,163,63965,1,2,0:0:0:0:
180,19,64145,6,0,P|257:16|303:106,1,187.000005706787,4|8,0:0|0:0,0:0:0:0:
171,204,64688,2,0,P|142:162|137:112,1,93.5000028533936,2|0,0:0|0:0,0:0:0:0:
276,217,65049,1,2,0:0:0:0:
276,217,65139,1,0,0:0:0:0:
276,217,65230,2,0,P|251:264|213:297,1,93.5000028533936,8|2,0:0|0:0,0:0:0:0:
66,294,65591,6,0,B|105:326|105:326|190:355|190:355|230:386,2,187.000005706787,4|8|0,0:0|0:0|0:0,0:0:0:0:
226,235,66495,1,0,0:0:0:0:
44,301,66676,1,8,0:0:0:0:
54,79,66856,1,2,0:0:0:0:
78,93,66947,1,8,0:0:0:0:
103,105,67037,6,0,L|224:79,1,93.5000028533936,4|0,0:0|0:0,0:0:0:0:
226,235,67398,1,8,0:0:0:0:
311,108,67579,1,0,0:0:0:0:
246,251,67760,5,8,0:0:0:0:
194,85,67941,1,0,0:0:0:0:
269,266,68121,5,8,0:0:0:0:
324,86,68302,1,2,0:0:0:0:
428,217,68483,6,0,L|475:208,3,46.7500014266968,8|0|0|0,0:0|3:0|3:0|3:0,3:3:0:0:
488,133,68844,1,8,3:2:0:0:
324,86,69025,6,0,L|277:22,3,48.8750009322167,8|0|0|0,0:0|3:0|3:0|3:0,3:3:0:0:
260,29,69386,1,8,3:2:0:0:
220,27,69477,1,0,3:2:0:0:
184,43,69567,1,10,3:2:0:0:
164,76,69657,1,8,3:2:0:0:
157,114,69748,1,10,3:2:0:0:
167,151,69838,1,8,3:2:0:0:
192,181,69929,6,0,B|237:188|237:188|340:166|340:166|407:175,1,195.500003728867,4|8,0:0|0:0,0:0:0:0:
409,322,70471,1,2,0:0:0:0:
409,322,70561,1,0,0:0:0:0:
409,322,70651,2,0,P|364:284|339:235,1,97.7500018644333,0|2,0:0|0:0,0:0:0:0:
407,96,71013,1,8,0:0:0:0:
455,229,71194,1,2,0:0:0:0:
259,264,71374,6,0,P|237:205|304:90,1,195.500003728867,4|8,0:0|0:0,0:0:0:0:
344,250,71916,1,2,0:0:0:0:
461,150,72097,1,0,0:0:0:0:
430,303,72278,1,2,0:0:0:0:
368,160,72459,1,8,0:0:0:0:
503,252,72639,1,2,0:0:0:0:
334,349,72820,6,0,B|277:354|277:354|196:329|196:329|110:338,1,195.500003728867,4|8,0:0|0:0,0:0:0:0:
284,261,73362,1,2,0:0:0:0:
111,213,73543,2,0,B|154:242|203:219|203:219|213:178|160:135,1,195.500003728867,4|8,0:0|0:0,0:0:0:0:
28,193,74085,1,2,0:0:0:0:
144,31,74266,6,0,P|202:38|238:71,1,97.7500018644333,4|0,0:0|0:0,0:0:0:0:
28,193,74627,2,0,L|14:81,1,97.7500018644333,8|0,0:0|0:0,0:0:0:0:
231,61,74989,1,8,0:0:0:0:
238,55,75079,1,8,0:0:0:0:
245,48,75169,1,0,0:0:0:0:
110,202,75350,2,0,L|136:335,1,97.7500018644333,8|0,0:0|0:0,0:0:0:0:
382,325,75712,6,0,P|395:283|382:213,1,97.7500018644333,4|2,0:0|0:0,0:0:0:0:
196,203,76073,1,8,0:0:0:0:
312,275,76254,1,2,0:0:0:0:
374,127,76435,1,0,0:0:0:0:
160,125,76615,2,0,P|123:156|112:215,1,97.7500018644333,2|8,0:0|0:0,0:0:0:0:
228,344,76977,1,2,0:0:0:0:
246,102,77157,6,0,P|223:59|182:32,1,97.7500018644333,4|0,0:0|0:0,0:0:0:0:
222,188,77519,2,0,P|255:222|302:234,1,97.7500018644333,8|2,0:0|0:0,0:0:0:0:
183,32,77880,1,8,0:0:0:0:
146,47,77971,1,8,0:0:0:0:
119,75,78061,1,8,0:0:0:0:
112,113,78151,1,8,0:0:0:0:
118,151,78242,1,8,0:3:0:0:
143,180,78332,1,8,0:3:0:0:
179,194,78422,1,4,0:3:0:0:
222,188,78513,1,4,0:3:0:0:
252,163,78603,6,0,P|277:118|281:44,1,97.7500018644333,12|0,0:0|0:0,0:0:0:0:
118,151,78965,1,8,0:0:0:0:
214,261,79145,1,0,0:0:0:0:
374,132,79326,2,0,P|393:82|384:34,1,97.7500018644333,8|0,0:0|0:0,0:0:0:0:
193,169,79688,2,0,P|190:217|213:260,1,97.7500018644333,8|0,0:0|0:0,0:0:0:0:
394,384,80049,6,0,L|414:269,1,97.7500018644333,8|0,0:0|0:0,0:0:0:0:
275,51,80410,2,0,L|284:153,1,97.7500018644333,8|0,0:0|0:0,0:0:0:0:
495,220,80772,2,0,L|389:206,1,97.7500018644333,8|0,0:0|0:0,0:0:0:0:
119,234,81133,2,0,L|225:263,1,97.7500018644333,8|0,0:0|0:0,0:0:0:0:
398,207,81495,5,8,0:0:0:0:
213,259,81676,1,8,0:0:0:0:
394,384,81856,1,8,0:0:0:0:
382,129,82037,1,8,0:0:0:0:
213,259,82218,5,8,0:0:0:0:
203,257,82308,1,8,0:0:0:0:
193,256,82398,1,8,0:0:0:0:
183,253,82489,1,8,0:0:0:0:
173,250,82579,1,8,0:0:0:0:
163,246,82669,1,8,0:0:0:0:
154,241,82760,1,8,0:0:0:0:
146,234,82850,1,8,0:0:0:0:
140,226,82941,5,4,0:0:0:0:
140,226,84386,6,0,B|179:225|179:225|256:209,1,93.5000028533936,4|0,0:0|0:0,0:0:0:0:
339,104,84748,1,8,0:0:0:0:
151,86,84929,1,0,0:0:0:0:
151,86,85019,1,8,0:0:0:0:
151,86,85109,2,0,B|180:106|180:106|257:138,1,93.5000028533936,0|2,0:0|0:0,0:0:0:0:
308,27,85471,1,8,0:0:0:0:
376,200,85651,6,0,B|416:157|416:157|441:69|441:69|450:116,1,187.000005706787,4|2,0:0|0:0,0:0:0:0:
339,104,86194,1,8,0:0:0:0:
461,249,86374,2,0,B|424:286|424:286|341:313|341:313|286:359,1,187.000005706787,2|2,0:0|0:0,0:0:0:0:
459,368,86916,1,8,0:0:0:0:
358,225,87097,1,0,0:0:0:0:
358,225,87188,1,8,0:0:0:0:
358,225,87278,6,0,B|313:237|313:237|234:231,1,93.5000028533936,4|0,0:0|0:0,0:0:0:0:
165,90,87639,1,8,0:0:0:0:
72,235,87820,1,0,0:0:0:0:
72,235,87910,1,8,0:0:0:0:
72,235,88001,2,0,B|114:227|114:227|185:184,1,93.5000028533936,0|2,0:0|0:0,0:0:0:0:
265,61,88362,1,8,0:0:0:0:
45,95,88543,6,0,B|85:113|85:113|186:117|186:117|235:146,1,187.000005706787,4|2,0:0|0:0,0:0:0:0:
245,302,89085,1,8,0:0:0:0:
412,171,89266,2,2,B|323:251|323:251|414:248,1,187.000005706787,2|0,0:0|0:0,0:0:0:0:
467,87,89808,2,0,P|408:73|347:92,1,93.5000028533936,2|8,0:0|0:3,0:0:0:0:
209,223,90169,5,4,0:0:0:0:
256,192,90260,12,0,96676,0:0:0:0:
