osu file format v14

[General]
AudioFilename: audio.mp3
AudioLeadIn: 0
PreviewTime: 57373
Countdown: 0
SampleSet: Soft
StackLeniency: 0.5
Mode: 0
LetterboxInBreaks: 0
WidescreenStoryboard: 1

[Editor]
DistanceSpacing: 1
BeatDivisor: 2
GridSize: 8
TimelineZoom: 1

[Metadata]
Title:Cynthia no Hikari
TitleUnicode:シンシアの光
Artist:Eir Aoi
ArtistUnicode:藍井エイル
Creator:Nozaki
Version:Easy
Source:ソードアート・オンライン -ロスト・ソング-
Tags:Sword Art Online Lost Song BEST -E- D'AZUR Hiroki Arai 新井弘毅 sao opening Gaia Mentai SnowNiNo_ missa1912 psvita sony playstation
BeatmapID:1444334
BeatmapSetID:621575

[Difficulty]
HPDrainRate:2
CircleSize:2.7
OverallDifficulty:2
ApproachRate:3
SliderMultiplier:0.899999999999999
SliderTickRate:1

[Events]
//Background and Video events
0,0,"saols.jpg",0,0
Video,1583,"lostop.avi"
//Break Periods
2,12297,16254
//Storyboard Layer 0 (Background)
//Storyboard Layer 1 (Fail)
//Storyboard Layer 2 (Pass)
//Storyboard Layer 3 (Foreground)
//Storyboard Sound Samples

[TimingPoints]
3423,361.44578313253,4,2,1,70,1,0
11736,-100,4,2,3,70,0,0
17880,-100,4,2,11,70,0,0
28362,-100,4,2,1,70,0,0
58362,-100,4,2,1,80,0,1
82941,-100,4,2,1,80,0,0
84386,-100,4,2,3,75,0,0
96676,-100,4,2,0,5,0,0

[Colours]
Combo1 : 232,224,89
Combo2 : 137,223,255
Combo3 : 139,250,139
Combo4 : 255,159,213

[HitObjects]
96,240,3423,6,0,B|174:307|258:249|258:249|306:289|361:263,1,270,2|0,0:0|0:0,0:0:0:0:
427,237,4868,2,0,P|401:201|362:181,1,89.9999999999999,0|2,0:0|0:0,0:0:0:0:
274,163,5591,2,0,P|310:110|336:96,1,89.9999999999999,0|0,0:0|0:0,0:0:0:0:
361,180,6314,6,0,P|249:248|191:133,1,270,2|0,0:0|0:0,0:0:0:0:
227,73,7760,2,0,P|297:60|353:94,2,135,0|2|2,0:0|0:0|0:0,0:0:0:0:
186,154,9206,6,0,P|137:179|91:178,1,89.9999999999999,2|2,0:0|0:0,0:0:0:0:
39,116,9929,2,0,P|78:95|134:94,1,89.9999999999999,2|2,0:0|0:0,0:0:0:0:
186,154,10651,2,0,P|253:190|350:134,1,180,2|2,0:0|0:0,0:0:0:0:
337,58,11736,2,0,P|295:69|259:107,1,89.9999999999999,2|12,1:1|2:0,1:0:0:0:
262,100,17880,6,0,B|305:182|214:191|254:283,1,180,2|0,0:0|0:0,0:0:0:0:
309,339,18965,1,0,0:0:0:0:
395,314,19326,2,0,P|334:253|249:271,1,180,2|0,0:0|0:0,0:0:0:0:
194,342,20410,1,0,0:0:0:0:
129,279,20772,6,0,B|86:191|167:186|126:93,1,180,2|0,0:0|0:0,0:0:0:0:
49,143,21856,1,0,0:0:0:0:
57,53,22218,2,0,P|132:15|212:62,1,180,2|0,0:0|0:0,0:0:0:0:
220,147,23302,1,0,0:0:0:0:
308,129,23663,6,0,P|353:117|420:130,1,89.9999999999999,2|0,0:0|0:0,0:0:0:0:
451,192,24386,2,0,P|440:248|403:293,1,89.9999999999999,0|0,0:0|0:0,0:0:0:0:
334,291,25109,2,0,P|296:245|286:188,1,89.9999999999999,2|0,0:0|0:0,0:0:0:0:
218,159,25832,2,0,P|165:136|102:144,1,89.9999999999999
87,214,26555,6,0,L|108:319,2,89.9999999999999,2|2|2,0:0|0:0|0:0,0:0:0:0:
43,135,27639,1,2,0:0:0:0:
133,135,28001,2,0,P|199:136|244:97,1,89.9999999999999,0|8,0:0|3:2,3:3:0:0:
282,62,28724,2,0,P|348:61|393:100,1,89.9999999999999,8|8,3:2|3:2,3:3:0:0:
424,142,29447,6,0,P|451:105|457:60,2,89.9999999999999,4|8|8,0:0|0:0|0:0,0:0:0:0:
390,223,30531,1,8,0:0:0:0:
331,154,30892,2,0,P|281:151|226:186,1,89.9999999999999,8|8,0:0|0:0,0:0:0:0:
302,238,31615,2,0,L|337:326,1,89.9999999999999,8|8,0:0|0:0,0:0:0:0:
248,335,32338,6,0,B|191:354|147:313|147:313|103:333|56:302,1,180,4|8,0:0|0:0,0:0:0:0:
24,241,33422,1,8,0:0:0:0:
113,231,33784,2,0,P|90:180|46:153,1,89.9999999999999,8|8,0:0|0:0,0:0:0:0:
0,97,34507,2,0,P|41:73|99:78,1,89.9999999999999,8|8,0:0|0:0,0:0:0:0:
161,116,35230,5,4,0:0:0:0:
196,198,35591,2,0,P|250:124|214:44,1,180,8|8,0:0|0:0,0:0:0:0:
131,29,36676,1,4,0:0:0:0:
161,116,37037,2,0,L|202:212,1,89.9999999999999,8|8,0:0|0:0,0:0:0:0:
181,287,37760,1,8,0:0:0:0:
266,258,38121,6,0,B|297:217|281:167|281:167|330:167|383:128,1,180,4|8,0:0|0:0,0:0:0:0:
418,73,39206,1,8,0:0:0:0:
329,58,39567,2,0,B|303:87|254:80|254:80|215:98|215:98|152:73,1,180,8|8,0:0|3:2,0:0:0:0:
79,44,40651,1,8,3:2:0:0:
92,133,41013,6,0,B|100:182|100:182|114:227,1,89.9999999999999,8|8,0:0|0:0,0:0:0:0:
142,305,41736,2,0,P|183:276|196:193,1,135,8|4,3:2|0:0,0:0:0:0:
181,107,42639,2,0,B|232:100|268:138,2,89.9999999999999,2|0|2,0:0|0:0|0:0,0:0:0:0:
111,219,43904,6,0,B|114:261|114:261|128:315,1,89.9999999999999,8|8,0:0|0:0,0:0:0:0:
206,266,44627,2,0,P|265:247|341:273,2,135,8|4|8,0:0|0:0|0:0,0:0:0:0:
230,352,46073,2,0,P|272:368|336:336,1,89.9999999999999,0|0,3:2|3:2,3:3:0:0:
333,267,46796,6,0,B|334:215|297:176|297:176|309:132|309:132|309:66,1,180,4|8,0:0|0:0,0:0:0:0:
363,26,47880,1,8,0:0:0:0:
399,108,48242,2,0,P|421:141|492:178,1,89.9999999999999,4|8,0:0|0:0,0:0:0:0:
462,259,48965,2,0,P|424:283|399:320,1,89.9999999999999,8|8,0:0|0:0,0:0:0:0:
309,320,49688,6,0,P|237:281|151:323,1,180,4|8,0:0|0:0,0:0:0:0:
86,379,50772,1,8,0:0:0:0:
11,328,51133,2,0,P|18:286|60:230,1,89.9999999999999,4|8,0:0|0:0,0:0:0:0:
128,219,51856,2,0,P|130:175|117:132,1,89.9999999999999,8|8,0:0|0:0,0:0:0:0:
116,39,52579,6,0,B|218:77,1,89.9999999999999,4|8,0:0|0:0,0:0:0:0:
265,132,53302,2,0,L|368:118,1,89.9999999999999,8|8,0:0|0:0,0:0:0:0:
425,175,54025,2,0,B|398:213|347:211|347:211|303:263|239:257,1,180,8|0,0:0|3:0,0:0:0:0:
192,212,55109,1,8,0:0:0:0:
142,136,55471,6,0,P|184:122|229:128,1,89.9999999999999,12|8,0:0|0:0,0:0:0:0:
313,159,56194,2,0,P|381:154|429:89,1,135,8|8,0:0|0:0,0:0:0:0:
339,75,57097,1,8,0:0:0:0:
38,83,58362,6,0,P|125:109|225:70,1,180,4|0,0:0|0:0,0:0:0:0:
267,15,59447,1,8,0:0:0:0:
297,100,59808,2,0,P|347:124|405:115,1,89.9999999999999,4|8,0:0|0:0,0:0:0:0:
456,75,60531,2,0,P|470:126|458:172,1,89.9999999999999,0|8,0:0|0:0,0:0:0:0:
390,215,61254,6,0,B|345:221|299:205|299:205|296:258|263:295,1,180,4|0,0:0|0:0,0:0:0:0:
200,342,62338,1,8,0:0:0:0:
187,252,62700,2,0,P|214:208|199:146,1,89.9999999999999,4|8,0:0|0:0,0:0:0:0:
146,109,63422,2,0,P|89:121|55:158,1,89.9999999999999,0|8,0:0|0:0,0:0:0:0:
41,229,64145,6,0,B|61:251|98:252|98:252|104:324|177:342,1,180,4|0,0:0|0:0,0:0:0:0:
252,315,65230,1,8,0:0:0:0:
187,252,65591,2,0,P|233:228|283:229,1,89.9999999999999,4|8,0:0|0:0,0:0:0:0:
337,286,66314,2,0,P|386:283|426:249,1,89.9999999999999,0|8,0:0|0:0,0:0:0:0:
353,196,67037,5,4,0:0:0:0:
408,125,67398,2,0,P|400:70|352:29,1,89.9999999999999,8|8,0:0|0:0,0:0:0:0:
318,112,68121,1,8,0:0:0:0:
264,184,68483,2,0,P|275:244|364:288,2,135,8|8|2,0:0|0:0|0:0,0:0:0:0:
318,112,69929,6,0,P|230:102|174:185,1,180,4|0,0:0|0:0,0:0:0:0:
264,184,71013,1,8,0:0:0:0:
353,196,71374,2,0,P|405:132|379:46,1,180,4|0,0:0|0:0,0:0:0:0:
288,35,72459,1,8,0:0:0:0:
222,96,72820,6,0,P|157:108|112:88,1,89.9999999999999,4|8,0:0|0:0,0:0:0:0:
95,182,73543,2,0,P|137:232|143:281,1,89.9999999999999,4|8,0:0|0:0,0:0:0:0:
232,250,74266,2,0,P|254:187|293:158,1,89.9999999999999,4|8,0:0|0:0,0:0:0:0:
324,243,74989,1,8,0:0:0:0:
288,325,75350,1,8,0:0:0:0:
198,331,75712,6,0,B|167:321|151:285|151:285|70:290|46:201,1,180,4|0,0:0|0:0,0:0:0:0:
66,144,76796,1,8,0:0:0:0:
141,195,77157,2,0,P|205:174|292:234,1,180,4|0,0:0|0:0,0:0:0:0:
295,324,78242,1,8,0:0:0:0:
376,363,78603,6,0,P|383:319|372:276,1,89.9999999999999,8|8,0:0|0:0,0:0:0:0:
291,233,79326,2,0,P|307:186|377:149,1,89.9999999999999,8|8,0:0|0:0,0:0:0:0:
418,122,80049,2,0,P|380:80|315:77,1,89.9999999999999,8|8,0:0|0:0,0:0:0:0:
266,106,80772,2,0,P|217:118|158:98,1,89.9999999999999,8|8,0:0|0:0,0:0:0:0:
98,69,81495,6,0,P|100:152|185:202,2,180,8|8|4,0:0|0:0|0:0,0:0:0:0:
240,341,84386,6,0,P|282:353|326:343,1,89.9999999999999,4|8,0:0|0:0,0:0:0:0:
387,276,85109,2,0,B|397:227|397:227|388:118,1,135,2|4,0:0|0:0,0:0:0:0:
350,61,86013,1,2,0:0:0:0:
281,119,86374,2,0,P|205:122|132:82,1,135,2|8,0:0|0:0,0:0:0:0:
77,148,87278,6,0,P|79:183|95:242,1,89.9999999999999,4|8,0:0|0:0,0:0:0:0:
170,281,88001,2,0,P|221:269|319:303,1,135,2|4,0:0|0:0,0:0:0:0:
367,347,88904,1,2,0:0:0:0:
406,266,89266,2,0,B|415:218|415:218|405:107,1,135,2|8,0:0|0:0,0:0:0:0:
369,50,90169,1,4,0:0:0:0:
256,192,90350,12,0,96676,0:0:0:0:
