osu file format v14

[General]
AudioFilename: audio.mp3
AudioLeadIn: 0
PreviewTime: -1
Countdown: 0
SampleSet: None
StackLeniency: 0.2
Mode: 0
LetterboxInBreaks: 0
WidescreenStoryboard: 0

[Editor]
DistanceSpacing: 0.8
BeatDivisor: 4
GridSize: 8
TimelineZoom: 2

[Metadata]
Title:Accentier
TitleUnicode:Accentier
Artist:Eir Aoi
ArtistUnicode:Eir Aoi
Creator:Artemis99
Version:Extra
Source:
Tags:
BeatmapID:1676354
BeatmapSetID:798271

[Difficulty]
HPDrainRate:6
CircleSize:4
OverallDifficulty:8.8
ApproachRate:9.4
SliderMultiplier:2
SliderTickRate:1

[Events]
//Background and Video events
0,0,"078978978.png",0,0
//Break Periods
//Storyboard Layer 0 (Background)
//Storyboard Layer 1 (Fail)
//Storyboard Layer 2 (Pass)
//Storyboard Layer 3 (Foreground)
//Storyboard Sound Samples

[TimingPoints]
399,344.827586206897,4,1,0,50,1,0
11433,-125,4,1,0,30,0,0
16950,-111.111111111111,4,1,0,30,0,0
19709,-100,4,1,0,30,0,0
21088,-100,4,1,0,50,0,0
22467,-111.111111111111,4,1,0,50,0,0
33502,-99.9999999999999,4,1,0,50,0,0
44536,-90.9090909090909,4,1,0,50,0,0

[HitObjects]
464,61,399,5,0,0:0:0:0:
326,273,571,1,0,0:0:0:0:
196,93,1778,5,0,0:0:0:0:
444,218,1950,1,0,0:0:0:0:
62,340,3157,5,0,0:0:0:0:
94,106,3330,1,0,0:0:0:0:
312,255,3847,5,0,0:0:0:0:
78,223,4020,1,0,0:0:0:0:
222,36,4364,5,0,0:0:0:0:
182,345,4709,1,0,0:0:0:0:
469,225,5054,2,0,P|426:139|332:114,1,200
182,345,5571,1,0,0:0:0:0:
354,230,5743,1,0,0:0:0:0:
109,207,5916,6,0,P|59:197|13:178,1,100
207,102,6261,2,0,P|256:111|302:130,1,100
109,207,6605,1,0,0:0:0:0:
101,3,6778,1,0,0:0:0:0:
302,130,6950,2,0,L|292:233,1,100
405,315,7295,5,0,0:0:0:0:
155,293,7467,1,0,0:0:0:0:
422,174,7640,2,0,P|428:125|418:76,1,100
222,43,7985,1,0,0:0:0:0:
293,229,8157,1,0,0:0:0:0:
418,76,8330,1,0,0:0:0:0:
302,130,8502,1,0,0:0:0:0:
409,283,8674,5,0,0:0:0:0:
177,175,8847,1,0,0:0:0:0:
304,356,9019,1,0,0:0:0:0:
71,247,9192,2,0,P|51:152|103:69,1,200
177,175,9709,1,0,0:0:0:0:
425,90,9881,6,0,B|345:83|345:83|314:64|314:64|230:56,1,200
250,280,10399,2,0,L|349:288,1,100,0|0,0:3|0:3,0:3:0:0:
230,56,10743,1,0,0:0:0:0:
156,345,10916,1,0,0:0:0:0:
349,288,11088,1,0,0:0:0:0:
71,247,11261,1,0,0:0:0:0:
71,247,11347,1,0,0:0:0:0:
70,247,11433,6,0,P|46:278|32:315,1,80
156,345,11778,1,0,0:0:0:0:
199,223,11950,1,0,0:0:0:0:
114,124,12123,2,0,P|109:85|112:45,1,80
239,21,12467,2,0,P|244:60|241:100,1,80
199,223,12812,6,0,L|286:230,1,80
420,323,13157,2,0,L|332:315,1,80
472,258,13502,2,0,P|496:289|502:328,1,80
340,316,13847,1,0,0:0:0:0:
454,233,14019,1,0,0:0:0:0:
325,175,14192,6,0,P|314:137|316:98,1,80
445,46,14536,2,0,P|456:84|454:123,1,80
316,98,14881,2,0,L|228:90,1,80
116,80,15226,1,0,0:0:0:0:
167,189,15399,1,0,0:0:0:0:
167,189,15485,1,0,0:0:0:0:
167,189,15571,6,0,P|175:227|169:267,1,80
12,380,15916,2,0,P|3:341|9:301,1,80
171,361,16261,1,0,0:0:0:0:
76,233,16433,1,0,0:0:0:0:
257,303,16605,2,0,P|296:309|335:304,1,80
439,111,16950,6,0,L|430:215,1,89.9999972534181
257,303,17295,2,0,B|261:247|261:247|271:231|271:231|276:171,1,134.999995880127
276,171,17640,1,0,0:0:0:0:
76,233,17812,2,0,L|66:336,1,89.9999972534181
257,303,18157,1,0,0:0:0:0:
117,142,18330,6,0,P|73:133|30:144,1,89.9999972534181
170,305,18674,2,0,P|213:313|256:302,1,89.9999972534181
117,142,19019,1,0,0:0:0:0:
68,322,19192,1,0,0:0:0:0:
207,183,19364,2,0,P|215:139|204:96,1,89.9999972534181
8,16,19709,6,0,L|127:26,1,100
304,104,20054,2,0,L|184:93,1,100
407,20,20399,1,0,0:0:0:0:
325,235,20571,1,0,0:0:0:0:
428,151,20743,1,0,0:0:0:0:
346,366,20916,1,0,0:0:0:0:
200,187,21088,5,0,0:0:0:0:
449,282,21261,1,0,0:0:0:0:
222,319,21433,1,0,0:0:0:0:
407,20,21605,1,0,0:0:0:0:
179,56,21950,5,0,0:0:0:0:
346,366,22122,1,0,0:0:0:0:
40,324,22467,6,0,P|24:282|26:237,1,89.9999972534181
179,56,22812,2,0,P|194:97|192:142,1,89.9999972534181
120,265,23157,1,0,0:0:0:0:
98,114,23330,1,0,0:0:0:0:
261,265,23502,2,0,P|306:267|348:252,1,89.9999972534181
416,32,23847,6,0,L|425:143,1,89.9999972534181
438,300,24192,1,0,0:0:0:0:
290,170,24364,1,0,0:0:0:0:
423,121,24536,1,0,0:0:0:0:
305,349,24709,1,0,0:0:0:0:
165,131,24881,2,0,L|158:42,1,89.9999972534181
225,230,25226,6,0,P|183:246|138:244,1,89.9999972534181
282,80,25571,2,0,L|289:169,1,89.9999972534181
305,349,25916,1,0,0:0:0:0:
165,131,26088,1,0,0:0:0:0:
397,234,26261,2,0,P|442:236|484:221,1,89.9999972534181
371,72,26605,6,0,L|282:79,1,89.9999972534181
75,138,26950,2,0,L|164:131,1,89.9999972534181
37,254,27295,1,0,0:0:0:0:
17,30,27467,1,0,0:0:0:0:
164,130,27640,6,0,L|171:219,1,89.9999972534181
211,42,27985,2,0,P|168:30|125:37,1,89.9999972534181
123,306,28330,2,0,P|165:318|209:310,1,89.9999972534181
334,125,28674,1,0,0:0:0:0:
314,349,28846,1,0,0:0:0:0:
424,162,29019,2,0,P|432:118|420:76,1,89.9999972534181
386,252,29364,6,0,P|429:259|472:247,1,89.9999972534181
334,125,29709,2,0,L|245:132,1,89.9999972534181
314,349,30054,1,0,0:0:0:0:
424,162,30226,1,0,0:0:0:0:
209,310,30399,2,0,L|120:317,1,89.9999972534181
244,132,30743,6,0,P|248:87|232:45,1,89.9999972534181
56,70,31088,2,0,P|51:114|67:156,1,89.9999972534181
209,310,31433,1,0,0:0:0:0:
150,101,31605,1,0,0:0:0:0:
27,286,31778,2,0,P|22:330|38:372,1,89.9999972534181
150,101,32123,5,0,0:0:0:0:
119,317,32295,1,0,0:0:0:0:
56,70,32467,1,0,0:0:0:0:
322,236,32640,2,0,P|369:228|299:195,1,179.999994506836
119,317,33157,1,0,0:0:0:0:
150,101,33330,1,0,0:0:0:0:
321,235,33502,6,0,P|395:241|452:195,1,150
366,146,33847,1,0,0:0:0:0:
426,345,34019,1,0,0:0:0:0:
236,285,34192,2,0,P|222:238|234:190,1,100
363,50,34536,2,0,P|377:97|365:145,1,100
236,285,34881,5,0,0:0:0:0:
277,99,35054,1,0,0:0:0:0:
320,334,35226,2,0,P|285:369|238:384,1,100
59,189,35571,1,0,0:0:0:0:
151,337,35743,1,0,0:0:0:0:
168,144,35916,2,0,L|157:24,1,100
277,99,36261,6,0,B|282:162|282:162|268:188|268:188|273:244,1,150
168,144,36605,1,0,0:0:0:0:
392,124,36778,2,0,P|446:133|372:173,1,200
200,50,37295,2,0,P|127:52|76:105,1,150
273,245,37640,5,0,0:0:0:0:
168,144,37812,1,0,0:0:0:0:
134,286,37985,1,0,0:0:0:0:
307,103,38157,1,0,0:0:0:0:
224,335,38330,1,0,0:0:0:0:
200,50,38502,1,0,0:0:0:0:
458,171,38674,1,0,0:0:0:0:
455,195,38760,1,0,0:0:0:0:
453,220,38846,1,0,0:0:0:0:
451,245,38932,1,0,0:0:0:0:
449,269,39019,6,0,P|401:285|349:271,1,100
307,103,39364,1,0,0:0:0:0:
224,335,39536,1,0,0:0:0:0:
224,335,39623,1,0,0:0:0:0:
224,335,39709,1,0,0:0:0:0:
449,269,39881,1,0,0:0:0:0:
215,237,40054,1,0,0:0:0:0:
458,171,40226,1,0,0:0:0:0:
458,171,40312,1,0,0:0:0:0:
458,170,40399,6,0,P|471:123|459:75,1,100
337,302,40743,1,0,0:0:0:0:
202,82,40916,1,0,0:0:0:0:
202,82,41002,1,0,0:0:0:0:
202,82,41088,1,0,0:0:0:0:
337,271,41261,1,0,0:0:0:0:
105,292,41433,2,0,P|51:261|103:226,1,150
232,328,41778,6,0,L|226:391,3,50
337,271,42123,2,0,L|342:207,3,50
199,166,42467,6,0,L|193:229,3,50
304,109,42812,2,0,L|309:45,3,50
154,27,43157,1,0,0:0:0:0:
121,46,43243,1,0,0:0:0:0:
85,53,43329,1,0,0:0:0:0:
48,48,43415,1,0,0:0:0:0:
14,31,43502,2,0,P|26:105|12:179,1,150
12,178,44536,6,0,L|163:191,1,110.000003356934
366,298,44881,2,0,L|214:284,1,110.000003356934
223,133,45226,1,0,0:0:0:0:
155,343,45399,1,0,0:0:0:0:
309,183,45571,2,0,P|322:130|306:78,1,110.000003356934
46,12,45916,6,0,L|197:-1,1,110.000003356934
415,68,46261,2,0,L|263:81,1,110.000003356934
512,231,46605,1,0,0:0:0:0:
491,0,46777,1,0,0:0:0:0:
309,183,46950,2,0,L|318:292,1,110.000003356934
229,92,47295,6,0,P|176:79|124:95,1,110.000003356934
0,370,47640,2,0,P|52:382|104:366,1,110.000003356934
179,179,47985,1,0,0:0:0:0:
50,283,48157,1,0,0:0:0:0:
318,292,48330,2,0,L|427:282,1,110.000003356934
179,179,48674,6,0,B|151:244|178:321|178:321|184:281|214:257,1,220.000006713867
427,282,49192,1,0,0:0:0:0:
297,150,49364,1,0,0:0:0:0:
379,384,49536,1,0,0:0:0:0:
392,121,49709,2,0,P|362:75|313:51,1,110.000003356934
274,246,50054,6,0,P|328:243|374:212,1,110.000003356934
225,82,50399,2,0,P|200:130|203:185,1,110.000003356934
392,121,50743,1,0,0:0:0:0:
152,16,50916,1,0,0:0:0:0:
274,246,51088,2,0,P|286:298|270:350,1,110.000003356934
0,99,51433,6,0,L|109:108,1,110.000003356934
187,296,51778,2,0,L|77:286,1,110.000003356934
0,99,52123,1,0,0:0:0:0:
187,296,52295,1,0,0:0:0:0:
265,36,52467,2,0,P|317:23|369:39,1,110.000003356934
305,232,52812,6,0,L|315:123,1,110.000003356934
478,275,53157,2,0,L|468:384,1,110.000003356934
305,232,53502,1,0,0:0:0:0:
492,110,53674,1,0,0:0:0:0:
356,320,53847,2,0,P|303:332|251:316,1,110.000003356934
110,117,54192,5,0,0:0:0:0:
152,356,54364,1,0,0:0:0:0:
293,77,54536,1,0,0:0:0:0:
251,316,54708,1,0,0:0:0:0:
10,244,54881,5,0,0:0:0:0:
272,197,55053,1,0,0:0:0:0:
39,46,55226,2,0,P|13:94|17:149,1,110.000003356934
360,325,55571,6,0,L|232:313,1,110.000003356934
395,93,55916,2,0,L|504:102,1,110.000003356934
360,325,56261,1,0,0:0:0:0:
285,83,56433,1,0,0:0:0:0:
250,315,56605,1,0,0:0:0:0:
432,214,56778,1,0,0:0:0:0:
156,188,56950,6,0,L|47:179,1,110.000003356934
146,298,57295,1,0,0:0:0:0:
167,79,57467,1,0,0:0:0:0:
47,179,57640,1,0,0:0:0:0:
320,202,57812,1,0,0:0:0:0:
70,100,57985,2,0,P|74:45|106:1,1,110.000003356934
320,202,58330,6,0,P|315:256|284:300,1,110.000003356934
0,360,58674,2,0,L|111:369,1,110.000003356934,0|0,0:3|0:3,0:3:0:0:
167,79,59019,1,0,0:0:0:0:
24,270,59192,1,0,0:0:0:0:
319,202,59364,2,0,P|373:194|425:211,1,110.000003356934
211,247,59709,6,0,P|204:193|221:141,1,110.000003356934
364,310,60054,2,0,L|475:319,1,110.000003356934,0|0,0:3|0:3,0:3:0:0:
398,110,60399,1,0,0:0:0:0:
256,354,60571,1,0,0:0:0:0:
150,71,60743,2,0,P|198:44|252:46,1,110.000003356934
496,75,61088,6,0,P|451:106|397:109,1,110.000003356934
150,71,61433,1,0,0:0:0:0:
495,96,61605,6,0,P|460:137|408:154,1,110.000003356934
159,181,61950,1,0,0:0:0:0:
499,116,62123,6,0,P|475:165|430:195,1,110.000003356934
196,285,62468,1,0,0:0:0:0:
508,134,62640,6,0,P|498:187|462:228,1,110.000003356934
259,375,62985,1,0,0:0:0:0:
324,76,63157,1,0,0:0:0:0:
400,369,63330,1,0,0:0:0:0:
159,181,63502,2,0,L|168:69,1,110.000003356934
461,228,63847,5,0,0:0:0:0:
150,290,64019,1,0,0:0:0:0:
400,369,64192,1,0,0:0:0:0:
167,71,64364,2,0,B|103:73|26:48|26:48|57:77|67:122,1,220.000006713867
66,379,64881,1,0,0:0:0:0:
0,187,65054,1,0,0:0:0:0:
305,287,65226,5,0,0:0:0:0:
357,274,65312,1,0,0:0:0:0:
392,232,65398,1,0,0:0:0:0:
394,178,65484,1,0,0:0:0:0:
365,133,65570,1,0,0:0:0:0:
314,115,65657,1,0,0:0:0:0:
262,131,65743,1,0,0:0:0:0:
230,174,65829,1,0,0:0:0:0:
230,228,65916,6,0,P|238:290|211:348,1,110.000003356934
0,187,66261,1,0,0:0:0:0:
2,159,66347,1,0,0:0:0:0:
4,132,66433,1,0,0:0:0:0:
7,104,66519,1,0,0:0:0:0:
9,77,66605,1,0,0:0:0:0:
