osu file format v14

[General]
AudioFilename: audio.mp3
AudioLeadIn: 0
PreviewTime: 22684
Countdown: 1
SampleSet: Soft
StackLeniency: 0.7
Mode: 0
LetterboxInBreaks: 0
WidescreenStoryboard: 1

[Editor]
Bookmarks: 7486,15866,48252
DistanceSpacing: 1.6
BeatDivisor: 4
GridSize: 4
TimelineZoom: 1

[Metadata]
Title:"Sirius" Weed La Weed Remix
TitleUnicode:"Sirius" Weed La Weed Remix
Artist:Eir Aoi & Snoop Dogg
ArtistUnicode:Eir Aoi & Snoop Dogg
Creator:Yuuki Konno
Version:Normal
Source:
Tags:
BeatmapID:1350701
BeatmapSetID:626082

[Difficulty]
HPDrainRate:3
CircleSize:3.5
OverallDifficulty:3
ApproachRate:5
SliderMultiplier:1
SliderTickRate:1

[Events]
//Background and Video events
Video,0,"Weed la Weed.mp4"
0,0,"weed la weed.jpg",0,0
//Break Periods
//Storyboard Layer 0 (Background)
//Storyboard Layer 1 (Fail)
//Storyboard Layer 2 (Pass)
//Storyboard Layer 3 (Foreground)
//Storyboard Sound Samples

[TimingPoints]
2714,340.909090909091,4,2,0,55,1,0
2714,-133.333333333333,4,2,1,55,0,0
10071,340.909090909091,4,1,0,70,1,0
33252,-133.333333333333,4,2,0,70,0,0
38707,-100,4,2,0,70,0,0
58821,-100,4,2,0,70,0,1
70071,-100,4,2,0,70,0,0
90269,-100,4,2,0,45,0,0
90440,-100,4,2,0,70,0,0
95639,-100,4,2,0,60,0,0
95980,-100,4,2,0,50,0,0
96321,-100,4,2,0,40,0,0
96661,-100,4,2,0,30,0,0
97002,-100,4,2,0,20,0,0
97343,-100,4,2,0,75,0,0

[Colours]
Combo1 : 0,0,64
Combo2 : 0,128,0

[HitObjects]
204,120,2714,6,0,P|256:104|312:120,2,112.500004291535,8|4|0,0:0|0:0|0:0,0:0:0:0:
260,304,4248,2,0,P|276:248|252:192,1,112.500004291535,4|0,0:0|0:0,0:0:0:0:
68,212,5270,2,0,P|108:253|200:248,1,150.000005722046,4|0,0:0|0:0,0:0:0:0:
144,168,6378,2,0,P|128:120|160:52,1,112.500004291535,4|0,0:0|0:0,0:0:0:0:
276,44,7231,1,8,0:0:0:0:
288,56,7401,2,0,P|304:96|256:176,1,131.25000500679,4|0,0:0|0:0,0:0:0:0:
84,164,8424,2,0,P|136:144|196:160,2,112.500004291535,4|4|0,0:0|0:0|0:0,0:0:0:0:
84,164,10071,6,0,P|104:216|160:248,1,100,8|0,0:0|0:0,0:0:0:0:
280,144,10752,2,0,P|224:135|169:167,1,100,8|0,0:0|0:0,0:0:0:0:
240,316,11434,6,0,L|240:252,2,50,8|0|0,0:0|0:0|0:0,0:0:0:0:
160,344,11946,2,0,B|108:320|108:320|80:268,1,100,8|8,0:0|0:0,0:0:0:0:
240,208,12627,2,0,B|292:232|292:232|320:284,1,100,8|8,0:0|0:0,0:0:0:0:
56,208,13309,2,0,L|32:156,2,50,0|8|0,0:0|0:0|0:0,0:0:0:0:
87,282,13821,1,8,0:0:0:0:
240,208,14161,2,0,B|226:167|226:167|179:134,1,100,8|0,0:0|0:0,0:0:0:0:
159,220,14673,2,0,B|138:257|138:257|86:281,1,100,8|8,0:0|0:0,0:0:0:0:
179,134,15355,2,0,B|267:118|267:118|291:62|291:62|355:62|355:62|380:120|380:120|456:136,1,350,8|0,0:0|0:0,0:0:0:0:
440,268,16889,6,0,L|476:212,2,50,8|0|0,0:0|0:0|0:0,0:0:0:0:
380,208,17400,2,0,B|339:195|339:195|285:215,1,100,8|8,0:0|0:0,0:0:0:0:
380,356,18082,2,0,B|420:368|420:368|474:348,1,100,8|8,0:0|0:0,0:0:0:0:
328,264,18764,2,0,B|287:251|287:251|233:271,1,100,8|8,0:0|0:0,0:0:0:0:
236,356,19275,2,0,B|195:369|195:369|141:349,2,100,8|0|8,0:0|0:0|0:0,0:0:0:0:
196,192,20298,6,0,L|176:136,2,50,8|0|0,0:0|0:0|0:0,0:0:0:0:
233,270,20809,2,0,B|301:212|301:212|360:230|360:230|401:181|401:181|372:125|372:125|409:56,1,350,8|0,0:0|0:0,0:0:0:0:
240,32,22343,6,0,P|292:13|353:36,1,100,8|0,0:0|0:0,0:0:0:0:
292,100,22855,1,0,0:0:0:0:
208,112,23025,2,0,L|152:80,2,50,8|0|0,0:0|0:0|0:0,0:0:0:0:
260,180,23536,2,0,B|273:221|273:221|253:275,1,100,8|0,0:0|0:0,0:0:0:0:
168,284,24048,2,0,B|127:271|127:271|73:291,1,100,8|0,0:0|0:0,0:0:0:0:
24,224,24559,2,0,L|52:168,2,50,8|0|0,0:0|0:0|0:0,0:0:0:0:
73,290,25071,2,0,B|104:319|104:319|162:323,1,100,8|0,0:0|0:0,0:0:0:0:
260,180,25752,6,0,L|232:124,2,50,8|0|0,0:0|0:0|0:0,0:0:0:0:
208,248,26264,2,0,B|167:261|167:261|113:241,1,100,8|0,0:0|0:0,0:0:0:0:
64,176,26775,1,0,0:0:0:0:
76,160,26946,2,0,B|117:147|117:147|171:167,1,100,8|0,0:0|0:0,0:0:0:0:
260,180,27457,2,0,B|301:193|301:193|355:173,1,100,8|0,0:0|0:0,0:0:0:0:
486,85,28139,6,0,B|445:72|445:72|391:92,1,100,8|0,0:0|0:0,0:0:0:0:
342,157,28650,1,0,0:0:0:0:
354,173,28821,2,0,B|395:186|395:186|449:166,1,100,8|0,0:0|0:0,0:0:0:0:
391,91,29332,2,0,L|343:59,1,50
272,100,29673,2,0,B|231:113|231:113|177:93,1,100,8|0,0:0|0:0,0:0:0:0:
104,136,30184,2,0,B|63:123|63:123|9:143,2,100,8|0|8,0:0|0:0|0:0,0:0:0:0:
260,204,31207,6,0,L|308:172,2,50,8|0|0,0:0|0:0|0:0,0:0:0:0:
316,268,31718,6,0,B|347:297|347:297|405:301,1,100,8|0,0:0|0:0,0:0:0:0:
476,263,32229,1,0,0:0:0:0:
472,244,32400,2,0,B|440:214|440:214|382:210,1,100,8|0,0:0|0:0,0:0:0:0:
404,302,32911,2,0,L|433:351,2,50,8|0|0,0:0|0:0|0:0,0:0:0:0:
316,268,33423,6,0,B|284:238|284:238|240:236,1,75.0000028610231,2|0,0:0|0:0,0:0:0:0:
196,296,33934,2,0,B|155:308|155:308|113:292,1,75.0000028610231,2|0,0:0|0:0,0:0:0:0:
89,221,34446,2,0,B|120:191|120:191|165:189,1,75.0000028610231,2|0,0:0|0:0,0:0:0:0:
234,187,34957,2,0,B|276:190|276:190|313:165,1,75.0000028610231,2|0,0:0|0:0,0:0:0:0:
306,88,35468,2,0,B|274:58|274:58|230:56,1,75.0000028610231,2|0,0:0|0:0,0:0:0:0:
159,57,35980,6,0,B|115:59|115:59|91:80,1,75.0000028610231,2|0,0:0|0:0,0:0:0:0:
47,149,36491,2,0,B|49:192|49:192|70:216,1,75.0000028610231,2|0,0:0|0:0,0:0:0:0:
119,282,37002,2,0,B|162:279|162:279|186:258,1,75.0000028610231,2|0,0:0|0:0,0:0:0:0:
268,232,37514,2,0,B|309:222|309:222|349:242,2,75.0000028610231,2|2|2,0:0|0:0|0:0,0:0:0:0:
250,312,38366,1,2,0:0:0:0:
168,80,38707,6,0,B|223:64|223:64|278:86,1,100,8|0,0:0|0:0,0:0:0:0:
268,232,39389,2,0,B|226:192|226:192|218:133,2,100,8|0|8,0:0|0:0|0:0,0:0:0:0:
320,68,40411,1,0,0:0:0:0:
352,72,40582,2,0,B|345:114|345:114|304:153,1,100,8|0,0:0|0:0,0:0:0:0:
220,150,41093,2,0,B|177:156|177:156|138:197,2,100,8|0|0,0:0|0:0|0:0,0:0:0:0:
316,292,42116,2,0,B|276:333|276:333|234:339,1,100,8|0,0:0|0:0,0:0:0:0:
138,197,42798,1,8,0:0:0:0:
244,144,43139,6,0,L|296:120,2,50,8|0|0,0:0|0:0|0:0,0:0:0:0:
192,124,43650,1,0,0:0:0:0:
148,132,43821,2,0,B|106:92|106:92|100:50,2,100,8|0|0,0:0|0:0|0:0,0:0:0:0:
184,256,44843,2,0,B|185:313|185:313|159:347,1,100,8|0,0:0|0:0,0:0:0:0:
0,264,45525,2,0,B|57:265|57:265|91:239,2,100,8|0|8,0:0|0:0|0:0,0:0:0:0:
124,164,46548,6,0,B|168:144|168:144|200:144|200:144|224:132,1,100,8|0,0:0|0:0,0:0:0:0:
232,200,47059,1,0,0:0:0:0:
232,240,47230,2,0,B|188:260|188:260|156:260|156:260|132:272,1,100,8|0,0:0|0:0,0:0:0:0:
76,248,47741,2,0,L|60:220,2,25,2|0|2,0:0|0:0|0:0,0:0:0:0:
164,156,48252,6,0,B|221:157|221:157|255:131,1,100,8|0,0:0|0:0,0:0:0:0:
340,116,48764,2,0,B|341:173|341:173|315:207,1,100
280,280,49275,2,0,L|220:296,1,50
364,276,49786,2,0,L|424:292,2,50
284,140,50639,6,0,B|231:116|231:116|212:78,2,100,8|0|0,0:0|0:0|0:0,0:0:0:0:
358,180,51491,2,0,B|334:232|334:232|296:251,1,100,8|0,0:0|0:0,0:0:0:0:
140,180,52173,2,0,B|163:232|163:232|201:251,1,100,8|0,0:0|0:0,0:0:0:0:
224,168,52684,2,0,B|203:114|203:114|216:73,2,100,8|0|0,0:0|0:0|0:0,0:0:0:0:
188,347,53707,2,0,B|175:306|175:306|267:269|267:269|155:217|155:217|227:165,1,350,8|0,0:0|0:0,0:0:0:0:
288,112,55071,6,0,B|308:58|308:58|295:17,1,100,8|0,0:0|0:0,0:0:0:0:
212,40,55582,2,0,B|188:92|188:92|150:111,1,100,8|0,0:0|0:0,0:0:0:0:
115,291,56264,2,0,B|102:250|102:250|194:213|194:213|82:161|82:161|154:109,1,350,8|0,0:0|0:0,0:0:0:0:
456,264,58139,6,0,L|464:208,1,50,8|0,0:0|0:0,0:0:0:0:
424,140,58480,1,2,0:0:0:0:
372,304,58821,6,0,L|355:249,1,50,8|0,0:0|0:0,0:0:0:0:
296,196,59161,2,0,P|248:188|200:212,1,100,2|0,0:0|0:0,0:0:0:0:
144,268,59673,1,0,0:0:0:0:
112,236,59843,2,0,P|120:188|96:140,1,100,8|0,0:0|0:0,0:0:0:0:
136,64,60355,1,0,0:0:0:0:
160,80,60525,2,0,L|204:108,2,50,8|0|0,0:0|0:0|0:0,0:0:0:0:
212,12,61036,2,0,P|260:4|308:28,1,100,8|0,0:0|0:0,0:0:0:0:
288,108,61548,6,0,B|314:142|314:142|369:155,1,100,8|0,0:0|0:0,0:0:0:0:
424,288,62230,2,0,B|381:282|381:282|342:241,1,100,8|0,0:0|0:0,0:0:0:0:
260,224,62741,1,0,0:0:0:0:
232,240,62911,6,0,P|184:248|136:224,1,100,8|0,0:0|0:0,0:0:0:0:
196,160,63423,2,0,L|248:124,1,50
308,84,63764,2,0,B|393:67|393:67|449:97,1,150,8|0,0:0|0:0,0:0:0:0:
487,167,64446,1,0,0:0:0:0:
461,182,64616,2,0,L|401:214,1,50
345,242,64957,2,0,L|285:274,2,50
448,96,65639,6,0,L|416:36,1,50
336,52,65980,2,0,B|293:58|293:58|254:99,1,100,8|0,0:0|0:0,0:0:0:0:
202,160,66491,2,0,B|161:176|161:176|107:160,1,100,8|0,0:0|0:0,0:0:0:0:
83,83,67002,2,0,B|109:68|109:68|135:61,1,50
208,70,67343,6,0,B|248:86|248:86|302:70,1,100,8|0,0:0|0:0,0:0:0:0:
382,57,67855,2,0,B|416:83|416:83|429:138,1,100,8|0,0:0|0:0,0:0:0:0:
375,201,68366,2,0,B|349:216|349:216|323:223,1,50
246,224,68707,2,0,B|205:207|205:207|151:223,1,100,8|0,0:0|0:0,0:0:0:0:
76,156,69389,6,0,P|24:180|0:132,1,100
125,45,70071,6,0,L|161:149,1,100,8|0,0:0|0:0,0:0:0:0:
152,224,70582,2,0,L|262:215,1,100
280,136,71093,1,8,0:0:0:0:
312,136,71264,2,0,L|396:208,2,100
102,228,72457,6,0,L|164:222,2,50,8|0|0,0:0|0:0|0:0,0:0:0:0:
196,88,73139,1,8,0:0:0:0:
156,80,73309,2,0,L|68:148,2,100
412,68,74502,6,0,L|324:128,1,100,8|0,0:0|0:0,0:0:0:0:
184,212,75184,1,8,0:0:0:0:
356,212,75525,2,0,B|376:268|376:268|368:312|368:312|332:348|332:348|276:348|276:348|308:296|308:296|280:220,1,350
248,144,76889,6,0,L|152:88,1,100,8|0,0:0|0:0,0:0:0:0:
116,20,77400,2,0,L|8:48,1,100
104,192,78082,2,0,B|84:248|84:248|92:292|92:292|128:328|128:328|184:328|184:328|152:276|152:276|180:200,1,350
276,232,79616,6,0,P|328:200|340:156,4,100,8|0|8|0|0,0:0|0:0|0:0|0:0|0:0,0:0:0:0:
192,212,81150,1,0,0:0:0:0:
152,192,81321,2,0,B|180:140|180:140|216:112,2,100,8|0|8,0:0|0:0|0:0,0:0:0:0:
116,268,82173,1,0,0:0:0:0:
112,308,82343,2,0,L|160:336,2,50,8|0|0,0:0|0:0|0:0,0:0:0:0:
28,284,82855,2,0,B|11:227|11:227|16:182,1,100,8|0,0:0|0:0,0:0:0:0:
100,176,83366,6,0,B|156:192|156:192|201:187,1,100,8|8,0:0|0:0,0:0:0:0:
104,32,84048,2,0,B|131:84|131:84|168:112,1,100,8|8,0:0|0:0,0:0:0:0:
316,28,84730,1,8,0:0:0:0:
224,172,85071,1,8,0:0:0:0:
236,196,85241,6,0,B|318:166|318:166|351:112,1,150,0|8,0:0|0:0,0:0:0:0:
296,49,85923,1,0,0:0:0:0:
212,60,86093,2,0,B|169:66|169:66|130:107,2,100,8|0|0,0:0|0:0|0:0,0:0:0:0:
296,49,86946,1,0,0:0:0:0:
350,112,87116,2,0,L|389:157,1,50
307,190,87457,2,0,L|287:246,1,50
217,193,87798,2,0,L|158:204,1,50
171,114,88139,1,0,0:0:0:0:
191,31,88309,2,0,B|234:37|234:37|273:78,1,100,8|0,0:0|0:0,0:0:0:0:
350,112,88821,5,8,0:0:0:0:
217,193,89161,2,0,B|245:257|245:257|301:285|301:285|369:285|369:285|329:237|329:237|400:175,2,350,8|0|0,0:0|0:0|0:0,0:0:0:0:
256,192,91889,12,0,97343,0:0:0:0:
