osu file format v14

[General]
AudioFilename: audio.mp3
AudioLeadIn: 0
PreviewTime: 22684
Countdown: 1
SampleSet: Normal
StackLeniency: 0.7
Mode: 0
LetterboxInBreaks: 0
WidescreenStoryboard: 1

[Editor]
DistanceSpacing: 0.8
BeatDivisor: 4
GridSize: 4
TimelineZoom: 1

[Metadata]
Title:"Sirius" Weed La Weed Remix
TitleUnicode:"Sirius" Weed La Weed Remix
Artist:Eir Aoi & Snoop Dogg
ArtistUnicode:Eir Aoi & Snoop Dogg
Creator:Yuuki Konno
Version:Hard
Source:
Tags:
BeatmapID:1320859
BeatmapSetID:626082

[Difficulty]
HPDrainRate:4
CircleSize:4
OverallDifficulty:5
ApproachRate:8.5
SliderMultiplier:2
SliderTickRate:1

[Events]
//Background and Video events
Video,0,"Weed la Weed.mp4"
0,0,"weed la weed.jpg",0,0
//Break Periods
//Storyboard Layer 0 (Background)
//Storyboard Layer 1 (Fail)
//Storyboard Layer 2 (Pass)
//Storyboard Layer 3 (Foreground)
//Storyboard Sound Samples

[TimingPoints]
2714,340.909090909091,4,2,0,100,1,0
2714,-133.333333333333,4,2,0,65,0,0
8910,-133.333333333333,4,2,0,5,0,0
9020,-133.333333333333,4,2,0,65,0,0
10071,340.909090909091,4,1,0,45,1,0
14161,-80,4,1,0,45,0,0
15525,-100,4,1,0,45,0,0
15525,-111.111111111111,4,1,0,45,0,0
16889,-100,4,1,0,45,0,0
20809,-125,4,1,0,45,0,0
22684,-100,4,1,0,45,0,0
38707,-90.9090909090909,4,1,0,45,0,0
58821,-90.9090909090909,4,1,0,45,0,1
70071,-90.9090909090909,4,1,0,45,0,0
91889,-153.846153846154,4,1,0,45,0,0
92230,-153.846153846154,4,1,0,5,0,0
97173,-153.846153846154,4,1,0,45,0,0

[Colours]
Combo1 : 0,0,128
Combo2 : 0,128,0

[HitObjects]
188,144,2714,6,0,P|256:112|328:156,1,150.000005722046,4|0,0:0|0:0,0:0:0:0:
253,193,3225,2,0,P|248:274|387:280,1,225.000008583069,4|0,0:0|0:0,0:0:0:0:
436,252,3907,1,8,0:0:0:0:
484,185,4077,1,8,0:0:0:0:
452,108,4248,2,0,P|457:27|306:29,1,262.500010013581,4|0,0:0|0:0,0:0:0:0:
275,93,5015,5,8,0:0:0:0:
216,150,5185,1,8,0:0:0:0:
136,172,5356,2,0,P|63:135|127:12,1,225.000008583069,4|0,0:0|0:0,0:0:0:0:
181,9,6037,5,8,0:0:0:0:
263,12,6208,1,8,0:0:0:0:
337,46,6378,2,0,P|383:138|300:199,1,225.000008583069,4|0,0:0|0:0,0:0:0:0:
164,104,7231,5,8,0:0:0:0:
208,173,7401,2,0,P|213:254|74:260,1,225.000008583069,4|0,0:0|0:0,0:0:0:0:
55,207,8083,1,8,0:0:0:0:
79,128,8253,1,8,0:0:0:0:
164,104,8424,2,0,P|266:115|258:237,1,225.000008583069,4|0,0:0|0:0,0:0:0:0:
208,173,9020,2,0,P|213:254|74:260,1,225.000008583069,4|0,0:0|0:0,0:0:0:0:
216,328,10071,6,0,L|192:272,3,50,8|0|8|0,0:0|0:0|0:0|0:0,0:0:0:0:
292,284,10411,2,0,L|293:223,3,50,8|0|8|0,0:0|0:0|0:0|0:0,0:0:0:0:
204,160,10752,6,0,L|228:216,3,50,8|0|8|0,0:0|0:0|0:0|0:0,0:0:0:0:
128,204,11092,2,0,L|126:264,3,50,8|0|8|0,0:0|0:0|0:0|0:0,0:0:0:0:
120,328,11434,6,0,P|172:344|224:328,1,100
264,267,11775,2,0,P|212:251|160:267,1,100
296,340,12116,1,8,0:0:0:0:
376,296,12286,2,0,P|415:258|428:205,1,100
296,128,12627,2,0,P|308:181|348:218,1,100
384,136,12968,2,0,P|371:82|332:45,1,100
200,122,13309,2,0,P|252:138|304:122,1,100
250,51,13650,1,8,0:0:0:0:
328,204,13821,2,0,B|284:232|284:232|224:244,1,100,8|0,0:0|0:0,0:0:0:0:
104,193,14161,6,0,B|172:165|172:165|200:121,1,125,8|0,0:0|0:0,0:0:0:0:
106,103,14502,1,0,0:0:0:0:
18,151,14673,2,0,B|8:223|8:223|32:270,1,125,8|0,0:0|0:0,0:0:0:0:
120,320,15014,1,0,0:0:0:0:
204,264,15184,2,0,B|213:191|213:191|189:144,1,125,8|0,0:0|0:0,0:0:0:0:
104,193,15525,6,0,P|53:184|15:140,1,100,8|0,0:0|0:0,0:0:0:0:
56,76,15866,2,0,L|148:40,1,89.9999972534181,8|0,0:0|0:0,0:0:0:0:
240,116,16207,2,0,P|256:176|376:164,1,200,8|0,0:0|0:0,0:0:0:0:
313,127,16718,1,8,0:0:0:0:
278,46,16889,6,0,P|228:37|178:66,1,100,8|0,0:0|0:0,0:0:0:0:
204,202,17230,2,0,P|236:163|236:105,1,100,8|0,0:0|0:0,0:0:0:0:
160,136,17571,1,8,0:0:0:0:
120,208,17741,2,0,B|92:260|92:260|44:292,1,100,8|0,0:0|0:0,0:0:0:0:
36,176,18082,6,0,B|60:132|60:132|96:88,1,100,8|0,0:0|0:0,0:0:0:0:
215,53,18423,2,0,B|191:97|191:97|155:141,1,100,8|0,0:0|0:0,0:0:0:0:
91,93,18764,2,0,B|115:49|115:49|151:5,1,100,8|0,0:0|0:0,0:0:0:0:
159,135,19105,1,8,0:0:0:0:
244,184,19275,2,0,B|296:192|296:192|344:184,1,100,8|0,0:0|0:0,0:0:0:0:
272,24,19616,6,0,B|268:68|268:68|296:124,1,100,8|0,0:0|0:0,0:0:0:0:
444,88,19957,2,0,B|407:62|407:62|345:58,1,100,8|0,0:0|0:0,0:0:0:0:
372,144,20298,1,8,0:0:0:0:
461,259,20468,1,0,0:0:0:0:
512,128,20639,1,8,0:0:0:0:
380,232,20809,2,0,B|316:212|248:212|176:236|176:236|224:164|220:88|152:52|152:52|112:92|112:92|140:116|152:148|112:204|112:204|92:252|120:296|152:304|168:304,1,720,8|0,0:0|0:0,0:0:0:0:
224,308,22684,6,0,P|272:292|324:312,1,100,8|0,0:0|0:0,0:0:0:0:
392,344,23025,1,8,0:0:0:0:
464,288,23196,2,0,B|480:236|480:236|464:184,1,100,8|0,0:0|0:0,0:0:0:0:
388,156,23536,6,0,P|364:204|308:220,1,100,8|0,0:0|0:0,0:0:0:0:
312,144,23877,1,8,0:0:0:0:
363,81,24048,2,0,P|426:86|462:122,1,100,8|0,0:0|0:0,0:0:0:0:
466,192,24389,5,8,0:0:0:0:
377,307,24559,1,0,0:0:0:0:
467,330,24730,5,8,0:0:0:0:
378,215,24900,1,0,0:0:0:0:
288,252,25071,2,0,P|240:236|220:184,1,100,8|0,0:0|0:0,0:0:0:0:
253,121,25411,2,0,L|369:73,1,100,8|0,0:0|0:0,0:0:0:0:
467,100,25752,5,8,0:0:0:0:
378,215,25922,1,0,0:0:0:0:
452,179,26093,5,8,0:0:0:0:
288,252,26264,2,0,B|248:284|248:284|192:304,1,100,8|0,0:0|0:0,0:0:0:0:
128,256,26605,1,8,0:0:0:0:
135,176,26775,1,0,0:0:0:0:
188,112,26946,2,0,B|200:62|200:62|194:3,1,100,8|0,0:0|0:0,0:0:0:0:
112,44,27286,1,0,0:0:0:0:
52,116,27457,2,0,B|44:164|44:164|52:224,1,100,8|0,0:0|0:0,0:0:0:0:
128,256,27798,6,0,P|196:216|304:260,1,200,8|8,0:0|0:0,0:0:0:0:
214,307,28309,2,0,B|166:343|166:343|110:355,1,100
36,312,28650,1,8,0:0:0:0:
40,224,28821,2,0,B|77:176|77:176|128:150,1,100,8|0,0:0|0:0,0:0:0:0:
200,164,29161,1,8,0:0:0:0:
264,232,29332,2,0,P|320:264|440:196,2,200,8|8|0,0:0|0:0|0:0,0:0:0:0:
200,164,30184,2,0,P|200:92|224:68,1,100,8|0,0:0|0:0,0:0:0:0:
269,131,30525,6,0,B|312:164|312:164|372:176,1,100,8|0,0:0|0:0,0:0:0:0:
428,40,30866,2,0,B|377:60|377:60|337:106,1,100,8|0,0:0|0:0,0:0:0:0:
424,132,31207,1,0,0:0:0:0:
484,196,31377,1,8,0:0:0:0:
252,224,31718,6,0,P|304:272|404:208,1,200,8|0,0:0|0:0,0:0:0:0:
324,112,32230,1,0,0:0:0:0:
325,197,32400,2,0,B|345:245|345:245|345:297,1,100,8|0,0:0|0:0,0:0:0:0:
244,140,32741,1,0,0:0:0:0:
252,224,32911,2,0,B|272:272|272:272|272:324,1,100,8|0,0:0|0:0,0:0:0:0:
176,191,33252,5,8,0:0:0:0:
252,224,33423,2,0,B|304:212|304:212|356:228,2,100,8|0|8,0:0|0:0|0:0,0:0:0:0:
98,218,33934,2,0,B|61:257|61:257|49:310,2,100,8|0|8,0:0|0:0|0:0,0:0:0:0:
244,140,34446,2,0,B|296:128|296:128|336:92,2,100,8|0|8,0:0|0:0|0:0,0:0:0:0:
98,218,34957,2,0,B|55:185|55:185|34:135,2,100,8|0|8,0:0|0:0|0:0,0:0:0:0:
96,67,35468,2,0,B|148:54|148:54|200:70,2,100,8|0|8,0:0|0:0|0:0,0:0:0:0:
244,140,35980,6,0,B|197:169|197:169|172:217,2,100,8|0|8,0:0|0:0|0:0,0:0:0:0:
399,101,36491,6,0,B|445:72|445:72|470:24,2,100,8|0|8,0:0|0:0|0:0,0:0:0:0:
296,196,37002,6,0,B|249:225|249:225|224:273,2,100,8|0|8,0:0|0:0|0:0,0:0:0:0:
447,277,37514,2,0,B|479:233|479:233|483:181,1,100,8|8,0:0|0:0,0:0:0:0:
380,208,37855,2,0,P|312:276|212:216,1,200,8|8,0:0|0:0,0:0:0:0:
184,160,38366,2,0,B|232:140|232:140|268:96,1,100,8|0,0:0|0:0,0:0:0:0:
177,82,38707,6,0,P|113:126|105:166,1,110.000003356934
225,237,39048,1,8,0:0:0:0:
271,162,39218,1,0,0:0:0:0:
138,235,39389,1,8,0:0:0:0:
179,312,39559,1,8,0:0:0:0:
184,160,39730,1,8,0:0:0:0:
105,153,39900,1,8,0:0:0:0:
271,162,40071,6,0,P|313:225|299:283,1,110.000003356934,8|0,0:0|0:0,0:0:0:0:
272,341,40411,1,0,0:0:0:0:
179,312,40582,1,0,0:0:0:0:
86,341,40752,2,0,P|45:269|64:213,1,110.000003356934,8|0,0:0|0:0,0:0:0:0:
115,184,41093,1,8,0:0:0:0:
33,154,41264,1,0,0:0:0:0:
24,72,41434,6,0,B|71:40|71:40|125:42,1,110.000003356934,8|0,3:0|0:0,0:0:0:0:
173,107,41775,1,8,0:0:0:0:
229,173,41946,1,0,0:0:0:0:
255,93,42116,1,8,0:0:0:0:
196,28,42286,1,0,0:0:0:0:
313,166,42457,2,0,B|365:180|365:180|425:167,1,110.000003356934,8|0,0:0|0:0,0:0:0:0:
342,83,42798,2,0,P|311:23|258:0,1,110.000003356934,8|0,0:0|0:0,0:0:0:0:
200,32,43139,5,8,0:0:0:0:
132,88,43309,1,0,0:0:0:0:
200,32,43480,1,8,0:0:0:0:
132,88,43650,1,0,0:0:0:0:
212,116,43821,2,0,B|231:165|231:165|277:202,1,110.000003356934,8|0,0:0|0:0,0:0:0:0:
298,117,44161,6,0,B|338:73|338:73|383:50,2,110.000003356934
275,201,44673,5,0,0:0:0:0:
288,284,44843,1,8,0:0:0:0:
355,229,45014,1,0,0:0:0:0:
206,255,45184,2,0,B|152:234|152:234|108:190,1,110.000003356934,8|0,0:0|0:0,0:0:0:0:
156,36,45525,5,8,0:0:0:0:
30,143,45696,1,8,0:0:0:0:
195,129,45866,1,8,0:0:0:0:
53,42,46036,1,8,0:0:0:0:
115,197,46207,2,0,B|152:234|152:234|205:254,1,110.000003356934,8|0,0:0|0:0,0:0:0:0:
281,265,46548,6,0,B|337:239|337:239|373:187,1,110.000003356934
282,187,46889,2,0,P|218:221|205:264,1,110.000003356934
226,320,47230,6,0,B|284:341|284:341|346:330,1,110.000003356934
281,265,47571,2,0,P|211:244|172:265,1,110.000003356934
104,128,48252,6,0,P|148:160|272:84,1,220.000006713867,8|0,0:0|0:0,0:0:0:0:
180,84,48764,2,0,P|132:48|72:48,1,110.000003356934,8|0,0:0|0:0,0:0:0:0:
24,104,49105,1,0,0:0:0:0:
44,184,49275,2,0,P|60:236|32:292,2,110.000003356934,8|0|0,0:0|0:0|0:0,0:0:0:0:
104,128,49786,1,0,0:0:0:0:
188,164,49957,1,8,0:0:0:0:
276,196,50127,2,0,P|336:200|380:168,1,110.000003356934,8|0,0:0|0:0,0:0:0:0:
176,80,50639,6,0,P|112:124|104:168,1,110.000003356934,8|0,0:0|0:0,0:0:0:0:
136,228,50980,2,0,P|212:244|240:104,1,220.000006713867,8|0,0:0|0:0,0:0:0:0:
176,80,51491,2,0,B|132:112|132:112|48:120,1,110.000003356934,8|0,0:0|0:0,0:0:0:0:
116,27,51832,2,0,P|164:3|228:19,1,110.000003356934,8|0,0:0|0:0,0:0:0:0:
264,80,52173,2,0,P|292:128|440:76,1,220.000006713867,8|0,0:0|0:0,0:0:0:0:
352,64,52684,6,0,L|320:180,1,110.000003356934,8|0,0:0|0:0,0:0:0:0:
208,248,53025,2,0,B|224:196|224:196|260:128,1,110.000003356934
192,52,53366,2,0,B|184:104|184:104|136:152,1,110.000003356934,8|0,0:0|0:0,0:0:0:0:
20,220,53707,2,0,P|32:168|84:132,1,110.000003356934
99,214,54048,5,8,0:0:0:0:
152,284,54218,1,8,0:0:0:0:
65,295,54389,1,0,0:0:0:0:
183,202,54559,2,0,P|239:182|263:130,1,110.000003356934
176,119,54900,1,0,0:0:0:0:
96,104,55071,6,0,B|52:56|52:56|44:8,1,110.000003356934,8|0,0:0|0:0,0:0:0:0:
163,39,55411,1,8,0:0:0:0:
176,119,55582,2,0,B|200:168|200:168|248:204,1,110.000003356934,8|0,0:0|0:0,0:0:0:0:
250,93,55923,2,0,P|206:45|158:41,1,110.000003356934,8|0,0:0|0:0,0:0:0:0:
96,104,56264,2,0,P|145:197|250:144,1,220.000006713867,8|0,0:0|0:0,0:0:0:0:
263,67,56775,6,0,B|203:79|203:79|175:119,2,110.000003356934,8|8|8,0:0|0:0|0:0,0:0:0:0:
328,138,57286,1,0,0:0:0:0:
399,209,57457,2,0,B|459:197|459:197|487:157,2,110.000003356934,8|8|8,0:0|0:0|0:0,0:0:0:0:
313,246,57968,1,0,0:0:0:0:
224,220,58139,6,0,P|168:196|116:220,1,110.000003356934,8|0,0:0|0:0,0:0:0:0:
168,276,58480,1,8,0:0:0:0:
248,300,58650,1,0,0:0:0:0:
292,172,58821,6,0,P|336:128|384:128,1,110.000003356934,8|0,0:0|0:0,0:0:0:0:
388,304,59161,2,0,B|388:236|388:236|356:192,1,110.000003356934,8|0,0:0|0:0,0:0:0:0:
224,220,59502,1,0,0:0:0:0:
248,300,59673,1,0,0:0:0:0:
306,369,59843,2,0,B|367:340|367:340|393:292,1,110.000003356934,8|0,2:0|0:0,0:0:0:0:
388,188,60184,5,8,0:0:0:0:
344,116,60355,1,0,0:0:0:0:
264,78,60525,2,0,B|212:98|212:98|188:148,1,110.000003356934,0|0,2:0|0:0,0:0:0:0:
337,29,60866,1,8,0:0:0:0:
271,160,61036,2,0,P|335:200|427:108,1,220.000006713867,8|0,0:0|0:0,0:0:0:0:
344,116,61548,6,0,B|364:168|364:168|356:256,1,110.000003356934,8|0,0:0|0:0,0:0:0:0:
178,195,61889,2,8,P|217:158|270:159,1,110.000003356934,0|0,0:0|0:0,0:0:0:0:
257,329,62230,2,0,B|237:277|237:277|245:189,1,110.000003356934
423,250,62571,2,0,P|384:287|331:286,1,110.000003356934
324,198,62911,1,8,0:0:0:0:
400,153,63082,1,0,0:0:0:0:
469,99,63252,6,0,B|497:47|497:47|481:-5,1,110.000003356934,8|0,0:0|0:0,0:0:0:0:
399,41,63593,1,0,0:0:0:0:
340,100,63764,2,0,P|288:124|240:104,2,110.000003356934
399,41,64275,5,0,0:0:0:0:
469,99,64446,1,0,0:0:0:0:
400,153,64616,2,0,B|372:205|372:205|388:257,1,110.000003356934,8|0,0:0|0:0,0:0:0:0:
399,341,64957,5,0,0:0:0:0:
471,290,65128,1,0,0:0:0:0:
386,253,65298,2,0,B|334:225|334:225|282:241,1,110.000003356934,8|0,0:0|0:0,0:0:0:0:
399,341,65639,5,0,0:0:0:0:
471,290,65809,1,0,0:0:0:0:
459,202,65980,2,0,B|431:150|431:150|447:98,1,110.000003356934,8|0,0:0|0:0,0:0:0:0:
393,39,66321,1,8,0:0:0:0:
313,10,66491,2,0,P|249:22|225:66,1,110.000003356934,8|0,0:0|0:0,0:0:0:0:
248,140,66832,5,0,0:0:0:0:
280,216,67002,2,0,P|296:268|252:316,1,110.000003356934,8|0,0:0|0:0,0:0:0:0:
184,304,67343,1,8,0:0:0:0:
128,244,67514,1,0,0:0:0:0:
145,164,67684,2,0,P|205:136|261:144,1,110.000003356934,8|0,0:0|0:0,0:0:0:0:
328,160,68025,6,0,B|376:120|376:120|396:64,1,110.000003356934,8|0,0:0|0:0,0:0:0:0:
304,68,68366,1,8,0:0:0:0:
224,64,68536,1,0,0:0:0:0:
152,104,68707,2,0,B|132:160|132:160|152:216,1,110.000003356934,8|0,0:0|0:0,0:0:0:0:
224,164,69048,1,8,0:0:0:0:
312,152,69218,1,8,0:0:0:0:
400,184,69389,6,0,P|448:232|408:316,1,165.000005035401,8|0,0:0|0:0,0:0:0:0:
384,320,69730,2,0,B|352:272|352:272|292:248,1,110.000003356934
216,260,70071,6,0,B|156:252|156:252|112:212,1,110.000003356934,2|0,0:0|0:0,0:0:0:0:
76,148,70411,1,0,0:0:0:0:
112,72,70582,2,0,B|148:24|148:24|205:5,1,110.000003356934,2|0,0:0|0:0,0:0:0:0:
244,80,70923,1,2,0:0:0:0:
288,152,71093,1,0,0:0:0:0:
247,226,71264,6,0,B|270:281|270:281|257:340,1,110.000003356934,2|0,0:0|0:0,0:0:0:0:
174,333,71605,2,0,B|114:324|114:324|70:285,1,110.000003356934,2|0,0:0|0:0,0:0:0:0:
116,218,71946,2,0,B|152:170|152:170|209:151,1,110.000003356934,2|0,0:0|0:0,0:0:0:0:
370,150,72457,5,2,0:0:0:0:
285,152,72627,1,0,0:0:0:0:
200,154,72798,2,0,B|152:170|152:170|116:218,1,110.000003356934,2|0,0:0|0:0,0:0:0:0:
175,262,73139,1,0,0:0:0:0:
245,288,73309,6,0,B|281:321|281:321|341:329,1,110.000003356934,2|0,0:0|0:0,0:0:0:0:
324,244,73650,2,0,B|287:210|287:210|227:202,1,110.000003356934,2|0,0:0|0:0,0:0:0:0:
175,262,73991,2,0,B|164:310|164:310|187:366,1,110.000003356934,2|0,0:0|0:0,0:0:0:0:
227,202,74502,6,0,B|263:235|263:235|323:243,1,110.000003356934,2|0,0:0|0:0,0:0:0:0:
306,158,74843,2,0,B|269:124|269:124|209:116,1,110.000003356934,2|0,0:0|0:0,0:0:0:0:
150,176,75184,2,0,B|139:224|139:224|162:280,1,110.000003356934,2|0,0:0|0:0,0:0:0:0:
306,158,75525,2,0,B|341:120|341:120|394:114|394:114|441:142|441:142|461:192|461:192|447:244|447:244|404:277|404:277|350:277|350:277|306:242|306:242|271:200|271:200|219:185|219:185|168:203|168:203|126:254,1,660.000020141602
40,236,76718,5,2,0:0:0:0:
80,161,76889,2,0,B|116:113|116:113|173:95,1,110.000003356934,2|0,0:0|0:0,0:0:0:0:
243,119,77230,1,0,0:0:0:0:
283,216,77400,2,0,B|223:208|223:208|178:168,1,110.000003356934,2|0,0:0|0:0,0:0:0:0:
243,119,77741,2,0,B|278:70|278:70|336:51,1,110.000003356934,2|0,0:0|0:0,0:0:0:0:
345,146,78082,2,0,B|368:200|368:200|355:260,1,110.000003356934,2|0,0:0|0:0,0:0:0:0:
179,266,78423,6,0,B|119:258|119:258|75:217,1,110.000003356934
155,181,78764,2,0,B|214:188|214:188|258:229,1,110.000003356934
254,308,79105,1,0,0:0:0:0:
174,338,79275,2,8,P|129:367|77:357,1,110.000003356934,8|0,0:0|0:0,0:0:0:0:
100,187,79616,2,0,P|120:315|120:315,1,110.000003356934,8|0,0:0|0:0,0:0:0:0:
197,267,79957,2,0,P|176:138|176:138,1,110.000003356934,8|0,0:0|0:0,0:0:0:0:
96,137,80298,2,0,P|116:265|116:265,1,110.000003356934,8|0,0:0|0:0,0:0:0:0:
193,217,80639,2,0,P|172:88|172:88,1,110.000003356934,8|0,0:0|0:0,0:0:0:0:
131,41,80980,5,8,0:0:0:0:
49,64,81150,1,0,0:0:0:0:
96,137,81321,2,8,P|141:166|193:156,1,110.000003356934,8|0,0:0|0:0,0:0:0:0:
293,106,81661,5,8,0:0:0:0:
232,46,81831,1,0,0:0:0:0:
206,132,82002,2,8,P|203:185|238:225,1,110.000003356934,8|0,0:0|0:0,0:0:0:0:
315,275,82343,5,8,0:0:0:0:
321,190,82513,1,0,0:0:0:0:
293,106,82684,1,8,0:0:0:0:
232,46,82855,2,8,P|178:38|136:69,1,110.000003356934,8|0,0:0|0:0,0:0:0:0:
172,145,83196,1,0,0:0:0:0:
244,188,83366,6,0,P|288:160|292:104,1,110.000003356934,8|0,0:0|0:0,0:0:0:0:
136,72,83707,2,0,L|240:128,1,110.000003356934,8|0,0:0|0:0,0:0:0:0:
92,142,84048,2,0,P|67:188|92:238,1,110.000003356934,8|0,0:0|0:0,0:0:0:0:
244,188,84389,2,0,L|125:191,1,110.000003356934,8|0,0:0|0:0,0:0:0:0:
171,265,84730,5,8,0:0:0:0:
241,312,84900,1,0,0:0:0:0:
304,255,85071,2,0,P|331:203|315:139,1,110.000003356934,8|0,0:0|0:0,0:0:0:0:
254,107,85411,1,8,0:0:0:0:
178,144,85582,2,0,P|124:167|62:145,1,110.000003356934,8|0,0:0|0:0,0:0:0:0:
120,84,85923,1,0,0:0:0:0:
167,14,86093,6,0,P|220:37|282:15,1,110.000003356934,8|0,0:0|0:0,0:0:0:0:
306,100,86434,2,0,P|259:134|246:199,1,110.000003356934,8|0,0:0|0:0,0:0:0:0:
178,144,86775,2,0,P|71:196|71:196,1,110.000003356934,8|0,0:0|0:0,0:0:0:0:
149,239,87116,2,0,P|183:285|248:298,1,110.000003356934,8|0,0:0|0:0,0:0:0:0:
278,230,87457,1,8,0:0:0:0:
325,160,87627,1,0,0:0:0:0:
286,83,87798,2,0,P|237:50|172:61,1,110.000003356934,8|0,0:0|0:0,0:0:0:0:
139,123,88139,1,8,0:0:0:0:
184,200,88309,2,0,P|240:248|324:156,2,220.000006713867,8|0|0,0:0|0:0|0:0,0:0:0:0:
139,123,89161,6,0,P|96:76|108:232,1,440.000013427735
164,284,90014,1,8,0:0:0:0:
234,331,90184,1,0,0:0:0:0:
309,293,90355,2,0,P|363:211|196:112,1,330.000010070801,8|0,0:0|0:0,0:0:0:0:
164,173,91036,2,0,P|135:251|251:311,1,220.000006713867,8|0,0:0|0:0,0:0:0:0:
280,256,91548,2,0,P|284:208|240:168,1,110.000003356934,8|0,0:0|0:0,0:0:0:0:
200,244,91889,6,0,B|232:164|312:156|360:200|360:256|344:292|344:292|396:272|452:300|476:344|476:344|468:272|504:220|504:220|456:200|416:172|416:120|416:120|472:104|492:12|492:12|416:40|416:40|368:24|308:8|232:40|232:40|184:60|108:64|52:12|52:12|32:64|80:132|200:116|200:116|128:176|72:292|72:292|124:296|160:352|160:352|180:320|232:316|232:316|284:360|336:364|336:364,1,2014.99990776062,8|0,0:0|0:0,0:0:0:0:
348,364,97258,1,0,0:0:0:0:
380,368,97343,1,8,0:0:0:0:
