osu file format v14

[General]
AudioFilename: audio.mp3
AudioLeadIn: 0
PreviewTime: 22684
Countdown: 1
SampleSet: Normal
StackLeniency: 0.2
Mode: 0
LetterboxInBreaks: 0
WidescreenStoryboard: 1

[Editor]
Bookmarks: 7486,15866
DistanceSpacing: 1.7
BeatDivisor: 4
GridSize: 4
TimelineZoom: 1

[Metadata]
Title:"Sirius" Weed La Weed Remix
TitleUnicode:"Sirius" Weed La Weed Remix
Artist:Eir Aoi & Snoop Dogg
ArtistUnicode:Eir Aoi & Snoop Dogg
Creator:Yuuki Konno
Version:Advanced
Source:
Tags:
BeatmapID:1328325
BeatmapSetID:626082

[Difficulty]
HPDrainRate:3
CircleSize:4
OverallDifficulty:4
ApproachRate:6
SliderMultiplier:1
SliderTickRate:1

[Events]
//Background and Video events
Video,0,"Weed la Weed.mp4"
0,0,"weed la weed.jpg",0,0
//Break Periods
//Storyboard Layer 0 (Background)
//Storyboard Layer 1 (Fail)
//Storyboard Layer 2 (Pass)
//Storyboard Layer 3 (Foreground)
//Storyboard Sound Samples

[TimingPoints]
2714,340.909090909091,4,2,0,55,1,0
2714,-133.333333333333,4,2,1,55,0,0
10071,340.909090909091,4,1,0,70,1,0
33252,-133.333333333333,4,1,0,75,0,0
38707,-100,4,1,0,70,0,0
58821,-100,4,1,0,70,0,1
70071,-100,4,1,0,70,0,0

[Colours]
Combo1 : 0,0,64
Combo2 : 0,128,0

[HitObjects]
200,132,2714,6,0,P|244:124|284:136,1,75.000002861023,4|0,0:0|0:0,0:0:0:0:
236,204,3225,2,0,P|184:212|128:100,1,187.500007152558,4|0,0:0|0:0,0:0:0:0:
172,40,4248,2,0,B|208:56|208:56|328:48,1,150.000005722046,4|0,0:0|0:0,0:0:0:0:
304,164,5356,6,0,P|356:156|412:268,1,187.500007152558,4|0,0:0|0:0,0:0:0:0:
368,328,6378,2,0,B|332:312|332:312|212:320,1,150.000005722046,4|0,0:0|0:0,0:0:0:0:
344,232,7401,2,0,P|292:240|236:128,1,187.500007152558,4|0,0:0|0:0,0:0:0:0:
280,68,8424,2,0,B|316:84|316:84|400:80,2,112.500004291535,4|0|0,0:0|0:0|0:0,0:0:0:0:
280,68,10071,6,0,P|216:100|184:88,1,100,8|0,0:0|0:0,0:0:0:0:
356,144,10752,2,0,P|420:176|452:164,1,100,8|0,0:0|0:0,0:0:0:0:
284,228,11434,2,0,B|240:256|240:256|180:256,2,100,8|0|0,0:0|0:0|0:0,0:0:0:0:
232,168,12286,2,0,P|192:136|196:80,1,100,8|0,0:0|0:0,0:0:0:0:
340,4,12968,2,0,B|388:12|388:12|440:48,1,100,8|0,0:0|0:0,0:0:0:0:
468,128,13650,5,8,2:0:0:0:
432,156,13821,2,0,P|384:140|337:156,1,100,8|0,0:0|0:0,0:0:0:0:
384,216,14332,2,0,B|360:256|360:256|312:292,1,100,0|8,0:0|0:0,0:0:0:0:
276,216,14843,2,0,P|264:180|200:164,1,100,8|0,0:0|0:0,0:0:0:0:
28,180,15525,6,0,B|74:188|74:188|130:178,1,100,2|0,0:0|0:0,0:0:0:0:
204,16,16207,2,0,B|173:51|173:51|153:105,1,100,8|0,0:0|0:0,0:0:0:0:
320,68,16889,6,0,B|260:62,1,50,2|0,0:0|0:0,0:0:0:0:
260,156,17230,2,0,B|200:156,1,50,8|0,0:0|0:0,0:0:0:0:
128,180,17571,2,0,P|107:226|119:274,1,100,8|0,2:0|2:0,2:0:0:0:
192,232,18082,2,0,B|248:241|248:241|287:269,1,100,8|0,0:0|0:0,0:0:0:0:
60,140,18764,2,0,B|39:86|39:86|44:38,1,100,8|0,0:0|0:0,0:0:0:0:
124,80,19275,1,8,0:0:0:0:
264,56,19616,6,0,B|216:24|216:24|168:20,2,100,8|0|0,0:0|0:0|0:0,0:0:0:0:
284,140,20468,2,0,L|328:176,1,50,0|8,0:0|0:0,0:0:0:0:
216,196,20809,2,0,B|200:252|232:296|288:304|324:280|324:280|364:312|412:324|472:308|468:256|468:256|468:256|468:256,1,350,8|0,0:0|0:0,0:0:0:0:
500,124,22343,6,0,B|444:123|444:123|393:148,1,100
348,208,22855,1,8,0:0:0:0:
265,188,23025,2,0,L|209:196,2,50
320,124,23536,6,0,P|312:72|268:44,1,100,8|0,0:0|0:0,0:0:0:0:
204,92,24048,2,0,B|176:116|176:116|96:120,1,100,8|0,0:0|0:0,0:0:0:0:
32,144,24559,1,8,0:0:0:0:
96,204,24730,2,0,L|136:236,1,50
68,284,25071,6,0,B|108:320|108:320|168:328,2,100,8|8|0,0:0|0:0|0:0,0:0:0:0:
96,204,25923,2,0,L|144:184,1,50
180,108,26264,6,0,P|222:76|273:88,1,100,8|0,0:0|0:0,0:0:0:0:
332,136,26775,1,8,0:0:0:0:
296,212,26946,2,0,P|253:180|202:192,1,100
144,240,27457,1,8,0:0:0:0:
180,108,27798,6,0,B|228:104|228:104|288:72,2,100,8|0|0,0:0|0:0|0:0,0:0:0:0:
100,140,28650,1,8,0:0:0:0:
60,216,28821,2,0,P|56:264|88:312,1,100
168,316,29332,2,0,L|192:272,1,50,8|0,0:0|0:0,0:0:0:0:
248,336,29673,2,0,P|296:340|344:308,1,100,8|0,0:0|0:0,0:0:0:0:
276,260,30184,2,0,P|303:220|299:162,1,100,8|0,0:0|0:0,0:0:0:0:
132,152,30866,6,0,B|180:184|180:184|240:196,1,100,8|0,0:0|0:0,0:0:0:0:
302,170,31377,2,0,L|362:162,1,50
268,88,31718,2,0,P|276:40|319:2,1,100,8|0,0:0|0:0,0:0:0:0:
348,84,32230,2,0,P|393:67|447:86,1,100,0|8,2:0|2:0,2:0:0:0:
396,152,32741,2,0,L|396:208,2,50
441,81,33252,6,0,L|441:41,1,37.5000014305115,2|0,0:0|0:0,0:0:0:0:
348,84,33593,2,0,L|327:49,1,37.5000014305115,2|0,0:0|0:0,0:0:0:0:
268,108,33934,2,0,L|232:84,2,37.5000014305115,2|0|0,0:0|0:0|0:0,0:0:0:0:
204,168,34446,2,0,L|160:165,2,37.5000014305115,2|0|0,0:0|0:0|0:0,0:0:0:0:
192,252,34957,2,0,L|153:271,2,37.5000014305115,2|0|0,0:0|0:0|0:0,0:0:0:0:
236,328,35468,2,0,L|212:364,2,37.5000014305115,2|0|0,0:0|0:0|0:0,0:0:0:0:
324,332,35980,6,0,L|343:293,2,37.5000014305115,2|0|0,0:0|0:0|0:0,0:0:0:0:
272,256,36491,2,0,L|308:231,2,37.5000014305115,2|0|0,0:0|0:0|0:0,0:0:0:0:
232,168,37002,2,0,L|275:165,2,37.5000014305115,2|0|0,0:0|0:0|0:0,0:0:0:0:
244,72,37514,2,0,L|282:91,1,37.5000014305115,2|0,0:0|0:0,0:0:0:0:
304,16,37855,2,0,B|340:32|340:32|384:36|384:36|384:36,1,75.0000028610231,2|0,0:0|0:0,0:0:0:0:
352,108,38366,2,0,B|364:128|364:128|368:148,1,37.5000014305115,2|0,0:0|0:0,0:0:0:0:
312,208,38707,6,0,P|266:225|212:206,2,100,8|0|0,0:0|0:0|0:0,0:0:0:0:
280,135,39559,1,8,0:0:0:0:
204,124,39730,2,0,B|180:144|180:144|160:168,1,50
140,240,40071,6,0,P|119:284|68:309,1,100,8|8,0:0|0:0,0:0:0:0:
24,240,40582,1,0,0:0:0:0:
48,160,40752,2,0,P|92:139|117:88,1,100,8|0,0:0|0:0,0:0:0:0:
232,228,41434,6,0,P|256:270|300:291,1,100,8|0,0:0|0:0,0:0:0:0:
328,208,41946,1,0,0:0:0:0:
271,145,42117,2,0,B|239:142|239:142|208:145,1,50
144,182,42458,6,0,P|98:199|44:180,2,100,8|0|0,0:0|0:0|0:0,0:0:0:0:
221,143,43309,1,0,0:0:0:0:
304,168,43480,2,0,B|317:196|317:196|325:226,1,50,8|0,0:0|0:0,0:0:0:0:
300,291,43821,2,0,P|256:270|232:228,1,100,8|0,0:0|0:0,0:0:0:0:
148,216,44332,5,0,0:0:0:0:
72,176,44502,2,0,B|12:170,1,50
20,88,44843,2,0,B|79:82,1,50
144,128,45184,2,0,B|149:187,1,50
232,158,45525,2,0,B|281:162,1,50
284,246,45866,2,0,B|234:250,1,50
148,260,46207,1,0,0:0:0:0:
280,76,46548,6,0,B|240:116|240:116|232:160,1,100,8|0,0:0|0:0,0:0:0:0:
220,16,47230,2,0,B|163:15|163:15|126:41,1,100,8|0,0:0|0:0,0:0:0:0:
88,116,47741,2,0,L|88:144,2,25,2|0|2,0:0|0:0|0:0,0:0:0:0:
220,16,48252,6,0,P|252:64|304:72,1,100,8|0,0:0|0:0,0:0:0:0:
376,76,48764,2,0,B|388:132|388:132|384:176,1,100
316,228,49275,1,8,0:0:0:0:
260,164,49446,2,0,P|214:147|160:166,1,100
116,228,49957,1,8,0:0:0:0:
164,296,50127,2,0,P|210:313|264:294,1,100,8|0,0:0|0:0,0:0:0:0:
316,228,50639,6,0,L|340:176,1,50
312,100,50980,2,0,P|277:65|220:59,1,100,8|0,0:0|0:0,0:0:0:0:
176,121,51491,2,0,P|210:155|267:161,1,100,8|0,0:0|0:0,0:0:0:0:
336,182,52002,1,8,0:0:0:0:
304,260,52173,2,0,L|280:308,1,50
128,228,52684,6,0,P|156:276|200:292,2,100,8|8|8,0:0|0:0|0:0,0:0:0:0:
184,168,53707,2,0,B|232:156|232:156|272:164|272:164|304:200|304:200|348:200|348:200|384:172|384:172|384:128|384:128|356:100|356:100|336:144,1,350,8|0,0:0|0:0,0:0:0:0:
272,84,55071,6,0,P|226:52|179:56,1,100,8|0,2:0|2:0,2:0:0:0:
100,44,55582,2,0,L|76:88,1,50
116,164,55923,2,0,L|140:208,1,50
238,240,56264,2,0,B|203:255|203:255|231:283|231:283|275:283|275:283|303:247|303:247|303:203|303:203|267:171|267:171|259:131|259:131|271:83,2,350,8|0|0,0:0|0:0|0:0,0:0:0:0:
180,176,58821,6,0,P|134:144|87:148,2,100,8|0|8,2:0|2:0|2:0,2:0:0:0:
112,228,59673,1,8,0:0:0:0:
164,296,59843,2,0,P|209:327|257:323,1,100,8|0,2:0|2:0,2:0:0:0:
316,268,60355,1,8,0:0:0:0:
272,196,60525,2,0,L|244:148,1,50,8|0,0:0|0:0,0:0:0:0:
328,132,60866,1,0,0:0:0:0:
308,48,61036,2,0,P|262:16|215:20,1,100,8|8,2:0|2:0,2:0:0:0:
144,56,61548,6,0,P|139:111|166:150,1,100,8|0,2:0|2:0,2:0:0:0:
346,223,62230,2,0,P|350:167|323:128,1,100,8|0,2:0|2:0,2:0:0:0:
246,152,62742,1,8,0:0:0:0:
205,226,62912,2,0,L|177:274,1,50
260,300,63252,2,0,L|287:348,1,50
200,360,63593,1,8,0:0:0:0:
124,320,63764,2,0,P|104:267|121:222,1,100,8|0,2:0|2:0,2:0:0:0:
160,152,64275,6,0,L|212:140,2,50,8|0|0,0:0|0:0|0:0,0:0:0:0:
304,64,64957,2,0,L|252:52,2,50,8|0|0,0:0|0:0|0:0,0:0:0:0:
144,12,65639,2,0,L|196:0,1,50,8|0,0:0|0:0,0:0:0:0:
192,72,65980,2,0,L|140:84,1,50,8|0,0:0|0:0,0:0:0:0:
160,152,66321,2,0,L|212:140,1,50,8|0,0:0|0:0,0:0:0:0:
232,220,66661,6,0,P|180:224|136:256,2,100,8|0|0,0:0|0:0|0:0,0:0:0:0:
312,256,67514,2,0,L|360:284,1,50,8|0,0:0|0:0,0:0:0:0:
288,336,67855,2,0,L|236:360,1,50
156,364,68196,1,8,0:0:0:0:
72,360,68366,2,0,L|26:339,1,50,8|0,0:0|0:0,0:0:0:0:
16,256,68707,2,0,P|57:229|106:226,1,100
176,276,69218,1,8,0:0:0:0:
244,224,69389,2,0,P|293:221|337:243,1,100,8|0,0:0|0:0,0:0:0:0:
392,84,70071,6,0,B|388:140|388:140|360:184,1,100
300,120,70582,2,0,B|244:124|244:124|200:152,1,100
200,232,71093,1,0,0:0:0:0:
256,296,71264,2,0,B|280:245|280:245|278:193,2,100
32,176,72457,6,0,L|84:212,1,50
120,132,72798,2,0,B|172:111|172:111|224:118,1,100
208,204,73309,2,0,B|260:224|260:224|312:217,2,100
424,304,74502,2,0,B|372:284|372:284|320:291,1,100
256,192,75184,1,0,0:0:0:0:
100,155,75525,2,0,B|148:164|148:164|181:188|181:188|195:234|195:234|235:253|235:253|279:243|279:243|298:203|298:203|284:166|284:166|247:197,1,350
228,112,76889,6,0,B|182:79|182:79|130:72,1,100,0|0,2:0|2:0,2:0:0:0:
56,84,77400,2,0,B|24:128,1,50,0|0,2:0|2:0,2:0:0:0:
36,208,77741,2,0,B|30:262,1,50,0|0,2:0|2:0,2:0:0:0:
116,264,78082,2,0,B|164:273|164:273|197:297|197:297|211:343|211:343|251:362|251:362|295:352|295:352|314:312|314:312|300:275|300:275|263:306,1,350
380,256,79616,6,0,P|399:309|382:354,1,100,8|0,2:0|2:0,2:0:0:0:
216,352,80298,2,0,P|196:300|213:255,1,100,8|0,2:0|2:0,2:0:0:0:
296,172,80980,2,0,L|300:120,1,50,8|0,0:0|0:0,0:0:0:0:
264,48,81321,2,0,P|211:28|166:45,1,100,8|0,2:0|2:0,2:0:0:0:
112,100,81832,1,8,0:0:0:0:
160,168,82002,2,0,L|192:212,1,50,8|0,0:0|0:0,0:0:0:0:
112,244,82343,2,0,P|92:296|109:341,2,100,0|8|0,2:0|2:0|2:0,2:0:0:0:
229,126,83366,6,0,P|241:173|222:218,1,100,8|0,2:0|2:0,2:0:0:0:
72,140,84048,2,0,P|59:92|78:47,1,100,8|0,2:0|2:0,2:0:0:0:
248,44,84730,2,0,L|300:80,1,50,8|0,0:0|0:0,0:0:0:0:
216,120,85071,2,0,L|164:156,2,50,8|0|0,0:0|0:0|0:0,0:0:0:0:
300,112,85582,2,0,P|346:126|376:165,1,100,8|0,2:0|2:0,2:0:0:0:
296,196,86093,2,0,L|244:232,2,50,8|0|0,0:0|0:0|0:0,0:0:0:0:
376,166,86605,1,0,0:0:0:0:
460,156,86775,2,0,L|512:119,2,50,8|0|0,0:0|0:0|0:0,0:0:0:0:
424,236,87286,1,0,0:0:0:0:
344,264,87457,2,0,L|292:300,2,50,8|0|0,0:0|0:0|0:0,0:0:0:0:
408,320,87968,1,0,0:0:0:0:
484,296,88139,2,0,L|520:348,1,50,8|0,0:0|0:0,0:0:0:0:
352,184,88821,6,0,L|322:134,1,50,8|0,0:0|0:0,0:0:0:0:
260,88,89161,2,0,B|239:133|239:133|243:158|243:158|271:207|271:207|260:266|260:266|212:311,1,250
144,352,90184,1,8,0:0:0:0:
81,294,90355,2,0,P|56:252|63:203,1,100,8|0,2:0|2:0,2:0:0:0:
96,36,91036,2,0,P|119:78|113:127,1,100,8|0,2:0|2:0,2:0:0:0:
27,129,91548,1,0,0:0:0:0:
256,192,91889,12,0,97343,0:0:0:0:
