osu file format v14

[General]
AudioFilename: audio.mp3
AudioLeadIn: 0
PreviewTime: 269775
Countdown: 0
SampleSet: Soft
StackLeniency: 0.6
Mode: 0
LetterboxInBreaks: 0
EpilepsyWarning: 1
WidescreenStoryboard: 1

[Editor]
Bookmarks: 5417,23678,32036,54878,125973,146567,162567,248653,303136
DistanceSpacing: 1
BeatDivisor: 3
GridSize: 32
TimelineZoom: 2

[Metadata]
Title:Kyouki Douwa "Daiyonshou OZ"
TitleUnicode:狂気童話「第四章 OZ」
Artist:Eine Kleine
ArtistUnicode:Eine Kleine
Creator:IsomirDiAngelo
Version:Yellow Brick Road of Madness
Source:
Tags:くろねこ kuroneko 少女-D- shoujo -d- d chapter 4 the wonderful wizard of fairy tale rock metal gothic marathon yshadowxop_ shadowx
BeatmapID:1695379
BeatmapSetID:807090

[Difficulty]
HPDrainRate:4.5
CircleSize:4.2
OverallDifficulty:9.3
ApproachRate:9.7
SliderMultiplier:1.8
SliderTickRate:1

[Events]
//Background and Video events
0,0,"df31057ae4e9faa895ac40b7abc74c47.jpg",0,0
//Break Periods
//Storyboard Layer 0 (Background)
//Storyboard Layer 1 (Fail)
//Storyboard Layer 2 (Pass)
//Storyboard Layer 3 (Foreground)
//Storyboard Sound Samples

[TimingPoints]
726,521.739130434783,4,2,1,40,1,0
2291,-100,4,2,1,40,0,0
3508,-100,4,2,1,5,0,0
3682,-100,4,2,1,40,0,0
4030,-100,4,2,1,5,0,0
4204,-100,4,2,1,40,0,0
4552,-100,4,2,1,5,0,0
4726,-100,4,2,1,40,0,0
5943,-200,4,2,1,40,0,0
6812,-200,4,2,1,5,0,0
6986,-100,4,2,1,40,0,0
8378,-100,4,2,1,20,0,0
8552,-100,4,2,1,40,0,0
10117,-125,4,2,1,40,0,0
10986,-125,4,2,1,20,0,0
11160,-100,4,2,1,40,0,0
14291,-125,4,2,1,40,0,0
15160,-125,4,2,1,20,0,0
15334,-100,4,2,1,40,0,0
16726,-100,4,2,1,20,0,0
16899,-100,4,2,1,40,0,0
18465,-125,4,2,1,40,0,0
19334,-125,4,2,1,20,0,0
19508,-100,4,2,1,40,0,0
23682,-125,4,2,1,40,0,0
25595,-125,4,2,1,20,0,0
25769,-125,4,2,1,40,0,0
27682,-125,4,2,1,20,0,0
27856,-100,4,2,1,40,0,0
29769,-100,4,2,1,20,0,0
29943,-100,4,2,1,40,0,0
35682,-100,4,1,3,5,0,0
36170,285.714285714286,4,1,2,60,1,0
36598,285.714285714286,4,1,2,60,1,0
36598,-83.3333333333333,3,1,2,60,0,0
54883,-83.3333333333333,3,1,2,60,0,0
72026,-100,3,1,2,60,0,0
73169,-200,3,1,2,40,0,0
73240,-200,3,1,1,40,0,0
73359,-200,4,1,1,40,0,0
89168,-200,4,2,1,60,0,0
89454,-285.714285714286,4,2,1,40,0,0
93169,-285.714285714286,4,2,1,5,0,0
93454,-666.666666666667,4,2,1,40,0,0
94026,-166.666666666667,3,2,1,5,0,0
94098,-166.666666666667,3,2,1,70,0,0
94383,-166.666666666667,3,2,1,5,0,0
94455,-166.666666666667,3,2,1,50,0,0
94669,-166.666666666667,3,2,1,5,0,0
94740,-166.666666666667,3,2,1,50,0,0
94812,-166.666666666667,3,2,1,5,0,0
96233,521.739130434783,4,2,1,40,1,0
96754,521.739130434783,4,2,1,40,1,0
97449,-100,4,2,1,5,0,0
97623,-100,4,2,1,40,0,0
97971,-100,4,2,1,5,0,0
98145,-100,4,2,1,40,0,0
98493,-100,4,2,1,5,0,0
98667,-100,4,2,1,40,0,0
99884,-200,4,2,1,40,0,0
100754,-200,4,2,1,5,0,0
100927,-100,4,2,1,40,0,0
102319,-100,4,2,1,20,0,0
102493,-100,4,2,1,40,0,0
104058,-125,4,2,1,40,0,0
104927,-125,4,2,1,20,0,0
105101,-100,4,2,1,40,0,0
108232,-125,4,2,1,40,0,0
109101,-125,4,2,1,20,0,0
109275,-100,4,2,1,40,0,0
110667,-100,4,2,1,20,0,0
110840,-100,4,2,1,40,0,0
112406,-125,4,2,1,40,0,0
113275,-125,4,2,1,20,0,0
113449,-100,4,2,1,40,0,0
117623,-125,4,2,1,40,0,0
119536,-125,4,2,1,20,0,0
119710,-125,4,2,1,40,0,0
121623,-125,4,2,1,20,0,0
121797,-100,4,2,1,40,0,0
123710,-100,4,2,1,20,0,0
123884,-100,4,2,1,40,0,0
129623,-100,4,1,3,5,0,0
130067,250,4,2,1,70,1,0
130067,-200,4,2,1,50,0,0
130577,250,4,1,2,50,1,0
130764,-100,4,1,2,5,0,0
130827,-100,4,1,2,50,0,0
131764,-100,4,1,2,5,0,0
131827,-100,4,1,2,50,0,0
138764,-100,4,1,2,5,0,0
138827,-100,4,1,2,50,0,0
139764,-100,4,1,2,5,0,0
139827,-100,4,1,2,50,0,0
146577,-83.3333333333333,4,1,2,70,0,1
162577,-100,4,2,1,60,0,0
163077,-100,4,2,1,55,0,0
163577,-100,4,2,1,50,0,0
164077,-100,4,2,1,45,0,0
164577,-100,4,2,1,40,0,0
165077,-100,4,2,1,35,0,0
165577,-100,4,2,1,30,0,0
166077,-100,4,2,1,25,0,0
166577,-100,4,2,1,20,0,0
167077,-100,4,2,1,15,0,0
167577,-100,4,2,1,10,0,0
168077,-100,4,2,1,5,0,0
169077,-100,4,1,3,5,0,0
171647,521.739130434783,4,2,1,40,1,0
172168,521.739130434783,4,2,1,40,1,0
172863,-100,4,2,1,5,0,0
173037,-100,4,2,1,40,0,0
173385,-100,4,2,1,5,0,0
173559,-100,4,2,1,40,0,0
173907,-100,4,2,1,5,0,0
174081,-100,4,2,1,40,0,0
175298,-200,4,2,1,40,0,0
176168,-200,4,2,1,5,0,0
176341,-100,4,2,1,40,0,0
177733,-100,4,2,1,20,0,0
177907,-100,4,2,1,40,0,0
179472,-125,4,2,1,40,0,0
180341,-125,4,2,1,20,0,0
180515,-100,4,2,1,40,0,0
183472,-100,4,2,1,20,0,0
183646,-125,4,2,1,40,0,0
184515,-125,4,2,1,20,0,0
184689,-100,4,2,1,40,0,0
187820,-125,4,2,1,40,0,0
188689,-125,4,2,1,20,0,0
188863,-100,4,2,1,40,0,0
193037,-125,4,2,1,40,0,0
194950,-125,4,2,1,20,0,0
195124,-125,4,2,1,40,0,0
197037,-125,4,2,1,20,0,0
197211,-100,4,2,1,40,0,0
198776,-166.666666666667,4,2,1,40,0,0
201972,-166.666666666667,4,1,3,40,0,0
202113,206.896551724138,4,1,2,60,1,0
202113,-125,4,1,2,60,0,0
202319,206.896551724138,4,1,2,60,1,0
202319,-125,4,1,2,60,0,0
204801,-100,4,1,2,60,0,0
205629,-125,4,1,2,60,0,0
206870,-100,4,1,2,60,0,0
208939,-125,4,1,2,60,0,0
211422,-100,4,1,2,60,0,0
212250,-125,4,1,2,60,0,0
215560,-100,4,1,2,70,0,1
228801,413.793103448276,4,1,2,50,1,0
229214,-76.9230769230769,4,1,2,50,0,0
240801,-76.9230769230769,4,1,2,40,0,0
241214,-76.9230769230769,4,1,2,50,0,0
247421,-76.9230769230769,4,1,2,40,0,0
247835,-76.9230769230769,4,1,2,50,0,0
248663,-100,4,1,2,50,0,0
261904,-100,4,1,2,30,0,0
262318,-100,4,1,2,50,0,0
263559,-100,4,2,1,40,0,0
265214,-100,4,2,1,30,0,0
266869,-100,4,2,1,20,0,0
268525,-100,4,2,1,10,0,0
269352,-100,4,2,1,5,0,0
269559,-100,4,1,3,5,0,0
269780,521.739130434783,4,2,1,40,1,0
270301,521.739130434783,4,2,1,40,1,0
270996,-100,4,2,1,5,0,0
271170,-100,4,2,1,40,0,0
271518,-100,4,2,1,5,0,0
271692,-100,4,2,1,40,0,0
273083,-100,4,2,1,5,0,0
273257,-100,4,2,1,40,0,0
273605,-100,4,2,1,5,0,0
273779,-100,4,2,1,40,0,0
275170,-100,4,2,1,5,0,0
275344,-100,4,2,1,40,0,0
275692,-100,4,2,1,5,0,0
275866,-100,4,2,1,40,0,0
276214,-100,4,2,1,5,0,0
276387,-100,4,2,1,40,0,0
277605,-200,4,2,1,40,0,0
278474,-200,4,2,1,5,0,0
278648,-100,4,2,1,40,0,0
280040,-100,4,2,1,20,0,0
280214,-100,4,2,1,40,0,0
281779,-125,4,2,1,40,0,0
282648,-125,4,2,1,20,0,0
282822,-100,4,2,1,40,0,0
285953,-125,4,2,1,40,0,0
286822,-125,4,2,1,20,0,0
286996,-100,4,2,1,40,0,0
288387,-100,4,2,1,20,0,0
288561,-100,4,2,1,40,0,0
290127,-125,4,2,1,40,0,0
290996,-125,4,2,1,20,0,0
291170,-100,4,2,1,40,0,0
295344,-125,4,2,1,40,0,0
297257,-125,4,2,1,20,0,0
297431,-125,4,2,1,40,0,0
299344,-125,4,2,1,20,0,0
299518,-100,4,2,1,40,0,0

[Colours]
Combo1 : 120,29,106
Combo2 : 72,183,60
Combo3 : 233,67,67
Combo4 : 238,193,17
Combo5 : 170,9,57
Combo6 : 67,100,124

[HitObjects]
212,299,2291,6,0,P|167:303|116:278,2,60
71,294,2812,1,2,0:0:0:0:
317,216,3160,1,0,0:0:0:0:
212,299,3334,2,0,P|227:270|271:244,1,60,2|0,0:0|0:0,0:0:0:0:
317,216,3682,1,0,0:0:0:0:
296,82,3856,2,0,P|313:109|313:160,1,60,2|0,0:0|0:0,0:0:0:0:
317,216,4204,1,0,0:0:0:0:
442,263,4378,2,0,P|409:264|365:239,1,60,2|0,0:0|0:0,0:0:0:0:
317,216,4726,1,0,0:0:0:0:
222,137,4899,5,2,0:0:0:0:
219,162,5073,1,0,0:0:0:0:
216,188,5247,1,0,0:0:0:0:
113,152,5421,5,2,0:0:0:0:
116,177,5595,1,0,0:0:0:0:
119,203,5769,1,0,0:0:0:0:
24,98,5943,54,0,B|-19:170|50:174|-12:258,1,150,2|0,0:0|2:0,0:0:0:0:
29,325,6986,6,0,P|75:345|156:313,1,120,2|0,0:0|0:0,0:0:0:0:
221,268,7508,2,0,L|265:428,1,120,2|0,0:0|0:0,0:0:0:0:
327,283,8030,2,0,L|358:167,1,120,2|0,0:0|0:0,0:0:0:0:
376,75,8552,2,0,P|444:97|527:70,1,120,2|0,0:0|0:0,0:0:0:0:
445,5,9073,6,0,L|318:45,1,120,2|0,0:0|0:0,0:0:0:0:
230,20,9595,2,0,L|103:60,1,120,2|0,0:0|0:0,0:0:0:0:
19,147,10117,54,0,B|29:71|95:34|95:34|68:125|102:152,1,240,2|0,0:0|0:0,0:0:0:0:
138,284,11160,6,0,L|8:260,1,120,2|0,0:0|0:0,0:0:0:0:
96,363,11682,2,0,P|157:374|210:338,1,120,2|0,0:0|0:0,0:0:0:0:
312,327,12204,2,0,P|251:316|198:352,1,120,2|0,0:0|0:0,0:0:0:0:
420,308,12726,2,0,P|363:297|312:326,1,120,2|0,0:0|0:0,0:0:0:0:
489,359,13247,6,0,L|514:234,1,120,2|0,0:0|0:0,0:0:0:0:
396,190,13769,2,0,L|419:307,1,120,2|0,0:0|0:0,0:0:0:0:
460,123,14291,54,0,P|405:37|404:119,1,240,2|0,0:0|0:0,0:0:0:0:
283,89,15334,6,0,B|208:98|249:126|159:137,1,120,2|0,0:0|0:0,0:0:0:0:
146,229,15856,2,0,L|12:193,1,120,2|0,0:0|0:0,0:0:0:0:
116,325,16378,2,0,L|250:289,1,120,2|0,0:0|0:0,0:0:0:0:
314,222,16899,2,0,P|340:275|311:365,1,120,2|0,0:0|0:0,0:0:0:0:
441,368,17421,6,0,P|433:309|459:256,1,120,2|0,0:0|0:0,0:0:0:0:
403,170,17943,2,0,P|417:112|460:72,1,120,2|0,0:0|0:0,0:0:0:0:
338,37,18465,54,0,B|253:3|208:65|208:65|166:30|100:62,1,240,2|0,0:0|0:0,0:0:0:0:
181,197,19508,6,0,P|164:253|186:309,1,120,2|0,0:0|0:0,0:0:0:0:
276,157,20030,2,0,L|113:138,1,120,2|0,0:0|0:0,0:0:0:0:
64,82,20552,2,0,L|45:244,1,120,2|0,0:0|0:0,0:0:0:0:
6,297,21073,1,2,0:0:0:0:
206,209,21595,6,0,P|261:180|325:217,1,120,2|0,0:0|0:0,0:0:0:0:
360,297,22117,2,0,P|415:268|479:305,1,120,2|0,0:0|0:0,0:0:0:0:
486,176,22639,1,2,0:0:0:0:
512,34,22986,1,2,0:0:0:0:
512,34,23160,1,2,0:0:0:0:
256,177,23682,53,2,0:0:0:0:
181,49,24204,1,2,0:0:0:0:
93,173,24726,2,0,P|64:228|146:180,1,240,2|0,0:0|0:0,0:0:0:0:
256,177,25769,5,2,0:0:0:0:
331,49,26291,1,2,0:0:0:0:
419,173,26812,2,0,P|447:228|365:180,1,240,2|0,0:0|0:0,0:0:0:0:
483,321,27856,6,0,L|341:307,1,120,2|0,0:0|0:0,0:0:0:0:
267,364,28378,2,0,L|162:302,1,120,2|0,0:0|0:0,0:0:0:0:
82,375,28899,2,0,P|57:323|65:244,1,120,2|0,0:0|0:0,0:0:0:0:
134,185,29421,2,0,P|159:133|151:54,1,120,2|0,0:0|0:0,0:0:0:0:
62,41,29943,54,0,B|198:27,1,120,2|0,0:0|0:0,0:0:0:0:
248,118,30465,2,0,B|367:130,1,120,2|0,0:0|0:0,0:0:0:0:
453,70,30986,1,2,0:0:0:0:
497,224,31334,1,2,0:0:0:0:
474,146,31508,1,2,0:0:0:0:
256,192,31639,12,0,35682,0:0:0:0:
86,273,36170,38,0,L|63:323,2,45,0|0|8,0:0|0:0|0:0,0:0:0:0:
186,265,36598,5,6,0:0:0:0:
170,238,36669,1,2,0:0:0:0:
153,211,36740,1,2,0:0:0:0:
137,184,36812,1,2,0:0:0:0:
120,157,36883,1,2,0:0:0:0:
227,338,37169,5,12,0:0:0:0:
279,144,37312,2,0,B|231:140|198:84|198:84|176:145|95:164,1,215.999993408203,2|0,0:0|0:0,0:0:0:0:
322,224,37740,54,0,B|356:194|356:194|372:118,1,107.999996704102,6|0,0:0|0:0,0:0:0:0:
170,238,38026,2,0,B|136:268|136:268|120:344,1,107.999996704102,2|0,0:0|0:0,0:0:0:0:
360,344,38312,5,12,0:0:0:0:
400,349,38383,1,0,0:0:0:0:
440,337,38454,1,0,0:0:0:0:
471,310,38526,1,0,0:0:0:0:
489,273,38597,1,0,0:0:0:0:
493,232,38669,1,0,0:0:0:0:
480,193,38740,2,0,L|464:250,1,53.9999983520508
369,133,38883,5,6,0:0:0:0:
399,128,38954,1,2,0:0:0:0:
430,123,39025,1,2,0:0:0:0:
461,118,39097,1,2,0:0:0:0:
493,113,39168,1,2,0:0:0:0:
279,144,39455,53,12,0:0:0:0:
245,349,39598,2,0,B|154:331|154:331|116:346|116:346|17:328,1,215.999993408203,2|0,0:0|0:0,0:0:0:0:
10,253,39955,1,0,0:0:0:0:
9,217,40026,6,0,B|15:168|15:168|66:98,1,107.999996704102,12|0,0:0|0:0,0:0:0:0:
113,311,40312,1,2,0:0:0:0:
132,93,40455,2,0,B|160:52|160:52|238:14,1,107.999996704102,12|0,0:0|0:0,0:0:0:0:
286,227,40740,1,2,0:0:0:0:
294,245,40812,1,2,0:0:0:0:
302,262,40883,1,14,0:0:0:0:
422,28,41169,5,6,0:0:0:0:
395,10,41240,1,2,0:0:0:0:
364,5,41312,1,2,0:0:0:0:
334,13,41383,1,2,0:0:0:0:
309,33,41454,1,2,0:0:0:0:
488,80,41740,53,12,0:0:0:0:
470,284,41883,2,0,P|400:218|291:292,1,215.999993408203,2|0,0:0|0:0,0:0:0:0:
99,351,42312,6,0,L|54:229,1,107.999996704102,6|0,0:0|0:0,0:0:0:0:
243,99,42598,2,0,L|205:200,1,107.999996704102,2|0,0:0|0:0,0:0:0:0:
2,56,42883,5,12,0:0:0:0:
42,62,42954,1,0,0:0:0:0:
82,70,43025,1,0,0:0:0:0:
122,77,43097,1,0,0:0:0:0:
162,85,43168,1,0,0:0:0:0:
202,91,43240,1,0,0:0:0:0:
243,99,43312,2,0,L|222:153,1,53.9999983520508
149,264,43455,53,6,0:0:0:0:
122,246,43526,1,2,0:0:0:0:
91,241,43598,1,2,0:0:0:0:
61,249,43669,1,2,0:0:0:0:
36,269,43740,1,2,0:0:0:0:
210,326,44026,5,12,0:0:0:0:
396,285,44169,2,0,B|384:235|402:210|402:210|426:187|427:128|427:128|398:150|381:175,1,215.999993408203,2|0,0:0|0:0,0:0:0:0:
303,205,44526,1,0,0:0:0:0:
289,237,44598,6,0,L|152:226,1,107.999996704102,12|0,0:0|0:0,0:0:0:0:
107,86,44883,1,2,0:0:0:0:
110,304,45026,2,0,L|2:312,1,107.999996704102,12|0,0:0|0:0,0:0:0:0:
226,131,45311,1,2,0:0:0:0:
241,118,45383,1,2,0:0:0:0:
256,106,45454,1,14,0:0:0:0:
478,222,45740,53,6,0:0:0:0:
467,192,45811,1,2,0:0:0:0:
455,162,45882,1,2,0:0:0:0:
445,133,45954,1,2,0:0:0:0:
433,103,46025,1,2,0:0:0:0:
503,306,46311,5,12,0:0:0:0:
299,263,46454,2,0,B|282:190|358:137|358:137|388:175|379:214,1,215.999993408203,2|0,0:0|0:0,0:0:0:0:
252,356,46883,6,0,P|208:309|216:227,1,107.999996704102,6|0,0:0|0:0,0:0:0:0:
260,101,47169,2,0,P|303:147|295:229,1,107.999996704102,2|0,0:0|0:0,0:0:0:0:
112,288,47454,53,12,0:0:0:0:
83,257,47525,1,0,0:0:0:0:
69,219,47598,1,0,0:0:0:0:
71,178,47668,1,0,0:0:0:0:
90,140,47739,1,0,0:0:0:0:
120,113,47811,1,0,0:0:0:0:
160,100,47883,2,0,L|143:161,1,53.9999983520508
208,31,48026,5,6,0:0:0:0:
178,26,48099,1,2,0:0:0:0:
147,21,48170,1,2,0:0:0:0:
116,16,48240,1,2,0:0:0:0:
84,11,48312,1,2,0:0:0:0:
295,41,48597,5,12,0:0:0:0:
386,226,48740,2,0,B|438:171|451:103|451:103|465:149|502:179,1,215.999993408203,2|0,0:0|0:0,0:0:0:0:
491,261,49097,1,0,0:0:0:0:
482,297,49169,54,0,B|448:324|448:324|370:311,1,107.999996704102,12|0,0:0|0:0,0:0:0:0:
334,152,49454,1,2,0:0:0:0:
278,376,49598,2,0,B|254:339|254:339|275:263,1,107.999996704102,12|0,0:0|0:0,0:0:0:0:
459,153,49883,1,2,0:0:0:0:
453,168,49955,1,2,0:0:0:0:
448,182,50025,1,14,0:0:0:0:
242,84,50312,5,6,0:0:0:0:
271,72,50383,1,2,0:0:0:0:
301,61,50454,1,2,0:0:0:0:
333,66,50526,1,2,0:0:0:0:
364,74,50597,1,2,0:0:0:0:
166,113,50883,5,12,0:0:0:0:
291,274,51026,2,0,B|306:146|347:207|365:62,1,215.999993408203,2|0,0:0|0:0,0:0:0:0:
150,6,51455,54,0,L|166:119,1,107.999996704102,6|0,0:0|0:0,0:0:0:0:
62,307,51740,2,0,L|46:194,1,107.999996704102,2|0,0:0|0:0,0:0:0:0:
207,342,52026,5,12,0:0:0:0:
237,369,52097,1,0,0:0:0:0:
276,383,52168,1,0,0:0:0:0:
316,380,52240,1,0,0:0:0:0:
353,360,52311,1,0,0:0:0:0:
380,329,52383,1,0,0:0:0:0:
394,291,52454,2,0,L|411:347,1,53.9999983520508,0|0,0:0|0:0,0:0:0:0:
447,210,52598,5,6,0:0:0:0:
418,198,52669,1,2,0:0:0:0:
388,187,52740,1,2,0:0:0:0:
356,192,52812,1,2,0:0:0:0:
325,200,52883,1,2,0:0:0:0:
512,255,53169,53,12,0:0:0:0:
500,66,53312,2,0,B|435:75|411:17|411:17|340:18|312:71,1,215.999993408203,2|0,0:0|0:0,0:0:0:0:
262,134,53669,1,0,0:0:0:0:
227,130,53740,6,0,B|182:109|182:109|131:39,1,107.999996704102,12|0,0:0|0:0,0:0:0:0:
243,271,54026,1,2,0:0:0:0:
64,106,54169,2,0,B|54:57|54:57|83:-24,1,107.999996704102,12|0,0:0|0:0,0:0:0:0:
131,284,54454,1,2,0:0:0:0:
139,302,54526,1,2,0:0:0:0:
147,319,54597,1,14,0:0:0:0:
392,298,54883,5,6,0:0:0:0:
416,276,54954,1,2,0:0:0:0:
434,249,55025,1,2,0:0:0:0:
444,219,55097,1,2,0:0:0:0:
444,186,55169,2,0,P|436:137|379:83,1,107.999996704102,2|0,0:0|0:0,0:0:0:0:
320,250,55455,2,0,B|304:288|304:288|326:396,1,107.999996704102,12|0,0:0|0:0,0:0:0:0:
352,168,55669,1,0,0:0:0:0:
325,150,55740,2,0,B|279:128|279:128|166:158,1,161.999995056153,0|0,0:0|2:0,0:0:0:0:
130,236,56026,54,0,L|153:345,1,107.999996704102,6|0,0:0|0:0,0:0:0:0:
5,130,56312,2,0,L|27:24,1,107.999996704102,2|0,0:0|0:0,0:0:0:0:
214,89,56598,5,12,0:0:0:0:
227,120,56669,1,0,0:0:0:0:
224,150,56740,2,0,P|215:180|182:210,1,53.9999983520508
60,278,56883,1,0,0:0:0:0:
48,248,56954,1,0,0:0:0:0:
51,218,57026,2,0,P|59:187|95:157,1,53.9999983520508
156,278,57169,5,6,0:0:0:0:
148,309,57240,1,2,0:0:0:0:
134,338,57311,1,2,0:0:0:0:
112,361,57383,1,2,0:0:0:0:
84,378,57455,2,0,P|59:329|65:261,1,107.999996704102,2|0,0:0|0:0,0:0:0:0:
262,269,57740,2,0,B|368:204|354:293|468:227,1,215.999993408203,12|0,0:0|0:0,0:0:0:0:
416,30,58169,1,0,0:0:0:0:
396,42,58240,1,0,0:0:0:0:
378,53,58312,54,0,B|372:108|372:108|396:179,1,107.999996704102,12|0,0:0|0:0,0:0:0:0:
462,302,58598,1,0,0:0:0:0:
275,168,58740,2,0,B|280:120|280:120|259:58,1,107.999996704102,12|0,0:0|0:0,0:0:0:0:
183,291,59026,1,0,0:0:0:0:
206,295,59097,1,0,0:0:0:0:
230,298,59169,2,0,B|283:304|283:304|361:279,1,107.999996704102,12|0,0:0|0:0,0:0:0:0:
87,156,59455,5,6,0:0:0:0:
78,190,59526,1,2,0:0:0:0:
68,222,59597,1,2,0:0:0:0:
79,254,59669,1,2,0:0:0:0:
92,284,59740,2,0,L|135:390,1,107.999996704102,2|0,0:0|0:0,0:0:0:0:
179,156,60026,6,0,P|156:96|88:61,1,107.999996704102,12|0,0:0|0:0,0:0:0:0:
161,247,60241,1,0,0:0:0:0:
188,248,60312,2,0,P|247:217|270:130,1,161.999995056153,0|0,0:0|2:0,0:0:0:0:
250,37,60598,2,0,B|293:44|293:44|395:14,1,107.999996704102,6|0,0:0|0:0,0:0:0:0:
512,143,60883,2,0,B|469:136|469:136|367:166,1,107.999996704102,2|0,0:0|0:0,0:0:0:0:
468,349,61169,53,12,0:0:0:0:
475,317,61240,1,0,0:0:0:0:
482,284,61311,2,0,L|494:228,1,53.9999983520508
322,245,61455,1,0,0:0:0:0:
328,276,61526,1,0,0:0:0:0:
336,310,61597,2,0,L|348:366,1,53.9999983520508
180,299,61740,5,6,0:0:0:0:
166,264,61811,1,2,0:0:0:0:
154,233,61882,1,2,0:0:0:0:
163,201,61954,1,2,0:0:0:0:
174,168,62026,2,0,B|215:152|215:152|302:170,1,107.999996704102,2|0,0:0|0:0,0:0:0:0:
176,377,62312,6,0,L|-5:346,1,161.999995056153,12|0,0:0|2:0,0:0:0:0:
3,281,62598,2,0,P|24:241|91:267,1,107.999996704102
93,167,62812,1,0,0:0:0:0:
107,150,62883,54,0,B|-48:167,1,107.999996704102,12|0,0:0|0:0,0:0:0:0:
234,230,63169,1,0,0:0:0:0:
193,46,63312,2,0,B|85:34,1,107.999996704102,12|0,0:0|0:0,0:0:0:0:
302,152,63598,1,0,0:0:0:0:
326,149,63670,1,0,0:0:0:0:
349,146,63740,2,0,B|456:131,1,107.999996704102,12|0,0:0|0:0,0:0:0:0:
411,341,64026,5,6,0:0:0:0:
389,316,64097,1,2,0:0:0:0:
359,305,64168,1,2,0:0:0:0:
327,307,64240,1,2,0:0:0:0:
300,324,64312,2,0,P|252:336|191:302,1,107.999996704102,2|0,0:0|0:0,0:0:0:0:
405,241,64598,2,0,P|453:229|514:263,1,107.999996704102,12|0,0:0|0:0,0:0:0:0:
326,230,64812,1,0,0:0:0:0:
312,207,64883,2,0,B|295:170|295:170|326:18,1,161.999995056153,0|0,0:0|2:0,0:0:0:0:
207,39,65169,6,0,B|221:82|221:82|203:157,1,107.999996704102,6|0,0:0|0:0,0:0:0:0:
25,107,65455,2,0,B|11:64|11:64|32:-7,1,107.999996704102,6|0,0:0|0:0,0:0:0:0:
109,200,65741,53,12,0:0:0:0:
78,208,65812,1,0,0:0:0:0:
46,205,65883,2,0,P|15:195|-12:161,1,53.9999983520508
44,342,66026,1,0,0:0:0:0:
75,350,66097,1,0,0:0:0:0:
107,347,66168,2,0,P|137:337|165:303,1,53.9999983520508
228,179,66312,5,6,0:0:0:0:
207,205,66383,1,2,0:0:0:0:
201,236,66454,1,2,0:0:0:0:
208,268,66526,1,2,0:0:0:0:
229,292,66598,2,0,P|288:302|333:204,1,161.999995056153,2|0,0:0|2:0,0:0:0:0:
425,252,66883,2,0,P|492:213|414:109,1,215.999993408203,12|0,0:0|0:0,0:0:0:0:
260,56,67312,1,0,0:0:0:0:
254,79,67383,1,0,0:0:0:0:
249,102,67455,6,0,B|208:115|208:115|113:81,1,107.999996704102,12|0,0:0|0:0,0:0:0:0:
16,11,67741,1,0,0:0:0:0:
128,184,67883,2,0,B|87:197|87:197|-7:163,1,107.999996704102,12|0,0:0|0:0,0:0:0:0:
142,344,68169,1,0,0:0:0:0:
165,351,68241,1,0,0:0:0:0:
189,361,68312,2,0,B|229:374|229:374|324:340,1,107.999996704102,12|0,0:0|0:0,0:0:0:0:
490,339,68598,53,6,0:0:0:0:
501,302,68669,1,2,0:0:0:0:
509,270,68740,1,2,0:0:0:0:
497,239,68812,1,2,0:0:0:0:
483,208,68883,2,0,B|352:190,1,107.999996704102,2|0,0:0|0:0,0:0:0:0:
308,20,69169,2,0,B|439:2,1,107.999996704102,12|0,0:0|0:0,0:0:0:0:
366,90,69384,1,0,0:0:0:0:
341,106,69455,2,0,P|267:104|221:-1,1,161.999995056153,0|0,0:0|2:0,0:0:0:0:
141,6,69740,6,0,B|123:137,1,107.999996704102,6|0,0:0|0:0,0:0:0:0:
15,269,70026,2,0,B|0:162,1,107.999996704102,2|0,0:0|0:0,0:0:0:0:
148,329,70312,5,12,0:0:0:0:
114,334,70383,1,0,0:0:0:0:
81,340,70454,2,0,L|24:350,1,53.9999983520508
141,200,70598,1,0,0:0:0:0:
175,195,70669,1,0,0:0:0:0:
208,189,70740,2,0,L|264:178,1,53.9999983520508
282,336,70883,53,6,0:0:0:0:
319,346,70954,1,2,0:0:0:0:
352,352,71025,1,2,0:0:0:0:
382,338,71097,1,2,0:0:0:0:
412,322,71169,2,0,B|448:296|448:296|471:211,1,107.999996704102,2|0,0:0|0:0,0:0:0:0:
512,44,71455,6,0,P|447:88|373:64,1,161.999995056153,12|0,0:0|0:0,0:0:0:0:
297,32,71740,2,0,P|261:60|203:39,1,107.999996704102
127,16,71955,1,0,0:0:0:0:
114,34,72027,6,0,B|99:147,1,90,12|0,0:0|0:0,0:0:0:0:
115,236,72312,1,2,0:0:0:0:
17,141,72455,2,0,B|2:254,1,90,2|2,0:0|0:0,0:0:0:0:
59,332,72741,1,2,3:0:0:0:
55,349,72813,1,2,3:0:0:0:
52,365,72883,1,2,3:0:0:0:
221,193,73169,54,0,B|263:189|296:205|296:205|351:233|396:205|396:205|376:145|326:148,1,270,4|2,0:3|0:0,0:0:0:0:
133,358,74311,2,0,P|215:269|323:360,1,270,0|2,0:0|0:0,0:0:0:0:
507,358,75454,2,0,P|425:269|317:360,1,270,0|2,0:0|0:0,0:0:0:0:
411,361,76597,1,8,0:0:0:0:
488,321,76883,1,8,0:0:0:0:
500,236,77169,1,8,0:0:0:0:
436,175,77454,1,2,0:0:0:0:
403,20,77740,6,0,B|405:125|350:89|344:186,1,180,6|8,0:0|0:0,0:0:0:0:
287,255,78597,1,2,0:0:0:0:
208,314,78883,2,0,B|206:223|147:254|149:149,1,180,8|8,0:0|0:0,0:0:0:0:
239,163,79740,1,2,0:0:0:0:
116,80,80026,6,0,B|53:71|7:116|7:116|27:160|62:160,1,180,8|8,0:0|0:0,0:0:0:0:
122,218,80883,1,2,0:0:0:0:
118,359,81169,1,10,0:0:0:0:
36,240,81454,1,8,0:0:0:0:
35,331,81740,1,8,0:0:0:0:
118,359,82026,1,2,0:0:0:0:
305,367,82312,54,0,P|276:288|192:289,1,180,12|8,0:0|0:0,0:0:0:0:
155,202,83169,1,2,0:0:0:0:
125,117,83455,2,0,P|153:37|238:38,1,180,8|8,0:0|0:0,0:0:0:0:
319,93,84311,1,2,0:0:0:0:
498,96,84597,6,0,B|480:65|495:21|495:21|436:61|387:42,1,180,8|8,0:0|0:0,0:0:0:0:
390,138,85454,1,2,0:0:0:0:
377,277,85740,1,8,0:0:0:0:
311,216,86026,1,8,0:0:0:0:
219,205,86311,1,8,0:0:0:0:
138,248,86597,1,2,0:0:0:0:
285,134,86883,6,0,P|193:113|129:163,1,180,12|8,0:0|0:0,0:0:0:0:
107,246,87740,1,2,0:0:0:0:
26,190,88026,2,0,B|44:115|44:115|39:77|39:77|59:-4,1,180,8|8,0:0|0:0,0:0:0:0:
131,58,88883,1,8,0:0:0:0:
295,36,89168,5,6,0:0:0:0:
286,71,89264,1,2,0:0:0:0:
278,107,89359,1,2,0:0:0:0:
270,142,89454,6,0,B|326:157|383:132|416:115|445:37|445:37|468:144|410:196|410:196|352:242|352:320|412:364|440:344|517:366|533:271|519:246|477:192|404:198|403:250|412:297|455:285,1,818.999975006104
263,247,93455,6,0,B|246:249|246:249|226:236|226:236|209:240,1,53.9999983520508,2|0,0:0|0:0,0:0:0:0:
138,283,94098,6,0,P|183:238|183:179,1,107.999996704102
81,146,94455,6,0,P|104:178|100:218,1,80.9999975280763
25,211,94740,6,0,P|13:198|-1:196,1,26.9999991760254
414,230,96233,6,0,L|411:329,2,60
409,371,96754,1,2,0:0:0:0:
331,184,97102,1,0,0:0:0:0:
414,289,97276,2,0,L|366:228,1,60,2|0,0:0|0:0,0:0:0:0:
331,184,97624,1,0,0:0:0:0:
197,205,97798,2,0,L|278:191,1,60,2|0,0:0|0:0,0:0:0:0:
331,184,98146,1,0,0:0:0:0:
378,59,98320,2,0,L|352:132,1,60,2|0,0:0|0:0,0:0:0:0:
331,184,98668,1,0,0:0:0:0:
283,299,98840,5,2,0:0:0:0:
248,305,99014,1,0,0:0:0:0:
221,287,99188,1,0,0:0:0:0:
150,178,99362,5,2,0:0:0:0:
185,172,99536,1,0,0:0:0:0:
212,190,99710,1,0,0:0:0:0:
87,265,99884,54,0,P|47:224|52:130,1,150,2|0,0:0|0:0,0:0:0:0:
168,59,100927,6,0,L|147:196,1,120,2|0,0:0|0:0,0:0:0:0:
250,174,101449,2,0,L|271:311,1,120,2|0,0:0|0:0,0:0:0:0:
227,376,101971,2,0,P|297:382|346:342,1,120,2|0,0:0|0:0,0:0:0:0:
461,289,102493,2,0,P|391:295|342:255,1,120,2|0,0:0|0:0,0:0:0:0:
274,189,103014,6,0,B|330:150|333:199|394:159,1,120,2|0,0:0|0:0,0:0:0:0:
336,69,103536,2,0,B|392:30|395:79|456:39,1,120,2|0,0:0|0:0,0:0:0:0:
498,147,104058,54,0,B|454:198|461:282|461:282|414:266|365:292,1,240,2|0,0:0|0:0,0:0:0:0:
266,332,105101,6,0,P|210:351|145:325,1,120,2|0,0:0|0:0,0:0:0:0:
40,272,105623,2,0,L|158:219,1,120,2|0,0:0|0:0,0:0:0:0:
220,119,106145,2,0,P|246:195|287:220,1,120,2|0,0:0|0:0,0:0:0:0:
315,51,106667,2,0,P|341:127|382:152,1,120,2|0,0:0|0:0,0:0:0:0:
430,230,107188,6,0,L|401:353,1,120,2|0,0:0|0:0,0:0:0:0:
303,332,107710,2,0,L|275:215,1,120,2|0,0:0|0:0,0:0:0:0:
220,101,108232,54,0,P|322:118|266:17,1,240,2|0,0:0|0:0,0:0:0:0:
146,23,109275,6,0,B|125:141,1,120,2|0,0:0|0:0,0:0:0:0:
157,238,109797,2,0,P|99:239|38:192,1,120,2|0,0:0|0:0,0:0:0:0:
126,335,110319,2,0,P|184:336|245:289,1,120,2|0,0:0|0:0,0:0:0:0:
314,226,110840,2,0,L|311:369,1,120,2|0,0:0|0:0,0:0:0:0:
406,244,111362,6,0,P|398:186|357:143,1,120,2|0,0:0|0:0,0:0:0:0:
260,161,111884,2,0,P|269:97|316:56,1,120,2|0,0:0|0:0,0:0:0:0:
421,21,112406,54,0,B|449:100|523:108|523:108|443:92|410:154,1,240,2|0,0:0|0:0,0:0:0:0:
490,194,113449,6,0,L|471:312,1,120,2|0,0:0|0:0,0:0:0:0:
374,260,113971,2,0,L|353:123,1,120,2|0,0:0|0:0,0:0:0:0:
254,189,114493,2,0,L|235:307,1,120,2|0,0:0|0:0,0:0:0:0:
131,340,115014,1,2,0:0:0:0:
2,165,115536,6,0,P|29:213|87:238,1,120,2|0,0:0|0:0,0:0:0:0:
106,131,116058,2,0,P|160:108|190:58,1,120,2|0,0:0|0:0,0:0:0:0:
307,29,116580,1,2,0:0:0:0:
457,65,116927,1,2,0:0:0:0:
457,65,117101,1,2,0:0:0:0:
387,280,117623,53,2,0:0:0:0:
334,165,118145,1,2,0:0:0:0:
268,274,118667,2,0,P|208:331|226:231,1,240,2|0,0:0|0:0,0:0:0:0:
90,282,119710,5,2,0:0:0:0:
143,167,120232,1,2,0:0:0:0:
244,274,120754,2,0,P|304:331|286:231,1,240,2|0,0:0|0:0,0:0:0:0:
476,184,121797,6,0,L|358:158,1,120,2|0,0:0|0:0,0:0:0:0:
327,59,122319,2,0,L|188:90,1,120,2|0,0:0|0:0,0:0:0:0:
128,18,122840,2,0,P|103:70|111:149,1,120,2|0,0:0|0:0,0:0:0:0:
22,209,123362,2,0,P|47:261|39:340,1,120,2|0,0:0|0:0,0:0:0:0:
149,317,123884,54,0,B|284:280,1,120,2|0,0:0|0:0,0:0:0:0:
245,183,124406,2,0,B|360:214,1,120,2|0,0:0|0:0,0:0:0:0:
390,116,124927,1,2,0:0:0:0:
489,249,125275,1,2,0:0:0:0:
440,182,125449,1,2,0:0:0:0:
256,192,125580,12,0,129623,0:0:0:0:
115,328,130067,38,0,B|182:334,1,60
115,328,130442,1,0,0:0:0:0:
6,306,130577,6,0,B|34:284|37:246|37:246|37:213|73:186,1,135,4|0,0:3|0:0,0:0:0:0:
122,128,130827,1,8,0:0:0:0:
202,253,130952,2,0,B|202:292|202:292|177:351,2,90,0|2|2,0:0|0:0|0:0,0:0:0:0:
272,120,131327,1,8,0:0:0:0:
350,315,131452,5,4,0:0:0:0:
423,188,131577,2,0,B|449:137|449:137|450:27,1,135
373,36,131827,2,0,P|322:23|271:60,1,90
206,171,132077,1,2,0:0:0:0:
137,32,132202,1,2,0:0:0:0:
206,171,132327,2,0,P|155:184|104:147,1,90,8|0,0:0|0:0,0:0:0:0:
247,348,132577,54,0,B|249:309|249:309|229:249,1,90,4|0,0:3|0:0,0:0:0:0:
74,239,132827,2,0,B|72:278|72:278|92:338,1,90,8|0,0:3|0:0,0:0:0:0:
290,196,133077,1,2,0:0:0:0:
180,52,133202,1,2,0:0:0:0:
37,158,133327,1,8,0:0:0:0:
273,118,133452,6,0,B|379:108|327:65|444:64,1,180,4|2,0:0|0:0,0:0:0:0:
507,213,133827,2,0,P|510:257|493:298,1,90,8|0,0:0|0:0,0:0:0:0:
372,384,134077,1,2,0:0:0:0:
375,236,134202,1,2,0:0:0:0:
250,320,134327,2,0,P|205:323|164:305,1,90,8|0,0:0|0:0,0:0:0:0:
63,112,134577,6,0,L|44:218,1,90,4|0,0:3|0:0,0:0:0:0:
164,13,134827,2,0,L|183:119,1,90,8|0,0:3|0:0,0:0:0:0:
307,183,135077,1,2,0:0:0:0:
339,28,135202,1,2,0:0:0:0:
339,203,135327,1,8,0:0:0:0:
475,38,135452,54,0,B|494:103|494:103|459:227,1,180,4|2,0:3|0:0,0:0:0:0:
301,267,135827,2,0,P|291:218|335:158,1,90,8|0,0:0|0:0,0:0:0:0:
474,288,136077,2,0,P|436:321|362:314,1,90,2|2,0:0|0:0,0:0:0:0:
403,129,136327,2,0,P|450:146|481:214,1,90,8|0,0:0|0:0,0:0:0:0:
222,198,136577,6,0,P|268:176|337:203,1,90,4|0,0:0|0:0,0:0:0:0:
249,351,136827,2,0,P|202:372|133:345,1,90,8|0,0:0|0:0,0:0:0:0:
43,213,137077,1,2,0:0:0:0:
221,278,137202,1,2,0:0:0:0:
28,237,137327,1,8,0:0:0:0:
224,118,137452,6,0,P|175:59|103:138,1,180,4|2,0:3|0:0,0:0:0:0:
71,303,137827,2,0,P|105:329|155:327,1,90,8|0,0:0|0:0,0:0:0:0:
341,199,138077,53,8,0:0:0:0:
142,189,138202,1,8,0:0:0:0:
358,164,138327,1,8,0:0:0:0:
210,7,138452,1,8,0:0:0:0:
290,277,138577,6,0,B|332:293|332:293|452:267,1,135,12|0,0:3|0:0,0:0:0:0:
478,219,138827,1,8,0:0:0:0:
395,88,138952,2,0,P|349:81|294:109,1,90,0|2,0:0|0:0,0:0:0:0:
227,224,139202,1,2,0:0:0:0:
147,93,139327,1,8,0:0:0:0:
99,283,139452,5,4,0:0:0:0:
19,153,139577,2,0,B|-2:200|-2:200|14:313,1,135
53,355,139827,2,0,P|97:369|155:348,1,90,8|2,0:0|0:0,0:0:0:0:
268,289,140077,1,2,0:0:0:0:
152,191,140202,1,2,0:0:0:0:
268,289,140327,2,0,P|309:273|353:280,1,90,8|2,0:0|0:0,0:0:0:0:
303,101,140577,54,0,L|325:188,1,90,4|0,0:3|0:0,0:0:0:0:
467,114,140827,2,0,L|490:26,1,90,8|0,0:3|0:0,0:0:0:0:
281,4,141077,1,2,0:0:0:0:
241,178,141202,1,2,0:0:0:0:
63,138,141327,1,8,0:0:0:0:
303,101,141452,6,0,P|339:148|295:259,1,180,4|2,0:0|0:0,0:0:0:0:
203,376,141827,2,0,P|160:345|153:300,1,90,8|0,0:0|0:0,0:0:0:0:
156,155,142077,1,2,0:0:0:0:
18,238,142202,1,2,0:0:0:0:
7,77,142327,2,0,B|43:58|43:58|116:57,1,90,8|0,0:0|0:0,0:0:0:0:
105,258,142577,6,0,B|85:222|85:222|83:148,1,90,4|0,0:0|0:0,0:0:0:0:
222,74,142827,2,0,B|241:109|241:109|243:183,1,90,8|0,0:0|0:0,0:0:0:0:
261,290,143077,1,2,0:0:0:0:
451,277,143202,1,2,0:0:0:0:
267,257,143327,1,8,0:0:0:0:
438,383,143452,54,0,B|338:408|366:341|232:368,1,180,4|2,0:0|0:0,0:0:0:0:
332,176,143827,2,0,P|331:225|389:273,1,90,8|0,0:0|0:0,0:0:0:0:
478,126,144077,2,0,P|434:98|362:125,1,90,2|2,0:0|0:0,0:0:0:0:
451,277,144327,2,0,P|494:250|508:177,1,90,8|0,0:0|0:0,0:0:0:0:
267,257,144577,6,0,B|301:269|301:269|381:252,1,90,4|0,0:0|0:0,0:0:0:0:
310,85,144827,2,0,B|276:73|276:73|196:90,1,90,8|0,0:0|0:0,0:0:0:0:
178,244,145077,1,0,0:0:0:0:
132,69,145202,1,0,0:0:0:0:
132,69,145264,1,0,0:0:0:0:
132,69,145327,2,0,B|98:81|98:81|18:64,1,90,8|0,0:0|0:0,0:0:0:0:
64,312,145577,5,12,0:3:0:0:
205,117,145702,1,2,0:0:0:0:
293,337,145827,1,2,0:0:0:0:
61,154,145952,53,12,0:3:0:0:
177,382,146077,1,2,0:0:0:0:
324,192,146202,1,2,0:0:0:0:
45,176,146327,2,0,B|46:219|46:219|79:288,1,90,12|2,0:3|0:0,0:0:0:0:
229,11,146577,6,0,B|186:16|186:16|99:57,1,107.999996704102,12|2,0:3|0:0,0:0:0:0:
331,172,146827,2,0,B|373:166|373:166|460:125,1,107.999996704102,8|2,0:3|0:0,0:0:0:0:
154,227,147077,1,8,0:0:0:0:
352,348,147202,1,2,0:0:0:0:
352,348,147264,1,2,0:0:0:0:
352,348,147327,1,10,0:0:0:0:
260,120,147452,1,2,0:0:0:0:
206,356,147577,6,0,L|53:341,1,107.999996704102,8|2,0:0|0:0,0:0:0:0:
278,238,147827,2,0,L|431:223,1,107.999996704102,8|2,0:0|0:0,0:0:0:0:
511,79,148014,1,2,0:0:0:0:
511,79,148077,2,0,P|471:22|410:13,1,107.999996704102,8|2,0:0|0:0,0:0:0:0:
389,202,148264,1,2,0:0:0:0:
389,202,148327,2,0,P|456:195|494:146,1,107.999996704102,8|2,0:0|0:0,0:0:0:0:
348,40,148577,54,0,P|318:101|341:158,1,107.999996704102,8|2,0:0|0:0,0:0:0:0:
136,98,148827,2,0,P|142:45|114:0,1,107.999996704102,8|2,0:0|0:0,0:0:0:0:
26,225,149077,1,8,0:0:0:0:
204,354,149202,1,2,0:0:0:0:
204,354,149264,1,2,0:0:0:0:
204,354,149327,1,10,0:0:0:0:
384,261,149452,1,2,0:0:0:0:
234,99,149577,6,0,L|102:77,1,107.999996704102,8|2,0:0|0:0,0:0:0:0:
36,279,149827,2,0,L|186:263,1,107.999996704102,8|2,0:0|0:0,0:0:0:0:
204,354,150014,1,2,0:0:0:0:
204,354,150077,2,0,B|248:346|248:346|314:274,1,107.999996704102,8|2,0:0|0:0,0:0:0:0:
428,270,150264,1,2,0:0:0:0:
428,270,150327,2,0,B|383:262|383:262|317:190,1,107.999996704102,8|2,0:0|0:0,0:0:0:0:
260,44,150577,5,12,0:3:0:0:
236,259,150702,1,2,0:0:0:0:
60,134,150827,2,0,P|69:80|136:38,1,107.999996704102,8|2,0:0|0:0,0:0:0:0:
261,239,151077,1,8,0:0:0:0:
74,341,151202,2,0,P|42:296|59:219,1,107.999996704102,2|8,0:0|0:0,0:0:0:0:
293,315,151451,1,2,0:0:0:0:
182,129,151577,54,0,B|154:168|154:168|148:249,1,107.999996704102,8|2,0:0|0:0,0:0:0:0:
360,373,151827,1,8,0:0:0:0:
328,145,151952,1,2,0:0:0:0:
214,344,152077,1,8,0:0:0:0:
459,273,152202,1,2,0:0:0:0:
183,357,152327,2,0,P|129:332|85:275,1,107.999996704102,8|2,0:0|0:0,0:0:0:0:
354,217,152577,6,0,B|355:265|355:265|302:340,1,107.999996704102,8|2,0:0|0:0,0:0:0:0:
154,105,152827,1,8,0:0:0:0:
411,158,152952,1,2,0:0:0:0:
188,183,153077,1,8,0:0:0:0:
367,86,153202,1,2,0:0:0:0:
173,267,153327,1,8,0:0:0:0:
370,5,153452,1,2,0:0:0:0:
433,337,153577,6,0,P|393:369|303:383,1,107.999996704102,8|2,0:0|0:0,0:0:0:0:
280,140,153827,1,8,0:0:0:0:
428,253,153952,1,2,0:0:0:0:
207,185,154077,1,8,0:0:0:0:
484,194,154202,1,2,0:0:0:0:
300,57,154327,1,8,0:0:0:0:
251,347,154452,1,2,0:0:0:0:
76,179,154577,54,0,P|62:232|78:285,1,107.999996704102,12|2,0:3|0:0,0:0:0:0:
310,228,154827,2,0,P|322:173|306:121,1,107.999996704102,8|2,0:0|0:0,0:0:0:0:
90,42,155077,1,8,0:0:0:0:
211,244,155202,1,2,0:0:0:0:
211,244,155264,1,2,0:0:0:0:
211,244,155327,1,10,0:0:0:0:
235,17,155452,1,2,0:0:0:0:
392,182,155577,6,0,L|519:144,1,107.999996704102,8|2,0:0|0:0,0:0:0:0:
354,345,155827,2,0,L|227:307,1,107.999996704102,8|2,0:0|0:0,0:0:0:0:
78,287,156014,1,2,0:0:0:0:
78,287,156077,2,0,P|90:338|127:377,1,107.999996704102,8|2,0:0|0:0,0:0:0:0:
234,230,156264,1,2,0:0:0:0:
234,230,156327,2,0,P|272:192|287:141,1,107.999996704102,8|2,0:0|0:0,0:0:0:0:
104,119,156577,6,0,P|52:104|0:117,1,107.999996704102,8|2,0:0|0:0,0:0:0:0:
208,15,156827,2,0,P|259:29|311:16,1,107.999996704102,8|2,0:0|0:0,0:0:0:0:
501,123,157077,1,8,0:0:0:0:
404,330,157202,1,2,0:0:0:0:
404,330,157264,1,2,0:0:0:0:
404,330,157327,1,10,0:0:0:0:
186,337,157452,1,2,0:0:0:0:
92,146,157577,54,0,L|111:5,1,107.999996704102,8|2,0:0|0:0,0:0:0:0:
268,167,157827,2,0,L|282:274,1,107.999996704102,8|2,0:0|0:0,0:0:0:0:
162,355,158014,1,2,0:0:0:0:
162,355,158077,2,0,B|144:315|144:315|143:214,1,107.999996704102,8|2,0:0|0:0,0:0:0:0:
19,255,158264,1,2,0:0:0:0:
19,255,158327,2,0,B|30:212|30:212|16:112,1,107.999996704102,8|2,0:0|0:0,0:0:0:0:
185,37,158577,5,12,0:3:0:0:
212,242,158702,1,2,0:0:0:0:
220,30,158827,2,0,B|262:27|262:27|360:65,1,107.999996704102,8|2,0:0|0:0,0:0:0:0:
112,133,159077,1,8,0:0:0:0:
329,149,159202,2,0,B|361:177|361:177|403:273,1,107.999996704102,2|8,0:0|0:0,0:0:0:0:
185,37,159452,1,2,0:0:0:0:
428,39,159577,6,0,L|483:155,1,107.999996704102,8|2,0:0|0:0,0:0:0:0:
359,357,159827,1,8,0:0:0:0:
210,199,159952,1,2,0:0:0:0:
435,211,160077,1,8,0:0:0:0:
205,339,160202,1,2,0:0:0:0:
469,230,160327,2,0,B|479:264|479:264|454:358,1,107.999996704102,8|2,0:0|0:0,0:0:0:0:
339,88,160577,54,0,L|224:53,1,107.999996704102,8|2,0:0|0:0,0:0:0:0:
101,259,160827,1,8,0:0:0:0:
292,162,160952,1,2,0:0:0:0:
61,178,161077,1,8,0:0:0:0:
313,242,161202,1,2,0:0:0:0:
90,95,161327,1,8,0:0:0:0:
211,370,161452,1,2,0:0:0:0:
428,132,161577,6,0,B|432:92|432:92|407:18,1,107.999996704102,8|8,0:0|0:0,0:0:0:0:
329,4,161764,1,8,0:0:0:0:
329,4,161827,1,10,0:0:0:0:
73,175,161952,1,8,0:0:0:0:
386,350,162077,1,8,0:0:0:0:
231,23,162202,1,8,0:0:0:0:
165,378,162327,1,8,0:0:0:0:
428,132,162452,1,8,0:0:0:0:
215,173,162827,5,2,2:0:0:0:
256,192,162889,12,0,169077,0:0:0:0:
93,154,171647,6,0,B|90:119|90:119|114:58,2,60
131,18,172168,1,2,0:0:0:0:
181,200,172515,1,0,0:0:0:0:
99,95,172689,2,0,B|128:110|128:110|154:154,1,60,2|0,0:0|0:0,0:0:0:0:
181,200,173038,1,0,0:0:0:0:
316,179,173212,2,0,B|288:196|288:196|238:196,1,60,2|0,0:0|0:0,0:0:0:0:
181,200,173560,1,0,0:0:0:0:
135,325,173734,2,0,B|134:292|134:292|159:248,1,60,2|0,0:0|0:0,0:0:0:0:
181,200,174082,1,0,0:0:0:0:
256,98,174254,5,2,0:0:0:0:
278,97,174428,1,0,0:0:0:0:
302,96,174602,1,0,0:0:0:0:
389,189,174776,5,2,0:0:0:0:
365,190,174950,1,0,0:0:0:0:
343,191,175124,1,0,0:0:0:0:
460,119,175298,54,0,B|477:192|477:192|457:265,1,150,2|0,0:0|0:0,0:0:0:0:
358,335,176341,6,0,B|329:334|301:354|301:354|277:326|230:326,1,120,2|0,0:0|0:0,0:0:0:0:
143,352,176863,2,0,B|174:237,1,120,2|0,0:0|0:0,0:0:0:0:
36,171,177385,2,0,B|44:202|54:218|54:218|52:245|52:245|63:264|67:287,1,120,2|0,0:0|0:0,0:0:0:0:
136,149,177907,2,0,P|176:102|194:160,1,120,2|0,0:0|0:0,0:0:0:0:
291,209,178428,6,0,B|316:170|315:118|315:118|295:148,1,120,2|0,0:0|0:0,0:0:0:0:
409,135,178950,2,0,B|434:96|433:44|433:44|413:74,1,120,2|0,0:0|0:0,0:0:0:0:
307,47,179472,54,0,B|221:76|170:27|170:27|202:82|156:117,1,240,2|0,0:0|0:0,0:0:0:0:
5,180,180515,6,0,P|65:200|88:131,1,120,2|0,0:0|0:0,0:0:0:0:
127,304,181037,2,0,P|67:284|44:353,1,120,2|0,0:0|0:0,0:0:0:0:
187,371,181559,2,0,P|233:388|293:340,1,120,2|0,0:0|0:0,0:0:0:0:
374,358,182081,2,0,P|420:375|480:327,1,120,2|0,0:0|0:0,0:0:0:0:
506,254,182602,6,0,B|479:195|517:198|481:129,1,120,2|0,0:0|0:0,0:0:0:0:
396,88,183124,2,0,B|364:148|402:145|375:204,1,120,2|0,0:0|0:0,0:0:0:0:
319,280,183646,54,0,B|265:234|207:258|197:258|190:258|141:281|83:225,1,240,2|0,0:0|0:0,0:0:0:0:
32,145,184689,6,0,B|50:26,1,120,2|0,0:0|0:0,0:0:0:0:
156,132,185211,2,0,B|177:269,1,120,2|0,0:0|0:0,0:0:0:0:
83,305,185733,2,0,B|86:341|101:366|101:366|140:378|177:369,1,120,2|0,0:0|0:0,0:0:0:0:
256,339,186254,2,0,B|283:362|311:369|311:369|347:350|367:317,1,120,2|0,0:0|0:0,0:0:0:0:
449,272,186776,6,0,B|406:219|453:211|409:154,1,120,2|0,0:0|0:0,0:0:0:0:
330,211,187298,2,0,B|273:174|316:152|256:112,1,120,2|0,0:0|0:0,0:0:0:0:
275,24,187820,54,0,B|195:15|162:92|162:92|110:99|85:35,1,240,2|0,0:0|0:0,0:0:0:0:
14,119,188863,6,0,B|5:188|39:158|33:235,1,120,2|0,0:0|0:0,0:0:0:0:
121,306,189385,2,0,B|115:229|149:259|139:183,1,120,2|0,0:0|0:0,0:0:0:0:
208,289,189907,2,0,P|266:288|327:335,1,120,2|0,0:0|0:0,0:0:0:0:
242,377,190428,1,2,0:0:0:0:
402,355,190950,6,0,B|415:303|399:263|399:263|390:302,1,120,2|0,0:0|0:0,0:0:0:0:
320,219,191472,2,0,B|307:167|323:127|323:127|332:166,1,120,2|0,0:0|0:0,0:0:0:0:
418,155,191994,1,2,0:0:0:0:
302,24,192341,1,2,0:0:0:0:
302,24,192515,1,2,0:0:0:0:
171,254,193037,53,2,0:0:0:0:
116,129,193559,1,2,0:0:0:0:
47,259,194081,2,0,B|0:305|32:370|32:370|110:352|108:275,1,240,2|0,0:0|0:0,0:0:0:0:
196,321,195124,5,2,0:0:0:0:
254,189,195646,1,2,0:0:0:0:
113,181,196168,2,0,B|66:135|98:70|98:70|176:88|174:165,1,240,2|0,0:0|0:0,0:0:0:0:
223,60,197211,6,0,P|266:34|348:75,1,120,2|0,0:0|0:0,0:0:0:0:
397,130,197733,2,0,P|354:156|272:115,1,120,2|0,0:0|0:0,0:0:0:0:
471,59,198254,54,0,P|500:120|478:193,1,120,2|0,0:0|0:0,0:0:0:0:
401,324,198841,2,0,B|361:288|330:291|330:291|341:238|297:176|297:176|295:253|219:292|219:292|170:228|228:102|228:102|183:131|127:118,1,647.99998022461,2|0,0:0|0:0,0:0:0:0:
23,66,202113,38,0,B|42:24,3,36,2|2|2|2,0:0|0:0|0:0|0:0,0:0:0:0:
37,87,202319,6,0,B|13:139|13:139|19:172|19:172|-5:238,2,144,6|2|2,0:0|0:0|0:0,0:0:0:0:
117,186,202939,2,0,L|94:255,1,72,2|0,0:0|0:0,0:0:0:0:
229,319,203146,6,0,P|301:351|373:324,2,144,6|2|2,0:3|0:0|0:0,0:0:0:0:
302,252,203767,2,0,P|343:244|377:212,1,72,2|0,0:0|0:0,0:0:0:0:
512,217,203974,54,0,L|372:126,2,144,6|2|2,0:0|0:0|0:0,0:0:0:0:
450,74,204594,2,0,L|518:119,1,72,2|0,0:0|0:0,0:0:0:0:
314,159,204801,6,0,B|254:186|254:186|141:168,1,180,12|2,0:3|0:0,0:0:0:0:
327,80,205112,2,0,B|272:159|365:172|285:275,1,180,12|2,0:3|0:0,0:0:0:0:
154,42,205422,2,0,B|193:32|193:32|275:46,1,90,8|0,0:0|0:0,0:0:0:0:
48,156,205629,6,0,L|68:-16,2,144,6|2|2,0:0|0:0|0:0,0:0:0:0:
132,239,206250,2,0,L|142:153,1,72,2|0,0:0|0:0,0:0:0:0:
15,305,206456,54,0,B|94:277|81:348|178:311,1,144,6|2,0:3|0:0,0:0:0:0:
368,253,206870,1,0,0:0:0:0:
392,273,206974,2,0,L|412:186,1,90,8|2,0:0|0:0,0:0:0:0:
277,332,207181,1,10,0:0:0:0:
301,352,207284,1,4,0:0:0:0:
512,275,207491,5,2,0:0:0:0:
488,255,207594,2,0,P|498:215|487:156,1,90,8|2,0:0|0:0,0:0:0:0:
317,95,207801,2,0,P|310:139|320:182,1,90,8|2,0:0|0:0,0:0:0:0:
388,46,208008,1,8,0:0:0:0:
378,16,208112,6,0,P|318:21|252:-7,1,90,4|0,0:3|0:0,0:0:0:0:
117,81,208319,1,8,0:0:0:0:
114,119,208422,2,0,L|233:96,1,90,4|0,0:3|0:0,0:0:0:0:
250,215,208629,1,8,0:0:0:0:
246,250,208732,2,0,L|127:227,1,90,2|0,0:0|0:0,0:0:0:0:
338,303,208939,54,0,P|404:264|487:297,2,144,6|2|2,0:0|0:0|0:0,0:0:0:0:
430,179,209560,2,0,P|475:184|517:215,1,72,2|0,0:0|0:0,0:0:0:0:
294,140,209767,6,0,B|244:133|244:133|143:166,2,144,6|2|2,0:3|0:0|0:0,0:0:0:0:
325,31,210387,2,0,L|263:43,3,36,2|2|2|2,0:0|0:0|0:0|0:0,0:0:0:0:
342,49,210594,6,0,B|392:42|392:42|493:75,2,144,6|2|2,0:3|0:0|0:0,0:0:0:0:
205,42,211215,2,0,L|137:67,1,72,2|0,0:0|0:0,0:0:0:0:
17,176,211422,54,0,P|6:77|86:16,1,180,12|2,0:3|0:0,0:0:0:0:
186,287,211732,2,0,L|1:261,1,180,12|2,0:3|0:0,0:0:0:0:
243,211,212043,2,0,L|347:196,1,90,8|0,0:0|0:0,0:0:0:0:
474,296,212250,6,0,P|518:237|509:162,2,144,6|2|2,0:0|0:0|0:0,0:0:0:0:
410,140,212870,2,0,P|414:176|438:203,1,72,2|0,0:0|0:0,0:0:0:0:
397,339,213077,6,0,B|320:301|323:364|239:317,2,144,6|2|2,0:3|0:0|0:0,0:0:0:0:
233,236,213698,2,0,P|272:236|320:264,1,72,2|0,0:0|0:0,0:0:0:0:
415,177,213905,53,12,0:3:0:0:
208,61,214043,1,8,0:0:0:0:
186,298,214181,1,8,0:0:0:0:
430,212,214319,5,8,0:0:0:0:
234,33,214456,1,8,0:0:0:0:
150,286,214594,1,8,0:0:0:0:
47,339,215560,5,6,0:0:0:0:
47,339,215663,2,0,L|29:226,1,90,8|2,0:0|0:0,0:0:0:0:
192,251,215870,2,0,L|177:339,1,90,8|2,0:0|0:0,0:0:0:0:
18,168,216077,2,0,L|0:55,1,90,8|2,0:0|0:0,0:0:0:0:
208,89,216284,53,8,0:0:0:0:
198,169,216387,1,2,0:0:0:0:
263,220,216491,1,8,0:0:0:0:
339,192,216594,1,2,0:0:0:0:
357,112,216698,2,0,P|333:76|284:50,1,90,8|2,0:0|0:0,0:0:0:0:
263,220,216905,2,0,P|285:254|332:278,1,90,8|2,0:0|0:0,0:0:0:0:
486,194,217112,5,8,0:0:0:0:
484,108,217215,1,2,0:0:0:0:
409,65,217318,1,8,0:0:0:0:
335,109,217422,1,2,0:0:0:0:
339,192,217525,2,0,L|424:250,1,90,8|2,0:0|0:0,0:0:0:0:
261,311,217732,2,0,L|187:261,1,90,8|2,0:0|0:0,0:0:0:0:
55,371,217939,5,8,0:0:0:0:
75,276,218042,1,2,0:0:0:0:
33,187,218145,1,8,0:0:0:0:
23,90,218249,1,2,0:0:0:0:
88,21,218352,1,8,0:0:0:0:
184,22,218456,1,2,0:0:0:0:
239,98,218560,2,0,P|223:140|187:166,2,90,8|2|8,0:0|0:0|0:0,0:0:0:0:
242,351,218870,53,6,0:0:0:0:
242,351,218974,2,0,B|286:352|286:352|358:325,1,90,8|2,0:0|0:0,0:0:0:0:
495,269,219181,2,0,B|450:270|450:270|378:243,1,90,8|2,0:0|0:0,0:0:0:0:
229,196,219387,2,0,B|273:197|273:197|345:170,1,90,8|2,0:0|0:0,0:0:0:0:
499,117,219594,5,8,0:0:0:0:
418,112,219698,1,2,0:0:0:0:
354,61,219801,1,8,0:0:0:0:
273,56,219905,1,2,0:0:0:0:
196,31,220008,2,0,L|175:144,1,90,8|2,0:0|0:0,0:0:0:0:
1,116,220215,2,0,L|17:27,1,90,8|2,0:0|0:0,0:0:0:0:
141,198,220422,5,8,0:0:0:0:
51,191,220525,1,0,0:0:0:0:
2,267,220629,1,8,0:0:0:0:
35,350,220732,1,0,0:0:0:0:
124,359,220836,2,0,B|156:335|156:335|188:265,1,90,8|2,0:0|0:0,0:0:0:0:
107,117,221043,2,0,B|111:156|111:156|156:219,1,90,8|2,0:0|0:0,0:0:0:0:
323,228,221250,2,0,B|286:212|286:212|209:219,1,90,8|2,0:0|0:0,0:0:0:0:
444,344,221456,53,8,0:0:0:0:
492,179,221560,1,10,0:0:0:0:
349,319,221663,2,0,L|226:306,1,90,8|2,0:0|0:0,0:0:0:0:
512,277,221870,5,8,0:0:0:0:
400,152,221974,1,10,0:0:0:0:
349,319,222077,1,8,0:0:0:0:
421,247,222181,5,6,0:0:0:0:
421,247,222284,2,0,L|502:166,1,90,8|2,0:0|0:0,0:0:0:0:
336,88,222491,2,0,L|417:169,1,90,8|2,0:0|0:0,0:0:0:0:
229,221,222698,2,0,L|310:140,1,90,8|2,0:0|0:0,0:0:0:0:
146,78,222905,53,8,0:0:0:0:
86,23,223008,1,2,0:0:0:0:
17,65,223111,1,8,0:0:0:0:
37,143,223215,1,2,0:0:0:0:
117,152,223319,2,0,P|145:190|139:242,1,90,8|2,0:0|0:0,0:0:0:0:
28,365,223525,2,0,P|0:326|5:274,1,90,8|2,0:0|0:0,0:0:0:0:
189,306,223732,5,8,0:0:0:0:
266,352,223836,1,2,0:0:0:0:
355,349,223939,1,8,0:0:0:0:
434,305,224043,1,2,0:0:0:0:
482,229,224146,2,0,B|495:191|495:191|484:114,1,90,8|2,0:0|0:0,0:0:0:0:
348,20,224353,2,0,B|336:57|336:57|351:134,1,90,8|2,0:0|0:0,0:0:0:0:
307,275,224560,5,8,0:0:0:0:
227,219,224663,1,2,0:0:0:0:
129,225,224766,1,8,0:0:0:0:
37,202,224870,1,2,0:0:0:0:
7,111,224973,1,8,0:0:0:0:
65,36,225077,1,2,0:0:0:0:
159,41,225181,2,0,P|199:54|235:88,2,90,8|2|8,0:0|0:0|0:0,0:0:0:0:
398,156,225491,53,6,0:0:0:0:
398,156,225594,2,0,P|342:165|301:209,1,90,8|2,0:0|0:0,0:0:0:0:
458,293,225801,2,0,L|478:205,1,90,8|2,0:0|0:0,0:0:0:0:
307,275,226008,2,0,L|335:396,1,90,8|2,0:0|0:0,0:0:0:0:
158,297,226215,5,8,0:0:0:0:
180,218,226319,1,2,0:0:0:0:
147,144,226422,1,8,0:0:0:0:
68,122,226526,1,2,0:0:0:0:
1,167,226629,2,0,L|-27:265,1,90,8|2,0:0|0:0,0:0:0:0:
133,383,226836,2,0,L|161:285,1,90,8|2,0:0|0:0,0:0:0:0:
336,200,227043,5,8,0:0:0:0:
250,168,227146,1,2,0:0:0:0:
252,77,227250,1,8,0:0:0:0:
339,53,227353,1,2,0:0:0:0:
388,127,227456,2,0,L|495:94,1,90,8|2,0:0|0:0,0:0:0:0:
263,255,227663,2,0,L|238:364,1,90,8|2,0:0|0:0,0:0:0:0:
225,84,227870,2,0,L|142:7,1,90,8|2,0:0|0:0,0:0:0:0:
36,231,228077,53,8,0:0:0:0:
212,167,228181,1,10,0:0:0:0:
76,45,228284,2,0,L|51:154,1,90,8|2,0:0|0:0,0:0:0:0:
96,326,228491,5,8,0:0:0:0:
212,167,228595,1,10,0:0:0:0:
292,343,228698,1,8,0:0:0:0:
203,264,228801,6,0,B|191:305|191:305|205:363,1,90,2|2,0:0|0:0,0:0:0:0:
216,365,229059,1,2,0:0:0:0:
216,365,229111,1,2,0:0:0:0:
216,365,229163,1,2,0:0:0:0:
216,365,229214,54,0,B|308:382|262:315|385:315,1,175.499991966248,14|0,0:0|0:0,0:0:0:0:
463,288,229628,1,0,0:0:0:0:
490,304,229732,2,0,P|496:275|492:244,1,58.4999973220826,8|0,0:0|0:0,0:0:0:0:
363,85,230042,2,0,P|294:132|218:98,1,175.499991966248,8|0,0:0|0:0,0:0:0:0:
289,53,230456,5,2,0:0:0:0:
289,53,230663,1,2,0:0:0:0:
470,124,230869,2,0,B|499:178|499:178|455:283,1,175.499991966248,8|8,0:0|0:0,0:0:0:0:
403,363,231283,1,0,0:0:0:0:
381,347,231387,2,0,P|363:316|365:255,1,58.4999973220826,8|0,0:0|0:0,0:0:0:0:
186,204,231697,2,0,B|115:196|115:196|81:216|81:216|-1:205,1,175.499991966248,8|0,0:0|0:0,0:0:0:0:
6,112,232111,5,2,0:0:0:0:
6,112,232318,1,2,0:0:0:0:
210,50,232525,2,0,B|224:163|259:105|278:233,1,175.499991966248,8|8,0:0|0:0,0:0:0:0:
208,290,232938,1,0,0:0:0:0:
190,312,233042,2,0,P|157:315|126:305,1,58.4999973220826,8|0,0:0|0:0,0:0:0:0:
339,338,233352,2,0,P|414:294|516:367,1,175.499991966248,8|0,0:0|0:0,0:0:0:0:
425,383,233766,53,2,0:0:0:0:
425,383,233973,1,2,0:0:0:0:
456,173,234180,2,0,B|466:129|414:100|414:100|362:127|375:171,1,175.499991966248,8|8,0:0|0:0,0:0:0:0:
286,217,234594,5,10,0:0:0:0:
247,211,234663,1,2,0:0:0:0:
208,205,234732,1,2,0:0:0:0:
170,200,234801,1,2,0:0:0:0:
131,194,234869,1,2,0:0:0:0:
92,189,234938,1,2,0:0:0:0:
59,149,235007,5,6,0:0:0:0:
84,145,235076,1,2,0:0:0:0:
110,141,235145,1,2,0:0:0:0:
136,137,235214,1,2,0:0:0:0:
161,134,235283,1,2,0:0:0:0:
187,130,235352,1,2,0:0:0:0:
213,126,235421,54,0,L|359:106,1,116.999994644165,4|0,0:3|0:0,0:0:0:0:
506,27,235835,2,0,L|360:7,1,116.999994644165,8|0,0:0|0:0,0:0:0:0:
320,85,236145,1,8,0:0:0:0:
328,110,236249,1,2,0:0:0:0:
402,150,236352,1,8,0:0:0:0:
410,175,236456,1,2,0:0:0:0:
288,350,236663,2,0,B|336:321|336:321|424:310,1,116.999994644165,8|2,0:0|0:0,0:0:0:0:
487,329,236973,1,8,0:0:0:0:
498,305,237076,5,2,0:0:0:0:
478,153,237283,1,2,0:0:0:0:
270,254,237490,2,0,L|150:228,1,116.999994644165,8|2,0:0|0:0,0:0:0:0:
64,242,237801,1,8,0:0:0:0:
72,217,237904,1,2,0:0:0:0:
140,143,238007,1,8,0:0:0:0:
148,118,238111,1,2,0:0:0:0:
333,36,238318,2,0,P|276:58|213:23,1,116.999994644165,8|2,0:0|0:0,0:0:0:0:
152,2,238628,1,8,0:0:0:0:
143,27,238732,5,2,0:0:0:0:
27,133,238938,1,2,0:0:0:0:
39,342,239145,2,0,P|95:316|149:333,1,116.999994644165,8|2,0:0|0:0,0:0:0:0:
228,362,239456,1,8,0:0:0:0:
251,349,239559,1,2,0:0:0:0:
335,351,239663,1,8,0:0:0:0:
359,339,239766,1,2,0:0:0:0:
512,185,239973,2,0,P|456:159|402:176,1,116.999994644165,8|2,0:0|0:0,0:0:0:0:
337,215,240283,1,8,0:0:0:0:
348,241,240387,53,2,0:0:0:0:
378,86,240594,1,2,0:0:0:0:
222,151,240801,5,10,0:0:0:0:
170,129,240869,1,10,0:0:0:0:
150,76,240938,1,10,0:0:0:0:
175,25,241007,1,10,0:0:0:0:
228,8,241076,1,10,0:0:0:0:
278,36,241145,1,10,0:0:0:0:
291,92,241214,5,8,0:0:0:0:
71,118,241559,54,0,P|15:104|83:93,1,155.999992858887,2|2,0:0|0:0,0:0:0:0:
71,345,242042,6,0,P|50:284|54:229,1,116.999994644165,4|2,0:3|0:0,0:0:0:0:
247,170,242456,2,0,P|268:231|263:285,1,116.999994644165,8|2,0:0|0:0,0:0:0:0:
254,367,242766,1,8,0:0:0:0:
279,360,242869,1,2,0:0:0:0:
366,363,242973,1,8,0:0:0:0:
390,351,243076,1,2,0:0:0:0:
491,154,243283,2,0,B|442:155|442:155|374:117,1,116.999994644165,8|2,0:0|0:0,0:0:0:0:
317,73,243594,1,8,0:0:0:0:
336,54,243697,5,2,0:0:0:0:
350,205,243904,1,2,0:0:0:0:
179,71,244111,2,0,B|150:36|150:36|134:122,1,116.999994644165,8|2,0:0|0:0,0:0:0:0:
124,198,244421,1,8,0:0:0:0:
118,223,244525,1,0,0:0:0:0:
65,311,244628,1,8,0:0:0:0:
71,336,244732,1,0,0:0:0:0:
264,282,244938,2,0,B|293:247|293:247|309:333,1,116.999994644165,8|0,0:0|0:0,0:0:0:0:
387,356,245249,1,8,0:0:0:0:
393,331,245352,53,0,0:0:0:0:
412,176,245559,1,2,0:0:0:0:
289,19,245766,2,0,L|429:45,1,116.999994644165,8|2,0:0|0:0,0:0:0:0:
362,115,246076,1,8,0:0:0:0:
337,121,246180,1,2,0:0:0:0:
266,171,246283,1,8,0:0:0:0:
241,165,246387,1,2,0:0:0:0:
56,33,246594,2,0,L|171:11,1,116.999994644165,8|2,0:0|0:0,0:0:0:0:
228,64,246904,1,8,0:0:0:0:
234,89,247007,5,2,0:0:0:0:
264,246,247214,1,2,0:0:0:0:
137,354,247421,5,10,0:0:0:0:
125,297,247490,1,10,0:0:0:0:
114,239,247559,1,10,0:0:0:0:
102,182,247628,1,10,0:0:0:0:
92,124,247697,1,10,0:0:0:0:
81,67,247766,1,10,0:0:0:0:
70,10,247835,53,10,0:0:0:0:
500,64,248663,6,0,B|443:42|396:76|396:76|347:50|347:50|317:77|223:56,1,270,6|2,0:3|0:0,0:0:0:0:
155,52,249352,1,2,0:0:0:0:
159,68,249421,1,2,0:0:0:0:
164,85,249490,2,0,P|164:130|123:182,1,90,10|2,0:0|0:0,0:0:0:0:
206,221,249801,2,0,P|167:245|101:235,1,90,2|2,0:0|0:0,0:0:0:0:
35,229,250111,1,2,0:0:0:0:
249,326,250318,5,12,0:0:0:0:
112,163,250628,1,2,0:3:0:0:
325,115,250938,1,2,0:0:0:0:
352,104,251007,1,2,0:0:0:0:
382,102,251076,1,2,0:0:0:0:
411,109,251145,1,10,0:0:0:0:
418,241,251352,1,2,0:0:0:0:
390,250,251421,1,2,0:0:0:0:
361,253,251490,1,2,0:0:0:0:
331,247,251559,1,10,0:0:0:0:
371,178,251766,1,2,0:0:0:0:
420,327,251973,54,0,B|465:358|465:358|401:378|363:330|285:317|238:378,1,270,6|2,0:3|0:0,0:0:0:0:
167,379,252663,1,2,0:0:0:0:
164,361,252732,1,2,0:0:0:0:
161,343,252801,2,0,L|144:243,1,90,10|2,0:0|0:0,0:0:0:0:
125,170,253111,2,0,L|46:234,1,90,2|2,0:0|0:0,0:0:0:0:
0,291,253421,1,2,0:0:0:0:
6,72,253628,5,12,0:0:0:0:
79,320,253938,1,2,0:0:0:0:
259,136,254249,1,2,0:0:0:0:
249,165,254318,1,2,0:0:0:0:
240,193,254387,1,2,0:0:0:0:
231,222,254456,1,10,0:0:0:0:
343,292,254663,1,2,0:0:0:0:
335,262,254732,1,2,0:0:0:0:
328,233,254801,1,2,0:0:0:0:
321,204,254869,1,10,0:0:0:0:
255,307,255076,1,2,0:0:0:0:
430,276,255283,6,0,B|446:218|432:182|432:182|416:135|445:98|445:98|442:145|472:190,1,270,6|2,0:0|0:0,0:0:0:0:
510,246,255973,1,2,0:0:0:0:
512,267,256042,1,2,0:0:0:0:
512,287,256111,2,0,P|503:322|460:356,1,90,10|2,0:0|0:0,0:0:0:0:
378,338,256421,2,0,P|346:356|292:350,1,90,2|2,0:0|0:0,0:0:0:0:
243,279,256732,1,2,0:0:0:0:
23,182,256938,53,12,0:0:0:0:
207,362,257249,1,2,0:0:0:0:
277,151,257559,1,2,0:0:0:0:
247,145,257628,1,2,0:0:0:0:
218,147,257697,1,2,0:0:0:0:
190,156,257766,1,10,0:0:0:0:
68,78,257973,1,2,0:0:0:0:
97,72,258042,1,2,0:0:0:0:
126,74,258111,1,2,0:0:0:0:
154,83,258180,1,10,0:0:0:0:
107,155,258387,1,2,0:0:0:0:
265,72,258594,6,0,B|310:81|339:54|339:54|369:29|420:24|420:24|458:82|528:63,1,270,6|2,0:3|0:0,0:0:0:0:
488,148,259283,1,2,0:0:0:0:
489,169,259352,1,2,0:0:0:0:
491,189,259421,2,0,B|470:228|470:228|422:251,1,90,10|2,0:0|0:0,0:0:0:0:
381,324,259732,2,0,B|338:336|338:336|288:319,1,90,2|2,0:0|0:0,0:0:0:0:
208,340,260042,1,2,0:0:0:0:
271,92,260249,5,14,0:0:0:0:
124,309,260559,1,2,0:0:0:0:
78,156,260869,1,2,0:0:0:0:
62,180,260938,1,2,0:0:0:0:
53,210,261007,1,2,0:0:0:0:
53,240,261076,1,10,0:0:0:0:
270,226,261387,1,2,0:0:0:0:
117,62,261697,1,2,0:0:0:0:
177,167,261904,1,2,0:0:0:0:
458,151,262318,53,14,0:0:0:0:
256,192,262421,12,0,269559,0:0:0:0:
212,299,269780,38,0,P|167:303|116:278,2,60
71,294,270301,1,2,0:0:0:0:
257,216,270648,1,0,0:0:0:0:
152,299,270823,2,0,P|167:270|211:244,1,60,2|0,0:0|0:0,0:0:0:0:
257,216,271171,1,0,0:0:0:0:
236,82,271345,2,0,P|253:109|253:160,1,60,2|0,0:0|0:0,0:0:0:0:
257,216,271693,1,0,0:0:0:0:
382,263,271867,6,0,L|309:238,2,60,2|0|0,0:0|0:0|0:0,0:0:0:0:
257,216,272387,1,2,0:0:0:0:
106,109,272735,1,0,0:0:0:0:
236,82,272909,2,0,L|159:97,1,60,2|0,0:0|0:0,0:0:0:0:
106,109,273257,1,0,0:0:0:0:
63,236,273431,2,0,L|87:157,1,60,2|0,0:0|0:0,0:0:0:0:
106,109,273779,1,0,0:0:0:0:
15,9,273953,6,0,B|30:46|30:46|66:70,2,60,2|0|0,0:0|0:0|0:0,0:0:0:0:
106,109,274474,1,2,0:0:0:0:
287,137,274822,1,0,0:0:0:0:
237,11,274996,2,0,B|234:43|234:43|259:88,1,60,2|0,0:0|0:0,0:0:0:0:
287,137,275344,1,0,0:0:0:0:
199,240,275518,2,0,B|227:225|227:225|253:181,1,60,2|0,0:0|0:0,0:0:0:0:
287,137,275866,1,0,0:0:0:0:
416,160,276040,2,0,B|388:142|388:142|337:140,1,60,2|0,0:0|0:0,0:0:0:0:
287,137,276388,1,0,0:0:0:0:
402,206,276561,53,2,0:0:0:0:
408,183,276735,1,0,0:0:0:0:
416,160,276909,1,0,0:0:0:0:
287,137,277083,5,2,0:0:0:0:
281,114,277257,1,0,0:0:0:0:
273,91,277431,1,0,0:0:0:0:
416,160,277605,6,0,L|371:14,1,150,2|0,0:0|0:0,0:0:0:0:
172,70,278648,54,0,P|218:90|299:58,1,120,2|0,0:0|0:0,0:0:0:0:
70,26,279170,2,0,L|101:142,1,120,2|0,0:0|0:0,0:0:0:0:
201,208,279692,2,0,L|232:92,1,120,2|0,0:0|0:0,0:0:0:0:
102,221,280214,2,0,P|125:280|181:306,1,120,2|0,0:0|0:0,0:0:0:0:
255,373,280735,6,0,B|303:349|388:340,1,120,2|0,0:0|0:0,0:0:0:0:
310,260,281257,2,0,B|358:236|443:227,1,120,2|0,0:0|0:0,0:0:0:0:
493,147,281779,6,0,B|483:71|417:34|417:34|444:125|410:152,1,240,2|0,0:0|0:0,0:0:0:0:
331,19,282822,54,0,L|212:40,1,120,2|0,0:0|0:0,0:0:0:0:
253,138,283344,2,0,P|192:149|139:113,1,120,2|0,0:0|0:0,0:0:0:0:
36,102,283866,2,0,P|97:91|150:127,1,120,2|0,0:0|0:0,0:0:0:0:
144,236,284387,2,0,P|205:225|258:261,1,120,2|0,0:0|0:0,0:0:0:0:
340,329,284909,6,0,L|365:204,1,120,2|0,0:0|0:0,0:0:0:0:
444,140,285431,2,0,L|467:257,1,120,2|0,0:0|0:0,0:0:0:0:
431,377,285953,6,0,B|353:406|318:354|312:352|306:350|259:298|175:349,1,240,2|0,0:0|0:0,0:0:0:0:
125,268,286996,54,0,P|106:324|111:384,1,120,2|0,0:0|0:0,0:0:0:0:
206,199,287518,2,0,L|90:167,1,120,2|0,0:0|0:0,0:0:0:0:
9,299,288040,2,0,L|143:263,1,120,2|0,0:0|0:0,0:0:0:0:
90,167,288561,2,0,P|82:108|108:55,1,120,2|0,0:0|0:0,0:0:0:0:
216,28,289083,6,0,L|373:62,1,120,2|0,0:0|0:0,0:0:0:0:
335,164,289605,2,0,L|492:198,1,120,2|0,0:0|0:0,0:0:0:0:
487,337,290127,6,0,B|455:261|376:256|376:256|362:318|396:363,1,240,2|0,0:0|0:0,0:0:0:0:
253,370,291170,54,0,P|292:308|283:253,1,120,2|0,0:0|0:0,0:0:0:0:
256,161,291692,2,0,L|95:188,1,120,2|0,0:0|0:0,0:0:0:0:
65,250,292214,2,0,L|45:131,1,120,2|0,0:0|0:0,0:0:0:0:
0,53,292735,2,0,L|118:33,1,120,2|0,0:0|0:0,0:0:0:0:
212,7,293257,6,0,P|264:37|331:15,1,120,2|0,0:0|0:0,0:0:0:0:
365,113,293779,2,0,P|417:83|484:105,1,120,2|0,0:0|0:0,0:0:0:0:
512,185,294301,1,2,0:0:0:0:
479,329,294648,1,2,0:0:0:0:
479,329,294822,1,2,0:0:0:0:
256,207,295344,5,2,0:0:0:0:
381,320,295866,1,2,0:0:0:0:
440,169,296387,2,0,B|387:216|332:163|324:161|316:159|279:93|195:150,1,240,2|0,0:0|0:0,0:0:0:0:
256,207,297431,53,2,0:0:0:0:
131,320,297953,1,2,0:0:0:0:
72,169,298474,2,0,B|125:216|180:163|188:161|196:159|233:93|317:150,1,240,2|0,0:0|0:0,0:0:0:0:
430,74,299518,6,0,L|291:43,1,120,2|0,0:0|0:0,0:0:0:0:
393,179,300040,2,0,L|511:153,1,120,2|0,0:0|0:0,0:0:0:0:
440,270,300561,2,0,P|384:283|312:249,1,120,2|0,0:0|0:0,0:0:0:0:
213,270,301083,2,0,P|269:283|341:249,1,120,2|0,0:0|0:0,0:0:0:0:
156,186,301605,6,0,P|143:244|112:311,1,120,2|0,0:0|0:0,0:0:0:0:
48,206,302127,2,0,P|35:148|4:81,1,120,2|0,0:0|0:0,0:0:0:0:
82,21,302648,1,2,0:0:0:0:
353,56,302996,5,2,0:0:0:0:
220,40,303170,1,2,0:0:0:0:
