osu file format v14

[General]
AudioFilename: audio.mp3
AudioLeadIn: 0
PreviewTime:96146
Countdown: 0
SampleSet: Normal
StackLeniency: 0.7
Mode: 0
LetterboxInBreaks: 0
WidescreenStoryboard: 1

[Editor]
Bookmarks: 16171,31909,41745,57483,65352,81089,96826,112560,128425,144039,159776,167645,185350,201088,216825,232563,238957
DistanceSpacing: 1.35
BeatDivisor: 4
GridSize: 32
TimelineZoom: 1.6

[Metadata]
Title:Dorothea
TitleUnicode:ドロチア
Artist:Eine Kleine
ArtistUnicode:Eine Kleine
Creator:IsomirDiAngelo
Version:Suou's Hard
Source:
Tags:lmt shidoni shirahane suou lolcubes dorochia shoujo D 少女-D- くろねこ kuroneko japanese gothic jrock rock metal
BeatmapID:2589949
BeatmapSetID:1241592

[Difficulty]
HPDrainRate:4
CircleSize:3.5
OverallDifficulty:6
ApproachRate:8
SliderMultiplier:1.3
SliderTickRate:1

[Events]
//Background and Video events
0,0,"bg.jpg"
//Break Periods
2,128620,133572
//Storyboard Layer 0 (Background)
//Storyboard Layer 1 (Fail)
//Storyboard Layer 2 (Pass)
//Storyboard Layer 3 (Foreground)
//Storyboard Layer 4 (Overlay)
//Storyboard Sound Samples

[TimingPoints]
62,245.901639344262,4,2,1,50,1,0
552,245.901639344262,4,2,1,50,1,0
552,-133.333333333333,4,2,1,50,0,0
8174,-133.333333333333,4,1,1,70,0,0
8297,-111.111111111111,4,1,1,70,0,0
96822,-100,4,1,1,70,0,1
127437,-100,4,2,1,70,0,1
128420,-111.111111111111,4,2,1,70,0,0
134322,-111.111111111111,4,1,1,70,0,0
144035,-100,4,1,1,70,0,1
159773,-100,4,1,1,90,0,1
166781,-111.111111111111,4,1,1,90,0,0
167888,-111.111111111111,4,1,1,70,0,0
185347,-100,4,1,1,70,0,1
216945,-111.111111111111,4,1,1,70,0,0
238953,-111.111111111111,4,1,1,5,0,0

[Colours]
Combo1 : 43,159,230
Combo2 : 230,187,123
Combo3 : 215,55,112

[HitObjects]
84,109,8297,6,0,B|101:173|101:173|88:215|88:215|104:278,1,175.499994644165,8|8,3:1|1:0,1:0:0:0:
407,278,10265,6,0,B|423:215|423:215|410:173|410:173|428:109,1,175.499994644165,8|8,1:0|1:0,1:0:0:0:
26,323,12232,6,0,B|75:318|107:287|107:287|132:328|174:338,1,175.499994644165,8|8,1:0|1:0,1:0:0:0:
467,74,14199,6,0,B|407:43|355:71|355:71|308:97|242:55|242:55|277:37|296:48,1,292.499991073609,4|0,1:0|0:0,1:0:0:0:
412,156,15306,6,0,B|445:208|445:208|419:346,1,175.499994644165,8|0,1:0|3:0,0:0:0:0:
365,373,15797,1,8,1:0:0:0:
140,215,16166,6,0,P|171:189|261:207,1,116.999996429443,4|0,1:0|1:0,1:0:0:0:
318,163,16535,2,0,L|318:83,1,58.4999982147217,8|0,1:0|1:0,1:0:0:0:
274,37,16781,2,0,P|241:29|209:38,1,58.4999982147217,0|0,1:0|1:0,0:0:0:0:
150,75,17027,1,8,1:0:0:0:
150,75,17273,6,0,L|85:69,1,58.4999982147217,0|0,1:0|1:0,0:0:0:0:
16,62,17519,1,8,1:0:0:0:
16,62,17765,2,0,L|22:-3,2,58.4999982147217,0|0|8,1:0|1:0|1:0,0:0:0:0:
35,138,18133,6,0,P|61:198|39:260,1,116.999996429443,4|0,1:0|1:0,1:0:0:0:
48,325,18502,2,0,L|118:318,1,58.4999982147217,8|0,1:0|1:0,1:0:0:0:
167,268,18748,2,0,L|237:275,1,58.4999982147217,0|0,1:0|1:0,1:0:0:0:
303,306,18994,1,8,1:0:0:0:
303,306,19240,6,0,L|310:236,1,58.4999982147217,0|0,1:0|1:0,1:0:0:0:
317,168,19486,1,8,1:0:0:0:
317,168,19732,2,0,L|247:161,2,58.4999982147217,0|0|8,1:0|1:0|1:0,0:0:0:0:
390,217,20101,6,0,P|406:161|386:107,1,116.999996429443,4|0,1:0|1:0,1:0:0:0:
407,31,20470,2,0,L|337:24,1,58.4999982147217,8|0,1:0|1:0,1:0:0:0:
282,68,20715,2,0,P|250:77|216:73,1,58.4999982147217,0|0,1:0|1:0,0:0:0:0:
149,48,20961,1,8,1:0:0:0:
149,48,21207,6,0,L|144:121,1,58.4999982147217,0|0,1:0|1:0,0:0:0:0:
144,191,21453,1,8,1:0:0:0:
144,191,21699,2,0,L|71:186,2,58.4999982147217,0|0|8,1:0|1:0|1:0,0:0:0:0:
216,158,22068,6,0,P|249:214|231:277,1,116.999996429443,4|0,1:0|1:0,1:0:0:0:
195,328,22437,2,0,L|117:328,1,58.4999982147217,8|0,1:0|1:0,1:0:0:0:
57,317,22683,2,0,P|49:284|63:237,1,58.4999982147217,0|0,1:0|1:0,0:0:0:0:
85,187,22929,1,8,1:0:0:0:
85,187,23174,6,0,L|74:111,1,58.4999982147217,8|0,1:0|1:0,0:0:0:0:
44,55,23420,2,0,L|120:44,1,58.4999982147217,8|0,1:0|1:0,0:0:0:0:
172,6,23666,1,8,1:0:0:0:
172,6,23789,1,0,3:0:0:0:
250,143,24035,6,0,L|230:276,1,116.999996429443,4|0,1:0|1:0,1:0:0:0:
217,339,24404,2,0,L|292:339,1,58.4999982147217,8|0,1:0|1:0,1:0:0:0:
341,293,24650,2,0,L|416:293,1,58.4999982147217,0|0,1:0|1:0,0:0:0:0:
479,325,24896,1,8,1:0:0:0:
479,325,25142,6,0,L|479:250,1,58.4999982147217,0|0,1:0|1:0,0:0:0:0:
477,183,25388,1,8,1:0:0:0:
477,183,25633,2,0,P|438:192|408:179,2,58.4999982147217,0|0|8,1:0|1:0|1:0,0:0:0:0:
443,106,26002,6,0,P|465:70|435:-16,1,116.999996429443,4|0,1:0|1:0,1:0:0:0:
388,48,26371,2,0,L|307:49,1,58.4999982147217,8|0,1:0|1:0,1:0:0:0:
261,6,26617,2,0,P|226:14|178:3,1,58.4999982147217,0|0,1:0|1:0,1:0:0:0:
145,66,26863,1,8,1:0:0:0:
145,66,27109,6,0,L|154:139,1,58.4999982147217,0|0,1:0|1:0,0:0:0:0:
168,206,27355,1,8,1:0:0:0:
168,206,27601,2,0,L|101:214,2,58.4999982147217,0|0|8,1:0|1:0|1:0,0:0:0:0:
232,159,27970,6,0,P|264:183|347:158,1,116.999996429443,4|0,1:0|1:0,1:0:0:0:
382,107,28338,2,0,P|411:101|440:104,1,58.4999982147217,8|0,1:0|1:0,1:0:0:0:
496,161,28584,2,0,L|496:236,1,58.4999982147217,0|0,1:0|1:0,0:0:0:0:
504,303,28830,1,8,1:0:0:0:
504,303,29076,6,0,L|436:303,1,58.4999982147217,0|0,1:0|1:0,0:0:0:0:
367,303,29322,1,8,1:0:0:0:
367,303,29568,2,0,P|357:264|364:231,2,58.4999982147217,0|0|8,1:0|1:0|1:0,0:0:0:0:
308,362,29937,6,0,P|261:328|205:336,1,116.999996429443,4|0,1:0|1:0,1:0:0:0:
129,361,30306,2,0,L|118:282,1,58.4999982147217,8|0,1:0|1:0,1:0:0:0:
55,259,30551,2,0,L|66:180,1,58.4999982147217,0|0,1:0|1:0,0:0:0:0:
127,153,30797,1,8,1:0:0:0:
127,153,30920,1,0,1:0:0:0:
127,153,31043,6,0,L|199:144,1,58.4999982147217,8|0,1:0|1:0,0:0:0:0:
245,94,31289,2,0,L|317:103,1,58.4999982147217,8|0,1:0|3:0,0:0:0:0:
377,142,31535,1,8,1:0:0:0:
377,142,31658,2,0,L|449:133,1,58.4999982147217,0|0,3:0|0:0,0:0:0:0:
429,214,31904,6,0,B|417:265|417:265|429:293|429:293|419:344,1,116.999996429443,4|0,1:0|1:0,1:0:0:0:
344,311,32273,2,0,L|267:322,1,58.4999982147217,8|0,1:0|1:0,1:0:0:0:
210,332,32519,1,8,1:0:0:0:
210,332,32642,1,0,3:0:0:0:
303,101,33011,6,0,L|294:27,1,58.4999982147217,8|0,1:0|1:0,1:0:0:0:
224,9,33256,2,0,L|215:76,1,58.4999982147217,8|0,1:0|1:0,1:0:0:0:
155,117,33502,1,8,1:0:0:0:
155,117,33625,1,0,3:0:0:0:
269,226,33871,6,0,L|403:216,1,116.999996429443,4|0,1:0|1:0,1:0:0:0:
450,171,34240,2,0,L|445:104,1,58.4999982147217,8|0,1:0|1:0,1:0:0:0:
437,37,34486,1,8,1:0:0:0:
437,37,34609,1,0,3:0:0:0:
213,121,34978,6,0,L|146:116,1,58.4999982147217,8|0,1:0|1:0,1:0:0:0:
81,147,35224,2,0,P|71:119|75:86,1,58.4999982147217,0|0,3:0|3:0,0:0:0:0:
93,16,35470,1,8,1:0:0:0:
93,16,35592,1,8,0:0:0:0:
250,21,35838,6,0,P|311:43|368:10,1,116.999996429443,4|0,1:0|1:0,1:0:0:0:
437,37,36207,2,0,P|432:69|439:102,1,58.4999982147217,8|0,1:0|1:0,1:0:0:0:
490,164,36453,1,8,1:0:0:0:
490,164,36576,1,0,3:0:0:0:
321,330,36945,6,0,L|235:320,1,58.4999982147217,8|0,1:0|1:0,1:0:0:0:
200,273,37191,2,0,L|114:283,1,58.4999982147217,8|0,1:0|1:0,1:0:0:0:
81,331,37437,1,8,1:0:0:0:
81,331,37560,1,0,3:0:0:0:
118,177,37806,6,0,P|144:134|122:58,1,116.999996429443,4|0,1:0|1:0,1:0:0:0:
59,37,38174,2,0,L|48:113,1,58.4999982147217,8|0,1:0|1:0,1:0:0:0:
14,167,38420,1,8,1:0:0:0:
14,167,38543,1,0,3:0:0:0:
240,96,38912,6,0,P|273:94|305:104,1,58.4999982147217,8|0,1:0|1:0,1:0:0:0:
359,149,39158,2,0,P|349:181|350:214,1,58.4999982147217,0|0,3:0|3:0,0:0:0:0:
310,277,39404,1,8,1:0:0:0:
310,277,39527,1,8,0:0:0:0:
452,344,39773,6,0,P|480:296|453:219,1,116.999996429443,4|0,1:0|3:0,1:0:0:0:
496,163,40142,2,0,P|468:153|439:157,1,58.4999982147217,8|0,3:1|3:0,0:0:0:0:
360,149,40388,1,8,0:0:0:0:
360,149,40511,2,0,P|329:112|333:39,1,116.999996429443
411,78,40879,5,8,0:0:0:0:
113,291,41740,6,0,B|174:276|174:276|216:295|216:295|281:283,1,175.499994644165,6|0,2:0|2:0,2:0:0:0:
205,143,42355,1,8,2:0:0:0:
329,45,42601,1,2,2:0:0:0:
415,177,42847,2,0,L|401:316,1,116.999996429443,2|2,2:0|2:0,0:0:0:0:
389,371,43215,2,0,P|332:357|276:370,1,116.999996429443,2|2,2:0|2:0,2:0:0:0:
117,374,43707,6,0,P|143:346|110:221,1,175.499994644165,2|2,2:0|2:0,2:0:0:0:
8,107,44322,2,0,P|69:82|129:109,1,116.999996429443,8|0,2:0|2:0,0:0:0:0:
181,141,44691,1,0,3:0:0:0:
280,18,44937,1,0,3:0:0:0:
401,127,45183,1,0,3:0:0:0:
401,127,45306,2,0,L|385:269,1,116.999996429443,8|2,2:0|2:0,0:0:0:0:
308,379,45797,6,0,P|272:323|287:259,1,116.999996429443,2|0,2:0|2:0,2:0:0:0:
184,147,46289,1,8,2:0:0:0:
64,250,46535,1,2,2:0:0:0:
28,95,46781,2,0,P|72:72|142:89,1,116.999996429443,2|2,2:0|2:0,2:0:0:0:
184,147,47150,2,0,L|168:270,1,116.999996429443,2|2,2:0|2:0,2:0:0:0:
297,357,47642,6,0,B|257:318|257:318|272:199,1,175.499994644165,2|2,2:0|2:0,2:0:0:0:
291,42,48256,2,0,L|234:51,2,58.4999982147217,8|8|8,2:0|2:0|2:0,0:0:0:0:
369,27,48625,1,0,3:0:0:0:
473,145,48871,1,0,3:0:0:0:
367,263,49117,1,0,3:0:0:0:
367,263,49240,2,0,L|359:201,2,58.4999982147217,10|8|10,2:0|2:0|2:0,0:0:0:0:
390,339,49609,6,0,P|319:292|241:324,1,175.499994644165,6|0,2:0|2:0,2:0:0:0:
104,243,50224,1,8,2:0:0:0:
229,146,50470,1,2,2:0:0:0:
143,14,50715,2,0,P|106:0|30:19,1,116.999996429443,2|2,2:0|2:0,0:0:0:0:
0,89,51084,2,0,L|0:214,1,116.999996429443,2|2,2:0|2:0,2:0:0:0:
70,338,51576,6,0,B|137:325|137:325|176:338|176:338|240:323,1,175.499994644165,2|2,2:0|2:0,2:0:0:0:
356,215,52191,2,0,P|338:253|357:328,1,116.999996429443,8|0,2:0|2:0,0:0:0:0:
417,371,52560,1,0,3:0:0:0:
497,235,52806,1,0,3:0:0:0:
407,112,53051,1,0,3:0:0:0:
407,112,53174,2,0,L|290:112,1,116.999996429443,8|2,2:0|2:0,0:0:0:0:
143,173,53666,6,0,P|160:144|135:58,1,116.999996429443,2|0,2:0|2:0,2:0:0:0:
10,152,54158,1,8,2:0:0:0:
92,286,54404,1,2,2:0:0:0:
234,218,54650,2,0,P|273:205|333:263,1,116.999996429443,2|2,2:0|2:0,2:0:0:0:
405,272,55019,2,0,P|374:244|394:163,1,116.999996429443,2|2,2:0|2:0,2:0:0:0:
457,35,55511,6,0,B|415:46|380:76|380:76|342:34|307:29,1,175.499994644165,2|2,2:0|2:0,2:0:0:0:
158,24,56125,1,8,2:0:0:0:
158,24,56248,1,8,2:0:0:0:
158,24,56371,2,0,L|170:98,1,58.4999982147217,8|8,2:0|2:0,0:0:0:0:
189,158,56617,5,4,2:0:0:0:
31,335,56986,1,0,3:0:0:0:
31,335,57109,2,0,P|80:306|135:322,1,116.999996429443,10|2,2:0|2:0,0:0:0:0:
204,360,57478,6,0,L|327:349,1,116.999996429443,4|0,1:0|1:0,1:0:0:0:
395,377,57847,2,0,P|401:348|396:319,1,58.4999982147217,8|0,1:0|1:0,1:0:0:0:
335,268,58092,2,0,P|328:239|333:210,1,58.4999982147217,0|0,1:0|1:0,0:0:0:0:
361,138,58338,1,8,1:0:0:0:
361,138,58584,6,0,L|429:138,1,58.4999982147217,0|0,1:0|1:0,0:0:0:0:
503,142,58830,1,8,1:0:0:0:
503,142,59076,2,0,L|503:74,2,58.4999982147217,0|0|8,1:0|1:0|1:0,0:0:0:0:
461,210,59445,6,0,P|443:264|459:319,1,116.999996429443,4|0,1:0|1:0,1:0:0:0:
403,376,59814,2,0,L|336:376,1,58.4999982147217,8|0,1:0|1:0,0:0:0:0:
284,323,60060,2,0,L|217:323,1,58.4999982147217,0|0,1:0|1:0,0:0:0:0:
159,367,60306,1,8,1:0:0:0:
159,367,60551,6,0,P|143:334|151:295,1,58.4999982147217,0|0,1:0|1:0,1:0:0:0:
153,235,60797,1,8,1:0:0:0:
153,235,61043,2,0,L|81:228,2,58.4999982147217,0|0|8,1:0|1:0|1:0,0:0:0:0:
227,206,61412,6,0,P|250:178|234:98,1,116.999996429443,4|0,1:0|1:0,1:0:0:0:
183,45,61781,2,0,L|111:52,1,58.4999982147217,8|0,1:0|1:0,0:0:0:0:
46,36,62027,2,0,L|39:108,1,58.4999982147217,0|0,1:0|1:0,0:0:0:0:
37,177,62273,1,8,1:0:0:0:
37,177,62519,6,0,L|95:182,1,58.4999982147217,0|0,1:0|1:0,0:0:0:0:
178,193,62765,1,8,1:0:0:0:
178,193,63011,2,0,P|184:224|174:261,2,58.4999982147217,0|0|8,1:0|1:0|1:0,0:0:0:0:
214,123,63379,6,0,P|255:103|330:126,1,116.999996429443,4|0,1:0|1:0,1:0:0:0:
401,102,63748,2,0,L|397:162,1,58.4999982147217,8|0,1:0|1:0,0:0:0:0:
335,210,63994,2,0,L|339:270,1,58.4999982147217,8|0,1:0|1:0,0:0:0:0:
404,313,64240,2,0,L|400:373,1,58.4999982147217,8|0,1:0|1:0,0:0:0:0:
323,350,64486,6,0,P|289:373|213:354,1,116.999996429443,0|8,3:0|1:0,0:0:0:0:
166,305,64855,1,0,1:0:0:0:
166,305,64978,2,0,L|180:183,1,116.999996429443,8|0,1:0|0:0,0:0:0:0:
229,127,65347,6,0,P|177:151|125:129,1,116.999996429443,6|0,1:2|1:0,1:0:0:0:
62,80,65715,1,8,1:0:0:0:
10,234,65961,1,0,1:0:0:0:
10,234,66084,1,0,1:0:0:0:
10,234,66207,2,0,L|10:301,1,58.4999982147217,10|0,1:2|1:0,1:0:0:0:
60,354,66453,6,0,P|112:375|165:354,1,116.999996429443,0|10,1:0|1:2,0:0:0:0:
218,294,66822,1,2,1:2:0:0:
350,380,67068,2,0,L|358:302,1,58.4999982147217,2|10,1:2|1:2,1:0:0:0:
407,260,67314,6,0,L|394:134,1,116.999996429443,2|0,1:2|1:0,1:0:0:0:
382,64,67683,1,10,1:2:0:0:
269,173,67929,1,0,1:0:0:0:
269,173,68052,1,0,1:0:0:0:
269,173,68175,2,0,L|210:167,1,58.4999982147217,8|0,1:0|0:0,0:0:0:0:
155,110,68420,5,0,1:0:0:0:
155,110,68543,1,0,1:0:0:0:
155,110,68666,2,0,L|24:121,1,116.999996429443,8|0,1:0|1:0,0:0:0:0:
4,192,69035,2,0,P|32:199|60:196,1,58.4999982147217,0|10,1:0|1:2,0:0:0:0:
136,220,69281,6,0,P|156:273|141:329,1,116.999996429443,2|0,1:2|0:0,0:0:0:0:
78,377,69650,1,8,1:0:0:0:
237,341,69896,1,0,1:0:0:0:
237,341,70019,1,0,1:0:0:0:
237,341,70142,2,0,L|295:346,1,58.4999982147217,10|0,1:2|1:0,1:0:0:0:
374,352,70388,6,0,P|390:318|366:229,1,116.999996429443,2|10,1:2|1:2,1:0:0:0:
319,187,70756,1,2,1:2:0:0:
393,47,71002,2,0,L|469:55,1,58.4999982147217,2|10,1:2|1:2,0:0:0:0:
502,113,71248,6,0,L|489:229,1,116.999996429443,6|0,1:2|1:0,0:0:0:0:
478,308,71617,1,10,1:2:0:0:
410,165,71863,1,8,1:0:0:0:
293,271,72109,1,8,1:0:0:0:
236,123,72355,6,0,L|174:115,1,58.4999982147217,0|0,3:0|3:0,0:0:0:0:
120,60,72601,2,0,L|58:68,1,58.4999982147217,8|0,1:0|0:0,0:0:0:0:
11,129,72847,2,0,P|46:173|39:230,1,116.999996429443,10|2,1:2|1:2,0:0:0:0:
51,308,73215,6,0,P|72:255|124:232,1,116.999996429443,6|0,1:2|1:0,1:0:0:0:
196,266,73584,1,8,1:0:0:0:
290,141,73830,1,0,1:0:0:0:
290,141,73953,1,0,1:0:0:0:
290,141,74076,2,0,L|348:133,1,58.4999982147217,10|0,1:2|1:0,1:0:0:0:
427,124,74322,6,0,L|412:240,1,116.999996429443,0|10,1:0|1:2,0:0:0:0:
402,319,74691,1,2,1:2:0:0:
253,254,74937,2,0,L|188:267,1,58.4999982147217,2|10,1:2|1:2,1:0:0:0:
141,323,75183,6,0,P|114:272|129:216,1,116.999996429443,2|0,1:2|1:0,1:0:0:0:
187,163,75551,1,10,1:2:0:0:
337,239,75797,1,0,1:0:0:0:
337,239,75920,1,0,1:0:0:0:
337,239,76043,2,0,L|415:230,1,58.4999982147217,8|0,1:0|0:0,0:0:0:0:
482,232,76289,5,0,1:0:0:0:
482,232,76412,1,0,1:0:0:0:
482,232,76535,2,0,L|465:87,1,116.999996429443,8|0,1:0|1:0,0:0:0:0:
504,44,76904,2,0,P|476:35|447:37,1,58.4999982147217,0|10,1:0|1:2,0:0:0:0:
372,10,77150,6,0,P|345:39|258:23,1,116.999996429443,2|0,1:2|0:0,0:0:0:0:
198,5,77519,1,8,1:0:0:0:
130,148,77765,1,0,1:0:0:0:
130,148,77888,1,0,1:0:0:0:
130,148,78011,2,0,L|202:158,1,58.4999982147217,10|0,1:2|1:0,1:0:0:0:
266,167,78256,6,0,P|286:214|264:286,1,116.999996429443,2|10,1:2|1:2,1:0:0:0:
229,343,78625,1,2,1:2:0:0:
83,282,78871,2,0,L|76:217,1,58.4999982147217,2|10,1:2|1:2,0:0:0:0:
8,183,79117,6,0,L|21:58,1,116.999996429443,6|0,1:2|1:0,0:0:0:0:
92,31,79486,1,10,1:2:0:0:
187,156,79732,1,8,1:0:0:0:
306,52,79978,1,8,1:0:0:0:
306,52,80101,1,8,1:0:0:0:
306,52,80224,6,0,B|373:45|423:77|423:77|394:131|422:184,1,233.999992858887,6|2,1:2|1:2,1:0:0:0:
227,367,81207,5,4,2:0:0:0:
316,236,81453,2,0,L|309:158,1,77.999997619629,2|0,2:0|3:0,0:0:0:0:
269,122,81699,2,0,P|213:138|157:125,1,116.999996429443,10|2,3:2|3:2,1:0:0:0:
42,15,82191,5,0,3:0:0:0:
6,169,82437,2,0,L|14:259,1,77.999997619629,2|0,2:0|3:0,0:0:0:0:
26,298,82683,2,0,P|82:284|137:301,1,116.999996429443,10|2,3:2|3:2,1:0:0:0:
278,372,83174,5,0,3:0:0:0:
359,236,83420,2,0,P|331:227|282:234,1,77.999997619629,2|0,3:2|3:0,0:0:0:0:
247,273,83666,2,0,L|247:130,1,116.999996429443,10|2,3:2|1:2,0:0:0:0:
169,29,84158,5,10,1:2:0:0:
169,29,84281,1,8,0:1:0:0:
169,29,84404,2,0,L|242:18,1,58.4999982147217,0|0,3:0|3:0,0:0:0:0:
285,74,84650,2,0,L|405:91,1,116.999996429443,8|0,1:0|1:0,0:0:0:0:
480,70,85019,1,8,1:0:0:0:
480,70,85142,5,4,2:0:0:0:
457,226,85388,2,0,L|447:310,1,77.999997619629,2|0,2:0|3:0,0:0:0:0:
434,354,85633,2,0,P|378:368|322:353,1,116.999996429443,10|2,3:2|3:2,1:0:0:0:
213,236,86126,5,0,3:0:0:0:
117,360,86371,2,0,L|109:278,1,77.999997619629,2|0,2:0|3:0,0:0:0:0:
106,229,86617,2,0,P|66:249|-8:226,1,116.999996429443,10|2,3:2|3:2,1:0:0:0:
56,84,87109,5,0,3:0:0:0:
208,124,87355,2,0,L|294:114,1,77.999997619629,2|0,3:2|3:0,0:0:0:0:
335,95,87601,5,10,3:2:0:0:
303,249,87847,1,2,3:2:0:0:
435,334,88092,2,0,P|462:305|449:221,1,116.999996429443,10|0,3:2|3:0,0:0:0:0:
503,79,88584,1,10,1:2:0:0:
371,12,88830,1,8,1:0:0:0:
371,12,88953,1,8,1:0:0:0:
371,12,89076,5,4,2:0:0:0:
237,95,89322,2,0,L|155:88,1,77.999997619629,2|0,2:0|3:0,0:0:0:0:
114,59,89568,2,0,P|80:89|-9:78,1,116.999996429443,10|2,3:2|3:2,1:0:0:0:
94,225,90060,5,0,3:0:0:0:
8,358,90306,2,0,L|92:368,1,77.999997619629,2|0,2:0|3:0,0:0:0:0:
130,339,90551,2,0,L|248:324,1,116.999996429443,10|2,3:2|3:2,1:0:0:0:
399,365,91043,5,0,3:0:0:0:
456,218,91289,2,0,P|420:202|381:205,1,77.999997619629,2|0,3:2|3:0,0:0:0:0:
338,236,91535,2,0,L|330:104,1,116.999996429443,10|2,3:2|1:2,0:0:0:0:
205,40,92027,5,10,1:2:0:0:
205,40,92150,1,8,0:0:0:0:
205,40,92273,2,0,L|201:98,1,58.4999982147217,0|0,3:0|3:0,0:0:0:0:
200,178,92519,2,0,P|163:196|77:171,1,116.999996429443,10|0,1:2|0:0,0:0:0:0:
39,128,92888,1,8,1:0:0:0:
39,128,93011,6,0,L|39:251,1,116.999996429443,6|8,1:2|1:0,1:0:0:0:
172,329,93502,2,0,L|238:321,1,58.4999982147217,0|0,1:0|1:0,0:0:0:0:
309,315,93748,1,8,1:0:0:0:
353,163,93994,6,0,L|287:171,1,58.4999982147217,0|0,1:0|1:0,0:0:0:0:
216,177,94240,1,8,1:0:0:0:
123,48,94486,2,0,L|189:40,1,58.4999982147217,0|0,1:0|1:0,0:0:0:0:
267,35,94732,1,10,1:2:0:0:
267,35,94855,1,2,1:2:0:0:
267,35,94978,6,0,P|293:62|384:47,1,116.999996429443,14|0,1:2|1:0,1:0:0:0:
444,36,95347,2,0,L|456:161,1,116.999996429443,14|0,1:2|1:0,1:0:0:0:
464,230,95715,1,10,1:2:0:0:
319,165,95961,6,0,L|259:174,1,58.4999982147217,8|8,3:0|3:0,0:0:0:0:
194,217,96207,2,0,P|221:167|200:114,1,116.999996429443,10|10,1:2|1:2,0:0:0:0:
127,82,96576,2,0,P|117:109|122:137,1,58.4999982147217,10|8,3:2|1:0,0:0:0:0:
201,31,96822,6,0,B|144:-4|144:-4|63:6,1,130,6|0,1:0|1:0,1:0:0:0:
21,57,97191,2,0,L|20:187,1,130,8|0,1:0|1:0,1:0:0:0:
29,271,97560,1,0,1:0:0:0:
29,271,97683,2,0,L|116:271,1,65,10|0,1:0|1:0,1:0:0:0:
152,211,97929,6,0,P|176:269|155:330,1,130,2|8,1:0|1:0,0:0:0:0:
223,382,98297,1,0,1:0:0:0:
222,382,98420,2,0,P|287:375|352:371,1,130,2|8,1:0|1:0,0:0:0:0:
433,373,98789,6,0,P|468:332|452:260,1,130,0|0,1:0|1:0,1:0:0:0:
377,237,99158,2,0,P|342:196|358:124,1,130,10|0,1:0|1:0,1:0:0:0:
323,54,99527,1,0,1:0:0:0:
323,54,99650,2,0,L|240:49,1,65,10|2,1:0|1:0,0:0:0:0:
185,85,99896,6,0,L|188:149,1,65,2|0,1:0|1:0,1:0:0:0:
246,205,100142,2,0,L|242:269,1,65,10|0,1:0|1:0,0:0:0:0:
210,346,100388,1,2,1:0:0:0:
210,346,100511,2,0,L|146:349,1,65,2|10,1:0|1:0,0:0:0:0:
71,381,100756,6,0,P|112:333|104:270,1,130,6|0,3:1|1:0,1:0:0:0:
39,223,101125,2,0,P|34:158|26:93,1,130,8|0,1:0|1:0,1:0:0:0:
76,31,101494,1,0,1:0:0:0:
76,31,101617,2,0,L|159:33,1,65,10|0,1:0|1:0,0:0:0:0:
200,86,101863,6,0,P|259:106|314:74,1,130,2|8,1:0|1:0,1:0:0:0:
373,19,102232,1,0,1:0:0:0:
373,19,102355,2,0,P|352:78|384:133,1,130,2|10,1:0|1:0,0:0:0:0:
463,117,102724,6,0,L|455:261,1,130,2|0,1:0|1:0,1:0:0:0:
409,311,103092,2,0,P|355:344|298:319,1,130,10|0,1:0|1:0,0:0:0:0:
225,349,103461,1,0,1:0:0:0:
225,349,103584,2,0,P|216:317|223:286,1,65,8|0,1:0|1:0,0:0:0:0:
277,228,103830,5,0,1:0:0:0:
277,228,103953,1,0,1:0:0:0:
277,228,104076,2,0,P|285:196|278:165,1,65,8|0,1:0|1:0,0:0:0:0:
247,92,104322,1,2,1:2:0:0:
247,92,104445,1,2,1:2:0:0:
247,92,104568,2,0,P|279:83|310:90,1,65,10|2,1:2|1:2,1:0:0:0:
192,165,104814,6,0,P|131:183|75:154,1,130,6|8,1:0|1:0,1:0:0:0:
10,107,105183,2,0,P|41:162|26:223,1,130,0|0,1:0|1:0,1:0:0:0:
23,308,105551,1,10,1:0:0:0:
23,308,105674,6,0,L|157:308,1,130,2|0,1:0|1:0,1:0:0:0:
225,343,106043,2,0,P|234:309|226:271,1,65,10|0,1:0|1:0,1:0:0:0:
179,217,106289,2,0,P|170:183|178:145,1,65,2|0,1:0|1:0,1:0:0:0:
232,97,106535,2,0,P|264:93|296:91,1,65,10|0,1:0|1:0,1:0:0:0:
364,46,106781,6,0,P|328:97|347:157,1,130,2|8,1:0|1:0,1:0:0:0:
407,210,107150,2,0,P|402:274|400:339,1,130,0|2,1:0|3:1,0:0:0:0:
331,377,107519,1,8,3:1:0:0:
331,377,107642,6,0,P|307:343|211:358,1,130,2|0,1:0|3:0,1:0:0:0:
145,355,108011,2,0,L|136:277,1,65,8|0,3:1|3:0,0:0:0:0:
184,229,108256,1,0,3:0:0:0:
184,229,108379,1,2,3:1:0:0:
184,229,108502,2,0,L|193:151,1,65,10|2,3:1|3:1,0:0:0:0:
201,83,108748,6,0,P|144:56|82:70,1,130,4|10,1:0|1:0,1:0:0:0:
7,99,109117,2,0,L|14:163,1,65,2|0,1:0|1:0,1:0:0:0:
76,231,109363,1,2,1:0:0:0:
76,231,109486,1,10,1:0:0:0:
76,231,109609,6,0,P|51:264|71:364,1,130,2|0,1:0|1:0,1:0:0:0:
137,379,109978,1,8,1:0:0:0:
137,379,110101,2,0,L|269:370,1,130,2|0,1:0|1:0,1:0:0:0:
314,304,110470,2,0,L|380:308,1,65,10|0,1:0|1:0,1:0:0:0:
444,354,110715,6,0,P|415:297|436:238,1,130,2|14,1:0|1:0,1:0:0:0:
427,162,111084,1,2,1:0:0:0:
427,162,111207,2,0,L|351:170,1,65,12|0,1:0|1:0,0:0:0:0:
339,91,111453,2,0,L|403:85,1,65,12|0,1:0|1:0,0:0:0:0:
394,6,111699,5,12,1:0:0:0:
394,6,111822,1,8,1:0:0:0:
394,6,111945,2,0,L|329:13,1,65,2|0,3:1|0:0,0:0:0:0:
263,57,112191,1,10,1:1:0:0:
263,57,112314,2,0,L|198:51,1,65,6|0,3:1|0:0,0:0:0:0:
270,142,112560,6,0,P|302:195|285:256,1,130,6|0,1:0|1:0,1:0:0:0:
213,295,112929,2,0,P|148:290|83:286,1,130,8|0,1:0|1:0,1:0:0:0:
35,222,113297,1,0,1:0:0:0:
35,222,113420,2,0,P|63:207|95:207,1,65,10|0,1:0|1:0,1:0:0:0:
153,146,113666,6,0,B|213:172|213:172|269:141,1,130,2|8,1:0|1:0,0:0:0:0:
343,104,114035,1,0,1:0:0:0:
343,104,114158,2,0,P|304:153|314:215,1,130,2|8,1:0|1:0,0:0:0:0:
393,232,114527,6,0,P|431:281|421:343,1,130,0|0,1:0|1:0,1:0:0:0:
350,382,114896,2,0,P|285:374|220:369,1,130,10|0,1:0|1:0,0:0:0:0:
150,335,115265,1,0,1:0:0:0:
150,335,115388,2,0,P|145:302|154:270,1,65,10|2,1:0|1:0,0:0:0:0:
212,218,115633,6,0,P|217:185|208:153,1,65,2|0,1:0|1:0,1:0:0:0:
235,78,115879,2,0,P|202:73|170:82,1,65,10|0,1:0|1:0,1:0:0:0:
95,55,116125,1,2,1:0:0:0:
95,55,116248,2,0,P|90:88|99:120,1,65,2|10,1:0|1:0,0:0:0:0:
38,172,116494,6,0,P|60:202|37:303,1,130,6|0,3:1|1:0,1:0:0:0:
49,370,116863,2,0,L|187:370,1,130,8|0,1:0|1:0,1:0:0:0:
254,336,117232,1,0,1:0:0:0:
254,336,117355,2,0,L|327:336,1,65,10|0,1:0|1:0,1:0:0:0:
386,379,117601,6,0,P|356:348|376:263,1,130,2|8,1:0|1:0,0:0:0:0:
438,225,117970,1,0,1:0:0:0:
438,225,118092,2,0,P|468:194|448:109,1,130,2|10,1:0|1:0,0:0:0:0:
492,36,118461,6,0,B|446:81|446:81|383:61,1,130,2|0,1:0|1:0,1:0:0:0:
312,24,118830,2,0,L|179:34,1,130,10|0,1:0|1:0,0:0:0:0:
115,75,119199,1,0,1:0:0:0:
115,75,119322,2,0,L|116:149,1,65,8|0,1:0|1:0,0:0:0:0:
179,205,119568,5,0,1:0:0:0:
179,205,119691,1,0,1:0:0:0:
179,205,119814,2,0,L|180:279,1,65,8|0,1:0|1:0,1:0:0:0:
219,351,120060,1,2,1:2:0:0:
219,351,120183,1,2,1:2:0:0:
219,351,120306,2,0,P|188:360|156:353,1,65,10|2,1:2|1:2,0:0:0:0:
271,279,120551,6,0,B|327:310|327:310|402:289,1,130,6|8,1:0|1:0,1:0:0:0:
442,354,120920,2,0,L|442:224,1,130,0|0,1:0|1:0,1:0:0:0:
464,147,121289,1,10,1:0:0:0:
464,147,121412,6,0,P|421:192|359:184,1,130,2|0,1:0|1:0,1:0:0:0:
284,155,121781,2,0,L|275:241,1,65,10|0,1:0|1:0,1:0:0:0:
304,295,122027,2,0,L|239:301,1,65,2|0,1:0|1:0,1:0:0:0:
178,354,122273,2,0,L|113:347,1,65,10|0,1:0|1:0,1:0:0:0:
34,365,122519,6,0,P|67:344|71:254,1,130,2|8,1:0|1:0,1:0:0:0:
48,183,122888,1,0,1:0:0:0:
48,183,123011,2,0,P|90:229|152:223,1,130,2|8,1:0|3:1,0:0:0:0:
221,182,123379,6,0,L|360:192,1,130,2|0,1:0|3:0,0:0:0:0:
372,113,123748,2,0,L|307:108,1,65,8|0,3:1|3:0,0:0:0:0:
247,58,123994,1,0,3:0:0:0:
247,58,124117,1,2,3:1:0:0:
247,58,124240,2,0,L|182:62,1,65,10|2,3:1|3:1,0:0:0:0:
118,4,124486,6,0,P|94:62|118:121,1,130,4|10,1:0|1:0,1:0:0:0:
186,165,124855,2,0,P|209:223|185:282,1,130,2|2,1:0|1:0,1:0:0:0:
134,345,125224,1,10,1:0:0:0:
134,345,125347,6,0,P|192:321|251:344,1,130,2|0,1:0|0:0,0:0:0:0:
331,374,125715,1,8,1:0:0:0:
331,374,125838,2,0,L|340:237,1,130,2|0,1:0|1:0,1:0:0:0:
399,190,126207,2,0,L|394:121,1,65,8|0,1:0|0:0,0:0:0:0:
350,57,126453,6,0,B|291:26|291:26|229:45,1,130,2|8,1:0|1:0,0:0:0:0:
103,144,126945,2,0,B|161:174|161:174|223:155,1,130,0|8,1:0|1:0,0:0:0:0:
399,190,127437,6,0,P|362:217|372:308,1,130,14|0,1:0|1:0,1:0:0:0:
387,371,127806,2,0,P|360:334|269:344,1,130,14|0,1:0|3:0,1:0:0:0:
205,245,128174,2,0,P|235:256|266:249,1,65,8|0,1:0|0:0,0:0:0:0:
304,165,128420,5,0,3:0:0:0:
271,338,134322,6,0,P|290:306|269:225,1,116.999996429443,8|0,1:0|0:0,1:0:0:0:
211,182,134691,2,0,L|75:190,1,116.999996429443,8|0,1:0|3:0,0:0:0:0:
14,193,135060,1,8,1:0:0:0:
10,39,135306,5,8,1:0:0:0:
10,39,135429,2,0,P|38:46|66:39,1,58.4999982147217,8|0,0:0|3:0,0:0:0:0:
138,8,135674,2,0,L|267:20,1,116.999996429443,0|0,3:0|3:0,0:0:0:0:
327,72,136043,1,8,1:0:0:0:
327,72,136166,1,8,1:0:0:0:
327,72,136289,6,0,L|311:199,1,116.999996429443,4|0,1:0|1:0,1:0:0:0:
297,266,136658,1,8,1:0:0:0:
164,190,136904,1,0,1:0:0:0:
164,190,137027,2,0,L|180:317,1,116.999996429443,8|0,1:0|1:0,1:0:0:0:
241,354,137396,6,0,L|307:354,1,58.4999982147217,8|0,1:0|1:0,0:0:0:0:
378,349,137642,2,0,P|393:293|373:239,1,116.999996429443,0|0,1:0|3:0,0:0:0:0:
312,188,138011,1,8,1:0:0:0:
338,32,138256,6,0,L|221:42,1,116.999996429443,0|8,3:0|1:0,1:0:0:0:
142,29,138625,1,0,3:0:0:0:
164,189,138871,1,0,3:0:0:0:
164,189,138994,2,0,L|179:313,1,116.999996429443,8|0,1:0|3:0,1:0:0:0:
325,375,139486,5,0,1:0:0:0:
325,375,139609,2,0,L|340:251,1,116.999996429443,8|0,1:0|1:0,0:0:0:0:
399,206,139978,1,8,1:0:0:0:
399,206,140101,1,8,1:0:0:0:
399,206,140224,6,0,P|417:174|394:95,1,116.999996429443,4|8,1:0|1:0,1:0:0:0:
350,37,140592,2,0,L|212:37,1,116.999996429443,0|0,3:0|3:0,3:0:0:0:
153,36,140961,1,8,1:0:0:0:
37,144,141207,6,0,P|19:176|42:255,1,116.999996429443,0|8,1:0|1:0,0:0:0:0:
86,313,141576,2,0,L|218:314,1,116.999996429443,0|0,1:0|3:0,0:0:0:0:
283,314,141944,1,8,1:0:0:0:
365,178,142191,6,0,P|312:152|244:185,1,116.999996429443,0|0,1:0|1:0,1:0:0:0:
155,34,142683,1,8,1:0:0:0:
159,38,142806,1,8,1:0:0:0:
163,42,142929,2,0,L|228:37,1,58.4999982147217,0|0,1:0|1:0,0:0:0:0:
299,29,143174,5,8,1:0:0:0:
303,33,143297,1,8,1:0:0:0:
156,219,143666,1,8,1:0:0:0:
156,219,143789,1,8,1:0:0:0:
295,297,144035,6,0,L|426:284,1,130,6|2,1:0|1:0,1:0:0:0:
489,236,144404,2,0,P|498:202|483:164,1,65,10|2,1:0|1:0,1:0:0:0:
446,106,144650,2,0,P|412:97|374:112,1,65,2|2,1:0|1:0,0:0:0:0:
319,153,144896,2,0,P|310:187|325:225,1,65,10|2,1:0|1:0,0:0:0:0:
295,297,145142,5,2,1:0:0:0:
295,297,145265,1,2,1:0:0:0:
295,297,145388,2,0,L|215:287,1,65,10|2,1:0|1:0,0:0:0:0:
175,230,145633,2,0,L|95:240,1,65,2|2,1:0|1:0,0:0:0:0:
46,287,145879,1,10,1:0:0:0:
50,291,146002,6,0,P|73:259|51:173,1,130,6|0,1:0|1:0,1:0:0:0:
22,102,146371,1,8,1:0:0:0:
165,31,146617,2,0,L|243:39,1,65,0|0,1:0|1:0,1:0:0:0:
302,70,146863,1,10,1:0:0:0:
306,74,146986,6,0,P|269:63|235:143,1,130,2|0,1:0|1:0,1:0:0:0:
260,203,147355,1,8,1:0:0:0:
391,111,147601,2,0,B|450:94|450:94|520:126,1,130,2|10,1:0|1:0,0:0:0:0:
502,202,147970,6,0,B|443:219|443:219|372:186,1,130,6|0,1:0|1:0,1:0:0:0:
335,256,148338,1,8,1:0:0:0:
335,256,148584,2,0,L|327:328,1,65,0|0,1:0|1:0,0:0:0:0:
251,313,148830,1,8,1:0:0:0:
251,313,149076,6,0,L|258:248,2,65,0|0|8,1:0|1:0|1:0,0:0:0:0:
188,364,149445,2,0,P|143:381|73:338,1,130,0|2,1:0|1:0,0:0:0:0:
53,270,149814,1,10,1:0:0:0:
53,270,149937,6,0,L|67:135,1,130,6|0,1:0|1:0,1:0:0:0:
80,61,150306,2,0,L|144:50,1,65,10|0,1:0|1:0,1:0:0:0:
211,92,150551,2,0,L|275:102,1,65,2|0,1:0|1:0,1:0:0:0:
350,66,150797,1,10,1:0:0:0:
350,66,150920,1,2,1:0:0:0:
350,66,151043,6,0,L|414:56,1,65,2|0,1:0|1:0,0:0:0:0:
481,99,151289,2,0,L|492:163,1,65,10|0,1:0|1:0,0:0:0:0:
440,224,151535,2,0,L|430:288,1,65,2|0,1:0|1:0,0:0:0:0:
476,366,151781,1,10,1:0:0:0:
476,366,151904,1,10,1:0:0:0:
476,366,152027,6,0,P|446:340|349:354,1,130,6|8,1:0|1:0,1:0:0:0:
244,233,152519,2,0,L|234:311,1,65,0|0,1:0|1:0,0:0:0:0:
193,368,152765,1,10,1:0:0:0:
193,368,152888,1,0,1:0:0:0:
193,368,153011,6,0,P|200:308|143:290,1,130,2|8,1:0|3:1,1:0:0:0:
37,170,153502,2,0,L|43:105,1,65,0|2,1:0|1:0,0:0:0:0:
108,56,153748,1,10,1:0:0:0:
108,56,153871,6,0,P|143:93|240:83,1,130,6|0,1:0|1:0,1:0:0:0:
300,82,154240,1,8,1:0:0:0:
300,82,154486,2,0,L|296:158,1,65,0|0,1:0|1:0,0:0:0:0:
297,231,154732,1,10,1:0:0:0:
297,231,154978,6,0,L|373:235,2,65,2|0|8,1:0|1:0|1:0,0:0:0:0:
217,219,155347,2,0,P|194:252|200:345,1,130,0|0,3:0|3:0,0:0:0:0:
267,376,155715,1,8,3:1:0:0:
411,307,155961,6,0,L|491:297,1,65,2|2,1:0|1:0,0:0:0:0:
508,225,156207,2,0,L|443:216,1,65,10|2,1:0|1:0,0:0:0:0:
414,141,156453,1,2,1:0:0:0:
414,141,156576,1,2,1:0:0:0:
414,141,156699,2,0,L|478:132,1,65,10|2,1:0|1:0,0:0:0:0:
440,57,156945,6,0,L|375:48,1,65,2|2,1:0|1:0,0:0:0:0:
322,109,157191,2,0,L|257:117,1,65,10|2,1:0|1:0,0:0:0:0:
184,82,157437,1,2,1:0:0:0:
184,82,157560,2,0,L|175:146,1,65,2|10,1:0|1:0,0:0:0:0:
96,129,157806,6,0,P|131:148|123:239,1,130,6|0,1:0|1:0,1:0:0:0:
69,279,158174,2,0,L|199:279,1,130,10|0,1:0|1:0,1:0:0:0:
265,234,158543,1,2,1:0:0:0:
265,234,158666,2,0,P|275:198|263:164,1,65,8|2,1:0|1:0,0:0:0:0:
216,109,158912,6,0,P|272:135|329:108,1,130,2|8,1:0|1:0,1:0:0:0:
392,58,159281,2,0,P|365:114|392:171,1,130,2|2,3:1|3:1,0:0:0:0:
462,220,159650,1,0,0:0:0:0:
462,220,159773,6,0,L|450:349,1,130,6|0,1:0|1:0,0:0:0:0:
370,359,160142,2,0,L|304:366,1,65,10|0,1:2|1:0,0:0:0:0:
249,307,160388,2,0,L|183:300,1,65,10|0,1:2|1:0,0:0:0:0:
119,346,160633,2,0,L|53:353,1,65,10|0,1:2|1:0,0:0:0:0:
3,290,160879,5,10,1:2:0:0:
137,204,161125,1,10,1:2:0:0:
7,110,161371,1,10,1:2:0:0:
147,30,161617,1,10,1:2:0:0:
147,30,161740,6,0,L|280:38,1,130,6|0,3:2|1:0,0:0:0:0:
353,12,162109,2,0,L|353:81,1,65,10|0,1:2|1:0,0:0:0:0:
303,140,162355,2,0,L|303:209,1,65,10|0,1:2|1:0,0:0:0:0:
348,271,162601,2,0,L|417:271,1,65,10|0,1:2|1:0,0:0:0:0:
484,234,162847,5,10,1:2:0:0:
379,353,163092,1,10,1:2:0:0:
303,205,163338,1,10,1:2:0:0:
198,324,163584,1,10,1:2:0:0:
198,324,163707,6,0,P|159:286|185:207,1,130,6|0,3:2|1:0,0:0:0:0:
219,151,164076,2,0,L|210:86,1,65,10|0,1:2|1:0,0:0:0:0:
196,7,164322,2,0,L|131:15,1,65,10|0,1:2|1:0,0:0:0:0:
52,30,164568,2,0,L|60:94,1,65,10|0,1:2|1:0,0:0:0:0:
21,164,164814,5,10,1:2:0:0:
172,217,165060,1,10,1:2:0:0:
50,321,165306,1,10,1:2:0:0:
205,375,165551,1,10,1:2:0:0:
205,375,165674,6,0,L|346:364,1,130,6|0,3:2|1:0,0:0:0:0:
405,326,166043,2,0,L|409:261,1,65,10|0,1:2|1:0,0:0:0:0:
347,209,166289,2,0,L|343:144,1,65,10|0,1:2|1:0,0:0:0:0:
355,64,166535,2,0,P|388:51|416:55,1,65,10|0,1:2|1:0,0:0:0:0:
475,120,166781,5,10,3:2:0:0:
243,69,167150,1,2,3:2:0:0:
87,247,167519,1,2,3:2:0:0:
285,384,167888,5,0,3:0:0:0:
285,384,168011,2,0,L|292:317,1,58.4999982147217,14|0,1:2|1:0,1:0:0:0:
346,269,168256,2,0,L|332:138,1,116.999996429443,2|10,1:2|1:2,1:0:0:0:
283,90,168625,6,0,P|334:113|387:91,1,116.999996429443,6|0,1:2|1:0,1:0:0:0:
441,33,168994,1,10,1:2:0:0:
504,177,169240,2,0,L|504:250,1,58.4999982147217,2|0,1:2|1:0,1:0:0:0:
508,314,169486,1,10,1:2:0:0:
357,363,169732,6,0,P|339:333|252:327,1,116.999996429443,6|8,1:2|1:0,1:0:0:0:
187,295,170101,2,0,P|221:294|270:222,1,116.999996429443,2|0,1:2|1:0,0:0:0:0:
315,168,170470,6,0,B|282:130|234:125|234:125|210:161|163:159,1,175.499994644165,10|0,1:2|1:0,0:0:0:0:
87,137,170961,1,10,1:2:0:0:
168,1,171207,1,0,1:0:0:0:
172,5,171330,2,0,L|235:11,1,58.4999982147217,2|10,1:2|1:2,0:0:0:0:
309,17,171576,1,2,1:2:0:0:
495,163,171945,6,0,L|427:173,1,58.4999982147217,14|0,1:2|0:0,1:0:0:0:
363,141,172191,2,0,P|340:194|352:250,1,116.999996429443,2|10,1:2|1:2,0:0:0:0:
401,312,172560,6,0,P|348:289|291:301,1,116.999996429443,6|0,3:2|1:0,1:0:0:0:
236,358,172929,1,10,1:2:0:0:
126,244,173174,2,0,L|126:175,1,58.4999982147217,2|0,1:2|1:0,1:0:0:0:
126,105,173420,1,10,1:2:0:0:
270,168,173666,6,0,P|328:161|386:156,1,116.999996429443,6|8,1:2|1:0,0:0:0:0:
506,52,174158,1,0,1:0:0:0:
506,52,174281,2,0,P|461:16|405:26,1,116.999996429443,8|0,1:0|1:0,0:0:0:0:
327,8,174650,2,0,P|268:14|210:19,1,116.999996429443,8|0,1:0|1:0,0:0:0:0:
130,19,175019,1,8,1:0:0:0:
61,163,175265,1,8,1:0:0:0:
61,163,175388,2,0,L|71:243,1,58.4999982147217,8|8,1:0|1:0,0:0:0:0:
267,349,175879,6,0,L|274:290,1,58.4999982147217,14|0,1:2|0:0,1:0:0:0:
215,236,176125,2,0,P|258:208|325:225,1,116.999996429443,2|10,1:2|1:2,0:0:0:0:
393,249,176494,6,0,L|402:126,1,116.999996429443,6|0,1:2|1:0,1:0:0:0:
443,64,176863,1,10,1:2:0:0:
294,11,177109,2,0,L|227:23,1,58.4999982147217,2|0,1:2|1:0,0:0:0:0:
157,33,177355,1,10,1:2:0:0:
96,179,177601,6,0,P|138:204|209:186,1,116.999996429443,6|8,1:2|1:0,1:0:0:0:
343,121,178092,2,0,L|332:245,1,116.999996429443,2|8,1:2|1:0,0:0:0:0:
392,289,178461,6,0,P|336:274|285:301,1,116.999996429443,6|0,1:2|3:0,1:0:0:0:
230,359,178830,2,0,L|107:348,1,116.999996429443,8|0,1:0|1:0,1:0:0:0:
88,272,179199,1,2,1:0:0:0:
88,272,179322,2,0,L|149:266,1,58.4999982147217,10|2,1:0|1:0,0:0:0:0:
217,229,179568,6,0,P|236:196|215:115,1,116.999996429443,6|8,1:2|1:0,1:0:0:0:
87,36,180060,2,0,L|81:109,1,58.4999982147217,0|0,1:0|1:0,0:0:0:0:
116,166,180306,1,8,1:0:0:0:
185,24,180551,6,0,P|239:4|296:15,1,116.999996429443,0|8,1:0|1:0,0:0:0:0:
331,86,180920,2,0,P|354:107|445:94,1,116.999996429443,0|0,1:0|1:0,1:0:0:0:
395,33,181289,1,10,1:0:0:0:
362,194,181535,6,0,L|377:319,1,116.999996429443,14|0,1:2|1:0,1:0:0:0:
409,382,181904,2,0,P|379:352|300:367,1,116.999996429443,14|0,1:2|1:0,1:0:0:0:
233,365,182273,1,8,1:0:0:0:
233,365,182519,6,0,B|187:326|187:326|198:270,1,116.999996429443,8|8,3:0|3:0,0:0:0:0:
257,218,182888,2,0,L|140:212,1,116.999996429443,8|8,1:0|1:0,0:0:0:0:
89,153,183256,1,8,1:3:0:0:
89,153,183379,6,0,L|79:282,1,116.999996429443,8|8,1:0|1:0,0:0:0:0:
99,346,183748,2,0,L|169:338,1,58.4999982147217,8|8,1:0|1:0,0:0:0:0:
197,270,183994,1,8,1:0:0:0:
201,274,184117,1,8,1:0:0:0:
205,278,184240,2,0,L|275:286,1,58.4999982147217,8|8,3:0|1:0,0:0:0:0:
328,329,184486,5,8,1:0:0:0:
160,67,184978,1,8,1:0:0:0:
160,67,185101,2,0,L|154:125,1,58.4999982147217,0|0,3:0|0:0,0:0:0:0:
232,166,185347,6,0,L|245:36,1,130,6|0,1:0|1:0,1:0:0:0:
316,0,185715,2,0,L|446:13,1,130,8|0,1:0|1:0,0:0:0:0:
510,68,186084,1,0,1:0:0:0:
510,68,186207,2,0,L|503:132,1,65,10|0,1:0|1:0,0:0:0:0:
435,174,186453,6,0,P|408:232|431:291,1,130,2|8,1:0|1:0,1:0:0:0:
491,354,186822,1,0,1:0:0:0:
491,354,186945,2,0,P|433:327|374:350,1,130,2|8,1:0|1:0,0:0:0:0:
308,304,187314,6,0,P|243:311|178:315,1,130,0|0,1:0|1:0,0:0:0:0:
121,372,187683,2,0,P|96:313|121:255,1,130,10|0,1:0|1:0,0:0:0:0:
173,194,188051,1,0,1:0:0:0:
173,194,188174,2,0,L|166:116,1,65,10|2,1:0|1:0,0:0:0:0:
137,54,188420,6,0,P|169:48|201:46,1,65,2|0,1:0|1:0,1:0:0:0:
260,101,188666,2,0,P|292:103|324:108,1,65,10|0,1:0|1:0,1:0:0:0:
390,60,188912,1,2,1:0:0:0:
390,60,189035,2,0,P|422:57|454:52,1,65,2|10,1:0|1:0,0:0:0:0:
509,112,189281,6,0,P|468:159|482:220,1,130,6|0,3:1|1:0,1:0:0:0:
461,298,189650,2,0,P|397:292|332:288,1,130,8|0,1:0|1:0,1:0:0:0:
269,243,190019,1,0,1:0:0:0:
269,243,190142,2,0,P|266:210|264:178,1,65,10|0,1:0|1:0,0:0:0:0:
281,99,190388,6,0,P|256:71|166:76,1,130,2|8,1:0|1:0,1:0:0:0:
95,42,190756,1,0,1:0:0:0:
95,42,190879,2,0,L|84:178,1,130,2|10,1:0|1:0,0:0:0:0:
12,207,191248,6,0,L|23:343,1,130,2|0,1:0|1:0,1:0:0:0:
94,373,191617,2,0,B|146:336|146:336|208:359,1,130,10|0,1:0|1:0,0:0:0:0:
276,315,191986,1,0,1:0:0:0:
276,315,192109,2,0,L|280:238,1,65,8|0,1:0|1:0,0:0:0:0:
221,193,192355,5,0,1:0:0:0:
221,193,192478,1,0,1:0:0:0:
221,193,192601,2,0,L|156:196,1,65,8|0,1:0|1:0,0:0:0:0:
133,278,192847,1,2,1:2:0:0:
133,278,192970,1,2,1:2:0:0:
133,278,193093,2,0,L|197:274,1,65,10|2,1:2|1:2,0:0:0:0:
64,210,193338,6,0,P|38:269|62:338,1,130,6|8,1:0|1:0,1:0:0:0:
125,370,193707,2,0,L|260:362,1,130,0|0,1:0|1:0,1:0:0:0:
330,330,194076,1,10,1:0:0:0:
330,330,194199,6,0,P|356:271|332:202,1,130,2|0,1:0|1:0,1:0:0:0:
272,163,194568,2,0,L|201:171,1,65,10|0,1:0|1:0,1:0:0:0:
149,225,194814,2,0,L|78:217,1,65,2|0,1:0|1:0,1:0:0:0:
21,166,195060,2,0,P|12:134|18:103,1,65,10|0,1:0|1:0,1:0:0:0:
67,39,195306,6,0,P|131:33|196:31,1,130,2|8,1:0|1:0,1:0:0:0:
249,94,195674,2,0,P|226:37|275:1,1,130,0|2,1:0|3:1,0:0:0:0:
341,55,196043,1,8,3:1:0:0:
341,55,196166,6,0,P|348:119|352:184,1,130,2|0,1:0|3:0,0:0:0:0:
386,257,196535,2,0,P|354:264|322:259,1,65,8|0,3:1|3:0,0:0:0:0:
251,293,196781,1,0,3:0:0:0:
251,293,196904,1,2,3:1:0:0:
251,293,197027,2,0,P|243:261|248:229,1,65,10|2,3:1|3:1,0:0:0:0:
269,152,197273,6,0,B|228:203|228:203|145:198,1,130,4|10,1:0|1:0,1:0:0:0:
94,240,197642,2,0,P|130:189|106:132,1,130,2|2,1:0|1:0,1:0:0:0:
74,59,198011,2,0,P|104:50|136:57,1,65,10|2,1:0|1:0,0:0:0:0:
205,16,198256,6,0,P|232:48|317:41,1,130,2|8,1:0|1:0,1:0:0:0:
389,15,198625,2,0,L|399:167,1,130,2|0,1:0|1:0,1:0:0:0:
447,208,198994,2,0,L|442:275,1,65,10|0,1:0|0:0,0:0:0:0:
398,340,199240,6,0,P|364:365|277:343,1,130,2|14,1:0|1:0,1:0:0:0:
205,370,199609,1,2,1:0:0:0:
205,370,199732,2,0,L|198:293,1,65,12|0,1:0|1:0,0:0:0:0:
253,245,199978,2,0,L|260:168,1,65,12|0,1:0|1:0,0:0:0:0:
240,101,200224,5,12,1:0:0:0:
240,101,200347,1,8,1:0:0:0:
239,100,200470,2,0,P|207:94|176:102,1,65,2|0,3:1|0:0,0:0:0:0:
104,137,200715,1,10,1:1:0:0:
104,137,200838,2,0,P|95:105|101:74,1,65,6|0,3:1|0:0,0:0:0:0:
171,188,201084,6,0,L|158:330,1,130,6|0,1:0|1:0,1:0:0:0:
96,368,201453,2,0,P|125:315|78:277,1,130,8|0,1:0|1:0,1:0:0:0:
12,236,201822,1,0,1:0:0:0:
12,236,201945,2,0,L|4:164,1,65,10|0,1:0|1:0,0:0:0:0:
0,90,202191,6,0,P|32:66|122:82,1,130,2|8,1:0|1:0,1:0:0:0:
159,151,202560,1,0,1:0:0:0:
159,151,202683,2,0,P|219:168|275:138,1,130,2|8,1:0|1:0,0:0:0:0:
355,139,203051,6,0,P|300:110|310:50,1,130,0|0,1:0|1:0,1:0:0:0:
376,4,203420,2,0,L|505:16,1,130,10|0,1:0|1:0,0:0:0:0:
495,99,203789,1,0,1:0:0:0:
495,99,203912,2,0,L|430:92,1,65,10|2,1:0|1:0,0:0:0:0:
355,139,204158,6,0,L|348:204,1,65,2|0,1:0|1:0,1:0:0:0:
282,249,204404,2,0,L|289:314,1,65,10|0,1:0|1:0,1:0:0:0:
360,361,204650,1,2,1:0:0:0:
360,361,204773,2,0,L|425:368,1,65,2|10,1:0|1:0,0:0:0:0:
504,381,205019,6,0,P|458:338|474:278,1,130,6|0,3:1|1:0,1:0:0:0:
509,206,205388,2,0,L|496:76,1,130,8|0,1:0|1:0,0:0:0:0:
443,16,205756,1,0,1:0:0:0:
443,16,205879,2,0,P|408:5|361:18,1,65,10|0,1:0|1:0,1:0:0:0:
313,53,206125,6,0,B|323:105|323:105|315:131|315:131|325:183,1,130,2|8,1:0|1:0,0:0:0:0:
399,222,206494,1,0,1:0:0:0:
399,222,206617,2,0,L|375:349,1,130,2|10,1:0|1:0,0:0:0:0:
302,382,206986,6,0,P|282:348|194:347,1,130,2|0,1:0|0:0,0:0:0:0:
120,360,207355,2,0,B|164:335|164:335|154:244,1,130,10|0,1:0|1:0,0:0:0:0:
99,197,207724,1,0,1:0:0:0:
99,197,207847,2,0,L|112:111,1,65,8|0,1:0|1:0,0:0:0:0:
159,70,208092,5,0,1:0:0:0:
159,70,208215,1,0,1:0:0:0:
159,70,208338,2,0,P|190:62|222:67,1,65,8|0,1:0|1:0,0:0:0:0:
298,117,208584,1,2,1:2:0:0:
298,117,208707,1,2,1:2:0:0:
298,117,208830,2,0,P|329:124|361:119,1,65,10|2,1:2|1:2,0:0:0:0:
222,152,209076,6,0,P|198:192|223:285,1,130,6|8,1:0|1:0,1:0:0:0:
187,348,209445,2,0,L|334:347,1,130,0|0,1:0|1:0,1:0:0:0:
394,383,209814,1,10,1:0:0:0:
394,383,209937,6,0,B|352:333|352:333|378:247,1,130,2|0,1:0|1:0,1:0:0:0:
437,225,210306,2,0,L|432:160,1,65,10|0,1:0|1:0,0:0:0:0:
395,88,210551,2,0,L|330:83,1,65,2|0,1:0|1:0,0:0:0:0:
284,149,210797,2,0,L|219:153,1,65,10|0,1:0|1:0,0:0:0:0:
144,122,211043,6,0,P|187:167|179:229,1,130,2|8,1:0|1:0,1:0:0:0:
212,308,211412,1,0,1:0:0:0:
212,308,211535,2,0,L|71:308,1,130,2|8,1:0|3:1,0:0:0:0:
10,345,211904,6,0,B|52:295|52:295|30:211,1,130,2|0,1:0|3:0,0:0:0:0:
3,158,212273,2,0,L|12:89,1,65,8|0,3:1|3:0,0:0:0:0:
74,42,212519,1,0,3:0:0:0:
74,42,212642,1,2,3:1:0:0:
74,42,212765,2,0,L|143:51,1,65,10|2,3:1|3:1,0:0:0:0:
210,86,213011,6,0,P|169:76|127:156,1,130,4|10,1:0|1:0,1:0:0:0:
115,218,213379,2,0,P|152:169|211:186,1,130,2|2,1:0|1:0,1:0:0:0:
284,151,213748,2,0,P|294:188|288:220,1,65,10|2,1:0|1:0,0:0:0:0:
341,276,213994,6,0,P|284:249|229:279,1,130,2|8,1:0|1:0,1:0:0:0:
206,357,214363,2,0,L|335:367,1,130,2|0,1:0|1:0,1:0:0:0:
408,334,214732,2,0,P|428:303|430:268,1,65,10|0,1:0|0:0,0:0:0:0:
476,208,214978,6,0,P|450:163|479:78,1,130,2|8,1:0|1:0,0:0:0:0:
307,73,215470,2,0,P|333:117|306:203,1,130,0|8,1:0|1:0,0:0:0:0:
224,320,215961,6,0,B|167:293|167:293|102:310,1,130,8|8,3:0|3:0,0:0:0:0:
35,265,216330,1,8,1:0:0:0:
35,265,216453,2,0,L|43:186,1,65,8|8,1:0|1:0,0:0:0:0:
50,120,216699,1,10,1:0:0:0:
50,120,216822,1,4,1:0:0:0:
50,120,216945,6,0,L|179:111,1,116.999996429443,0|8,0:0|1:0,0:0:0:0:
303,31,217437,2,0,P|279:63|300:147,1,116.999996429443,0|8,1:0|1:0,0:0:0:0:
266,214,217806,1,0,1:0:0:0:
266,214,217929,6,0,L|397:227,1,116.999996429443,0|8,1:0|1:0,0:0:0:0:
455,267,218297,1,0,1:0:0:0:
455,267,218420,2,0,P|430:235|447:153,1,116.999996429443,0|8,1:0|1:0,0:0:0:0:
487,99,218789,6,0,P|502:66|428:29,1,116.999996429443,4|0,1:0|1:0,1:0:0:0:
386,68,219158,1,8,1:0:0:0:
238,11,219404,2,0,L|226:149,1,116.999996429443,0|8,1:0|1:0,0:0:0:0:
175,187,219773,1,0,1:0:0:0:
175,187,219896,6,0,L|187:325,1,116.999996429443,0|8,1:0|1:0,1:0:0:0:
233,373,220265,1,0,1:0:0:0:
233,373,220388,2,0,P|204:349|122:376,1,116.999996429443,0|8,1:0|1:0,0:0:0:0:
53,379,220756,6,0,L|42:262,1,116.999996429443,4|0,1:0|1:0,1:0:0:0:
32,183,221125,1,8,1:0:0:0:
134,63,221371,2,0,P|166:42|249:60,1,116.999996429443,0|8,1:0|1:0,0:0:0:0:
301,112,221740,1,0,1:0:0:0:
301,112,221863,6,0,L|424:104,1,116.999996429443,0|8,1:0|1:0,0:0:0:0:
477,51,222232,1,0,1:0:0:0:
477,51,222355,2,0,L|469:174,1,116.999996429443,0|8,1:0|1:0,0:0:0:0:
465,247,222724,6,0,P|432:276|352:265,1,116.999996429443,4|0,1:0|1:0,1:0:0:0:
300,223,223092,1,8,1:0:0:0:
172,316,223338,2,0,P|164:343|168:372,1,58.4999982147217,0|0,1:0|1:0,0:0:0:0:
248,375,223584,2,0,P|255:347|251:318,1,58.4999982147217,8|0,1:0|1:0,0:0:0:0:
219,245,223830,6,0,P|198:196|231:122,1,116.999996429443,0|8,1:0|1:0,0:0:0:0:
126,6,224322,2,0,L|55:13,1,58.4999982147217,0|8,1:0|1:0,0:0:0:0:
4,59,224568,1,8,1:0:0:0:
8,63,224691,6,0,P|32:93|26:174,1,116.999996429443,12|0,1:0|1:0,1:0:0:0:
2,243,225060,1,8,1:0:0:0:
134,325,225306,2,0,L|250:317,1,116.999996429443,0|8,1:0|1:0,0:0:0:0:
314,372,225674,1,0,1:0:0:0:
314,372,225797,6,0,L|430:379,1,116.999996429443,0|8,1:0|1:0,0:0:0:0:
506,348,226166,1,0,1:0:0:0:
506,348,226289,2,0,P|480:304|499:239,1,116.999996429443,0|8,1:0|1:0,0:0:0:0:
502,163,226658,6,0,P|469:208|414:199,1,116.999996429443,4|0,1:0|1:0,1:0:0:0:
346,157,227027,1,8,1:0:0:0:
234,269,227273,2,0,L|117:259,1,116.999996429443,0|8,1:0|1:0,1:0:0:0:
55,209,227642,1,0,1:0:0:0:
55,209,227765,6,0,P|27:158|42:103,1,116.999996429443,0|8,1:0|1:0,0:0:0:0:
102,51,228133,1,0,1:0:0:0:
102,51,228256,2,0,L|218:60,1,116.999996429443,0|8,1:0|1:0,0:0:0:0:
283,106,228625,6,0,P|256:56|282:6,1,116.999996429443,4|0,1:0|1:0,1:0:0:0:
362,1,228994,1,8,1:0:0:0:
453,129,229240,2,0,L|443:265,1,116.999996429443,0|8,1:0|1:0,0:0:0:0:
410,319,229609,1,0,1:0:0:0:
410,319,229732,6,0,P|373:345|298:326,1,116.999996429443,0|8,1:0|1:0,0:0:0:0:
247,278,230101,1,0,1:0:0:0:
247,278,230224,2,0,L|115:290,1,116.999996429443,2|10,1:2|1:2,0:0:0:0:
62,328,230592,6,0,B|93:285|93:285|75:223,1,116.999996429443,4|0,1:0|1:0,1:0:0:0:
21,164,230961,2,0,B|68:187|68:187|126:158,1,116.999996429443,12|0,1:0|3:0,1:0:0:0:
175,95,231330,2,0,B|160:146|160:146|198:198,1,116.999996429443,8|0,1:0|3:0,1:0:0:0:
265,240,231699,6,0,L|326:233,1,58.4999982147217,12|0,1:0|1:0,0:0:0:0:
388,187,231945,2,0,L|449:194,1,58.4999982147217,12|0,1:0|1:0,0:0:0:0:
500,251,232191,1,8,1:0:0:0:
504,255,232314,2,0,L|497:316,1,58.4999982147217,8|8,1:0|1:0,0:0:0:0:
438,366,232560,5,12,1:0:0:0:
298,83,233174,1,4,1:0:0:0:
166,367,233666,1,8,1:0:0:0:
166,367,233789,1,8,1:0:0:0:
166,367,233912,2,0,L|157:291,1,58.4999982147217,0|0,3:0|3:0,0:0:0:0:
89,260,234158,2,0,P|144:270|188:234,1,116.999996429443,8|8,1:0|1:0,1:0:0:0:
256,192,234527,5,4,3:1:0:0:
256,192,234650,12,0,238953,1:0:0:0:
