osu file format v14

[General]
AudioFilename: audio.mp3
AudioLeadIn: 0
PreviewTime: 96146
Countdown: 0
SampleSet: Soft
StackLeniency: 0.7
Mode: 0
LetterboxInBreaks: 0
WidescreenStoryboard: 0

[Editor]
Bookmarks: 16171,31909,41745,57483,65352,81089,96826,112564,128425,144039,159776,167645,185350,201088,216825,232563,238957
DistanceSpacing: 0.5
BeatDivisor: 4
GridSize: 32
TimelineZoom: 1.6

[Metadata]
Title:Dorothea
TitleUnicode:ドロチア
Artist:Eine Kleine
ArtistUnicode:Eine Kleine
Creator:IsomirDiAngelo
Version:Shoujo -D-
Source:
Tags:lmt shidoni shirahane suou lolcubes dorochia shoujo D 少女-D- くろねこ kuroneko japanese gothic jrock rock metal
BeatmapID:2581271
BeatmapSetID:1241592

[Difficulty]
HPDrainRate:5
CircleSize:4
OverallDifficulty:9.5
ApproachRate:9.8
SliderMultiplier:2
SliderTickRate:1

[Events]
//Background and Video events
0,0,"bg.jpg",0,0
//Break Periods
//Storyboard Layer 0 (Background)
//Storyboard Layer 1 (Fail)
//Storyboard Layer 2 (Pass)
//Storyboard Layer 3 (Foreground)
//Storyboard Layer 4 (Overlay)
//Storyboard Sound Samples

[TimingPoints]
62,245.901639344262,4,2,1,50,1,0
430,-250,4,2,1,50,0,0
552,245.901639344262,4,2,1,50,1,0
797,-250,4,2,1,50,0,0
8174,-250,4,1,1,70,0,0
8297,-100,4,1,1,70,0,0
14199,-125,4,1,1,70,0,0
16166,-100,4,1,1,70,0,0
31535,-66.6666666666667,4,1,1,70,0,0
31904,-100,4,1,1,70,0,0
32273,-83.3333333333333,4,1,1,70,0,0
33871,-100,4,1,1,70,0,0
34240,-83.3333333333333,4,1,1,70,0,0
35838,-100,4,1,1,70,0,0
36207,-83.3333333333333,4,1,1,70,0,0
37806,-100,4,1,1,70,0,0
38174,-83.3333333333333,4,1,1,70,0,0
41740,-166.666666666667,4,1,1,70,0,0
57478,-100,4,1,1,70,0,0
65101,-66.6666666666667,4,1,1,70,0,0
65285,-66.6666666666667,4,1,1,5,0,0
65347,-125,4,1,1,70,0,0
81207,-166.666666666667,4,1,1,70,0,0
87601,-1000,4,1,1,70,0,0
88584,-125,4,1,1,70,0,0
89076,-166.666666666667,4,1,1,70,0,0
93011,-125,4,1,1,70,0,0
94978,-83.3333333333334,4,1,1,70,0,0
96822,-90.9090909090909,4,1,1,70,0,0
104814,-66.6666666666667,4,1,1,70,0,0
105183,-90.9090909090909,4,1,1,70,0,0
120551,-66.6666666666667,4,1,1,70,0,0
120920,-90.9090909090909,4,1,1,70,0,0
127437,-76.9230769230769,4,2,1,70,0,0
128543,-125,4,2,1,70,0,0
134322,-166.666666666667,4,1,1,70,0,0
136289,-100,4,1,1,70,0,0
144035,-83.3333333333333,4,1,1,70,0,1
153011,-66.6666666666667,4,1,1,70,0,1
153379,-83.3333333333333,4,1,1,70,0,1
158174,-62.5,4,1,1,70,0,1
158543,-83.3333333333333,4,1,1,70,0,1
159773,-83.3333333333333,4,1,1,80,0,0
160019,-83.3333333333333,4,1,1,80,0,1
161740,-83.3333333333333,4,1,1,80,0,0
161986,-83.3333333333333,4,1,1,80,0,1
163707,-83.3333333333333,4,1,1,80,0,0
163953,-83.3333333333333,4,1,1,80,0,1
165674,-83.3333333333333,4,1,1,80,0,0
165920,-83.3333333333333,4,1,1,80,0,1
166781,-83.3333333333333,4,1,1,80,0,0
167888,-83.3333333333333,4,1,1,70,0,0
168011,-100,4,1,1,70,0,0
171576,-200,4,1,1,70,0,0
171945,-100,4,1,1,70,0,0
175511,-200,4,1,1,70,0,0
175879,-100,4,1,1,70,0,0
181535,-76.9230769230769,4,1,1,70,0,0
182273,-90.9090909090909,4,1,1,70,0,0
184547,-125,4,1,1,70,0,0
185347,-83.3333333333333,4,1,1,70,0,0
193338,-66.6666666666667,4,1,1,70,0,0
193707,-83.3333333333333,4,1,1,70,0,0
209076,-66.6666666666667,4,1,1,70,0,0
209445,-83.3333333333333,4,1,1,70,0,0
216822,-90.9090909090909,4,1,1,70,0,0
238953,-90.9090909090909,4,1,1,5,0,0

[Colours]
Combo1 : 43,159,230
Combo2 : 230,187,123
Combo3 : 215,55,112

[HitObjects]
123,99,62,5,0,0:0:0:0:
123,99,184,1,0,0:0:0:0:
123,99,430,6,0,P|160:90|219:87,1,79.6746666666667,2|0,0:2|0:0,0:0:0:0:
98,176,797,2,0,P|59:185|19:188,1,80.6186666666666,2|0,0:2|0:0,0:0:0:0:
182,225,1166,5,0,0:0:0:0:
182,225,1289,2,0,L|190:169,1,40.6346666666666,2|0,0:2|0:0,0:0:0:0:
114,280,1535,2,0,L|61:301,1,40.6346666666666,2|0,0:2|0:0,0:0:0:0:
196,312,1781,2,0,L|240:346,1,40.6346666666666,2|0,0:2|0:0,0:0:0:0:
358,300,2027,5,2,0:2:0:0:
358,300,2109,1,0,0:0:0:0:
358,300,2191,1,0,0:0:0:0:
358,300,2273,1,0,0:0:0:0:
285,236,2396,6,0,P|279:195|289:154,1,80.6186666666666,2|0,0:2|0:0,0:0:0:0:
213,51,2765,2,0,P|218:91|208:132,1,80.6186666666666,2|0,0:2|0:0,0:0:0:0:
393,81,3133,5,0,0:0:0:0:
393,81,3256,1,2,0:2:0:0:
471,152,3502,1,2,0:2:0:0:
423,243,3748,1,2,0:2:0:0:
320,223,3994,1,2,0:2:0:0:
294,126,4240,5,0,0:0:0:0:
294,126,4363,2,0,L|209:119,1,80.6186666666666,2|0,0:2|0:0,0:0:0:0:
147,54,4732,2,0,P|146:34|142:15,2,40.3093333333333,2|0|0,0:2|0:0|0:0,0:0:0:0:
0,116,5101,1,0,0:0:0:0:
0,116,5224,2,0,P|0:136|5:156,1,40.6346666666666,2|0,0:2|0:0,0:0:0:0:
58,46,5470,2,0,L|53:6,1,40.3093333333333,2|0,0:2|0:0,0:0:0:0:
98,126,5715,2,0,L|101:165,1,40.6346666666666,2|0,0:2|0:0,0:0:0:0:
2,258,5961,5,2,0:2:0:0:
85,252,6084,1,2,0:2:0:0:
169,246,6207,1,2,0:2:0:0:
249,271,6330,6,0,L|245:362,1,80.6186666666666,2|0,0:2|0:0,0:0:0:0:
328,235,6699,2,0,L|324:155,1,80.6186666666666,2|0,0:2|0:0,0:0:0:0:
406,268,7068,1,0,0:0:0:0:
406,268,7191,1,0,0:0:0:0:
459,62,7437,6,0,P|416:60|378:88,1,80.6186666666666,2|0,0:2|0:0,0:0:0:0:
53,62,7929,2,0,P|95:60|133:88,1,80.2933333333332,2|0,0:2|3:0,0:0:0:0:
126,79,8236,1,0,1:0:0:0:
126,79,8297,6,0,P|172:138|13:222,1,301.506666666666,8|8,3:1|1:0,1:0:0:0:
386,79,10265,2,0,P|340:138|512:224,1,300,8|8,1:0|1:0,1:0:0:0:
251,361,12232,2,0,B|318:299|272:212|219:249|176:150|261:69,1,301.506666666666,8|8,1:0|1:0,1:0:0:0:
412,77,14199,6,0,B|346:106|315:26|315:26|284:40|257:118|257:118|226:40|192:26|192:26|177:110|75:87,1,481.109333333333,4|0,1:0|1:0,1:0:0:0:
224,319,15306,5,8,1:0:0:0:
254,331,15367,1,0,3:0:0:0:
284,319,15429,1,0,3:0:0:0:
297,289,15490,1,0,3:0:0:0:
284,259,15551,1,0,3:0:0:0:
254,247,15613,1,0,3:0:0:0:
224,259,15674,1,0,3:0:0:0:
212,289,15736,1,0,3:0:0:0:
254,292,15797,5,8,1:0:0:0:
258,119,15920,1,2,3:0:0:0:
258,119,16166,6,0,B|335:75|335:75|477:100,1,201.546666666666,4|0,1:0|1:0,1:0:0:0:
403,238,16535,2,0,P|370:223|368:139,1,101.586666666667,8|0,1:0|1:0,1:0:0:0:
185,161,16781,1,0,1:0:0:0:
139,87,16904,1,0,1:0:0:0:
208,37,17027,2,0,P|241:52|243:136,1,101.586666666667,8|0,1:0|1:0,1:0:0:0:
112,215,17273,5,0,1:0:0:0:
92,299,17396,1,0,1:0:0:0:
8,286,17519,2,0,P|-4:252|53:191,1,101.586666666667,8|0,1:0|1:0,1:0:0:0:
174,371,17765,5,0,1:0:0:0:
311,248,17888,1,0,1:0:0:0:
194,250,18011,1,8,1:0:0:0:
295,370,18133,2,0,P|394:351|374:244,1,201.546666666666,4|0,1:0|1:0,1:0:0:0:
393,98,18502,6,0,B|356:136|356:136|381:210,1,101.586666666667,8|0,1:0|1:0,1:0:0:0:
194,250,18748,2,0,B|231:212|231:212|206:138,1,101.586666666667,0|0,1:0|1:0,1:0:0:0:
75,90,18994,5,8,1:0:0:0:
75,90,19117,1,0,1:0:0:0:
174,55,19240,2,0,L|290:75,1,101.586666666667,0|0,1:0|1:0,1:0:0:0:
104,192,19486,2,0,L|-12:212,1,101.586666666667,8|0,1:0|1:0,1:0:0:0:
271,317,19732,5,0,1:0:0:0:
215,167,19855,1,0,1:0:0:0:
95,287,19978,1,8,1:0:0:0:
173,368,20101,6,0,B|251:341|251:341|288:367|288:367|398:378,1,201.546666666666,4|0,1:0|1:0,1:0:0:0:
395,201,20470,2,0,P|347:248|349:290,1,100.773333333333,8|0,1:0|1:0,1:0:0:0:
200,260,20715,1,0,1:0:0:0:
115,199,20838,1,0,1:0:0:0:
218,157,20961,1,8,1:0:0:0:
125,87,21084,1,0,1:0:0:0:
234,51,21207,5,0,1:0:0:0:
335,79,21330,1,0,1:0:0:0:
441,110,21453,2,0,P|428:162|412:227,1,101.586666666667,8|0,1:0|1:0,1:0:0:0:
249,365,21699,5,0,1:0:0:0:
136,332,21822,1,0,1:0:0:0:
390,309,21945,5,8,1:0:0:0:
285,272,22068,2,0,B|250:202|271:118|352:78,1,201.546666666666,4|0,1:0|1:0,1:0:0:0:
133,31,22437,2,0,B|167:62|167:62|221:56,1,101.586666666667,8|0,1:0|1:0,1:0:0:0:
0,164,22683,1,0,1:0:0:0:
54,247,22806,1,0,1:0:0:0:
111,160,22929,2,0,B|77:128|77:128|23:135,1,100.773333333333,8|0,1:0|1:0,1:0:0:0:
152,357,23174,5,8,1:0:0:0:
318,243,23297,1,0,1:0:0:0:
360,357,23420,5,8,1:0:0:0:
187,237,23543,1,0,1:0:0:0:
251,322,23666,5,8,1:0:0:0:
260,155,23789,1,2,3:0:0:0:
260,155,24035,6,0,B|307:99|369:126|369:126|396:183|461:172,1,201.546666666666,4|0,1:0|1:0,1:0:0:0:
491,2,24404,2,0,B|452:29|452:29|451:103,1,101.586666666667,8|0,1:0|1:0,1:0:0:0:
260,155,24650,1,0,1:0:0:0:
221,240,24773,1,0,1:0:0:0:
301,293,24896,2,0,B|340:266|340:266|341:192,1,101.586666666667,8|0,1:0|1:0,1:0:0:0:
127,212,25142,5,0,1:0:0:0:
36,243,25265,1,0,1:0:0:0:
65,337,25388,1,8,1:0:0:0:
156,310,25511,1,0,1:0:0:0:
221,240,25633,5,0,1:0:0:0:
348,358,25756,1,0,1:0:0:0:
217,377,25879,1,8,1:0:0:0:
340,213,26002,2,0,P|412:234|408:364,1,201.546666666666,4|0,1:0|1:0,1:0:0:0:
221,240,26371,6,0,L|237:125,1,101.586666666667,8|0,1:0|1:0,1:0:0:0:
62,89,26617,2,0,L|153:160,1,101.586666666667,0|0,1:0|1:0,1:0:0:0:
273,27,26863,2,0,L|165:70,1,101.586666666667,8|0,1:0|1:0,1:0:0:0:
341,208,27109,5,0,1:0:0:0:
448,163,27232,1,0,1:0:0:0:
366,87,27355,1,8,1:0:0:0:
448,163,27478,1,0,1:0:0:0:
428,252,27601,5,0,1:0:0:0:
281,135,27724,1,0,1:0:0:0:
460,67,27847,1,8,1:0:0:0:
380,152,27970,6,0,P|365:231|356:365,1,200.733333333333,4|0,1:0|1:0,1:0:0:0:
193,275,28338,2,0,B|226:231|226:231|294:226,1,101.586666666667,8|0,1:0|1:0,1:0:0:0:
167,112,28584,1,0,1:0:0:0:
100,197,28707,1,0,1:0:0:0:
167,112,28830,2,0,B|134:68|134:68|66:63,1,101.586666666667,8|0,1:0|1:0,1:0:0:0:
338,58,29076,5,0,1:0:0:0:
380,152,29199,1,0,1:0:0:0:
338,58,29322,1,8,1:0:0:0:
380,152,29445,1,0,1:0:0:0:
278,132,29568,5,0,1:0:0:0:
278,132,29691,1,0,1:0:0:0:
445,68,29814,1,8,1:0:0:0:
445,68,29937,2,0,B|493:116|493:116|445:275,1,201.546666666666,4|0,1:0|1:0,1:0:0:0:
267,281,30306,6,0,P|305:254|391:272,1,101.586666666667,8|0,1:0|1:0,1:0:0:0:
136,189,30551,1,0,1:0:0:0:
73,252,30674,1,0,1:0:0:0:
3,198,30797,2,0,P|41:171|127:189,1,101.586666666667,8|0,1:0|1:0,1:0:0:0:
287,20,31043,5,8,1:0:0:0:
225,206,31166,1,0,1:0:0:0:
158,77,31289,5,8,1:0:0:0:
352,144,31412,1,0,3:0:0:0:
352,144,31474,1,0,3:0:0:0:
352,144,31535,2,0,B|404:142|433:182|433:182|412:157|413:123,1,152.380005722046,8|2,1:0|3:0,1:0:0:0:
413,130,31904,6,0,B|341:167|325:240|385:344,1,201.546666666666,4|0,1:0|1:0,1:0:0:0:
48,363,32273,2,0,P|105:354|185:338,1,121.903996337891,8|0,1:0|1:0,1:0:0:0:
209,80,32519,5,8,1:0:0:0:
267,324,32642,1,0,3:0:0:0:
187,168,32765,5,0,1:0:0:0:
282,226,32888,1,0,1:0:0:0:
166,342,33011,6,0,L|47:363,1,120.927996337891,8|0,1:0|1:0,1:0:0:0:
385,302,33256,2,0,L|266:323,1,121.903996337891,8|0,1:0|1:0,1:0:0:0:
487,278,33502,5,8,1:0:0:0:
434,48,33625,1,0,3:0:0:0:
434,48,33871,6,0,B|330:11|353:145|246:109,1,201.546666666666,4|0,1:0|1:0,1:0:0:0:
85,18,34240,2,0,P|137:41|166:112,1,121.903996337891,8|0,1:0|1:0,1:0:0:0:
0,244,34486,5,8,1:0:0:0:
0,244,34547,1,0,3:0:0:0:
0,244,34609,1,0,3:0:0:0:
120,225,34732,1,0,1:0:0:0:
249,202,34855,1,0,1:0:0:0:
165,94,34978,6,0,P|138:42|85:18,1,121.903996337891,8|0,1:0|1:0,1:0:0:0:
329,278,35224,1,0,3:0:0:0:
320,249,35285,1,0,3:0:0:0:
302,225,35347,1,0,3:0:0:0:
277,208,35408,1,0,3:0:0:0:
248,201,35470,5,8,1:0:0:0:
402,356,35592,1,8,0:0:0:0:
402,356,35838,6,0,B|484:361|532:245|468:178,1,201.546666666666,4|0,1:0|1:0,1:0:0:0:
174,11,36207,2,0,B|136:65|136:65|176:156,1,121.903996337891,8|0,1:0|1:0,1:0:0:0:
231,313,36453,5,8,1:0:0:0:
267,78,36576,1,0,3:0:0:0:
248,201,36699,5,0,1:0:0:0:
362,143,36822,1,0,1:0:0:0:
157,114,36945,6,0,B|135:64|135:64|173:10,1,121.903996337891,8|0,1:0|1:0,1:0:0:0:
101,295,37191,2,0,B|79:245|79:245|117:191,1,121.903996337891,8|0,1:0|1:0,1:0:0:0:
78,384,37437,5,8,1:0:0:0:
327,374,37560,1,0,3:0:0:0:
327,374,37806,6,0,B|414:365|414:365|428:312|428:312|512:256,1,200,4|0,1:0|1:0,1:0:0:0:
344,33,38174,2,0,P|332:80|387:159,1,121.903996337891,8|0,1:0|1:0,1:0:0:0:
243,310,38420,5,8,1:0:0:0:
243,310,38482,1,0,3:0:0:0:
243,310,38543,1,0,3:0:0:0:
156,230,38666,1,0,1:0:0:0:
191,122,38789,1,0,1:0:0:0:
361,142,38912,6,0,P|333:91|344:33,1,121.903996337891,8|0,1:0|1:0,1:0:0:0:
460,298,39158,5,0,3:0:0:0:
441,274,39220,1,0,3:0:0:0:
432,246,39281,1,0,3:0:0:0:
432,216,39342,1,0,3:0:0:0:
442,188,39404,5,8,1:0:0:0:
512,370,39527,1,8,0:0:0:0:
512,370,39773,6,0,L|248:333,1,241.855992675781,4|0,1:0|3:0,1:0:0:0:
272,336,40080,1,0,3:0:0:0:
272,336,40142,2,0,L|195:352,1,59.9999981689454,8|0,3:1|3:0,3:0:0:0:
137,250,40265,2,0,L|59:265,1,59.9999981689454,0|0,3:0|3:0,0:0:0:0:
169,110,40388,5,8,0:0:0:0:
208,160,40470,1,0,3:0:0:0:
193,222,40552,1,0,3:0:0:0:
137,250,40634,1,8,0:0:0:0:
80,224,40716,1,0,3:0:0:0:
65,162,40797,1,0,3:0:0:0:
103,111,40879,1,8,0:0:0:0:
154,36,41740,6,0,P|88:27|63:67,1,120.927996337891,6|0,2:0|2:0,2:0:0:0:
2,158,42109,1,0,3:0:0:0:
39,226,42232,1,0,3:0:0:0:
95,178,42355,2,0,L|165:170,1,60.9519981689453,8|0,2:0|2:0,2:0:0:0:
288,277,42601,6,0,L|358:269,1,60.9519981689453,2|0,2:0|3:0,2:0:0:0:
499,323,42847,1,2,2:0:0:0:
426,301,42970,1,0,3:0:0:0:
442,377,43092,1,2,2:0:0:0:
480,246,43215,6,0,P|479:215|487:165,1,60.9519981689453,2|8,3:2|2:0,2:0:0:0:
428,39,43461,2,0,P|429:70|421:120,1,60.9519981689453,2|2,2:0|2:0,2:0:0:0:
347,139,43707,6,0,P|412:148|484:160,1,120.927996337891,2|0,2:0|2:0,2:0:0:0:
320,221,44076,2,0,P|284:226|251:228,1,60.9519981689453,2|0,3:2|3:0,2:0:0:0:
198,168,44322,1,8,2:0:0:0:
198,168,44445,2,0,P|200:133|207:83,1,60.9519981689453,0|0,3:0|2:0,2:0:0:0:
62,24,44691,5,0,3:0:0:0:
62,24,44937,1,0,3:0:0:0:
62,24,45183,1,0,3:0:0:0:
104,121,45306,5,8,2:0:0:0:
31,103,45429,1,0,2:0:0:0:
15,176,45551,1,2,2:0:0:0:
87,194,45674,1,0,3:0:0:0:
32,304,45797,6,0,P|37:341|38:386,1,60.9519981689453,2|0,2:0|2:0,2:0:0:0:
150,338,46043,1,0,3:0:0:0:
223,362,46166,1,0,3:0:0:0:
285,317,46289,2,0,P|290:280|291:235,1,60.9519981689453,8|0,2:0|2:0,2:0:0:0:
208,144,46535,6,0,B|196:175|196:175|222:208,1,60.9519981689453,2|0,2:0|3:0,2:0:0:0:
388,200,46781,2,0,B|400:169|400:169|374:136,1,60.9519981689453,2|0,2:0|3:0,2:0:0:0:
305,83,47027,1,2,2:0:0:0:
305,83,47150,2,0,P|300:120|299:165,1,60.9519981689453,2|8,3:2|2:0,2:0:0:0:
164,71,47396,1,2,2:0:0:0:
93,47,47519,1,2,2:0:0:0:
28,91,47642,6,0,L|19:231,1,120.927996337891,2|0,3:2|2:0,2:0:0:0:
81,341,48011,2,0,P|83:307|87:263,1,60.4639981689453,2|0,3:2|3:0,2:0:0:0:
172,205,48256,5,8,2:0:0:0:
294,225,48379,1,8,2:0:0:0:
417,245,48502,1,8,2:0:0:0:
473,184,48625,5,0,3:0:0:0:
473,184,48871,1,0,3:0:0:0:
473,184,49117,1,0,3:0:0:0:
417,245,49240,5,10,2:0:0:0:
294,225,49363,1,8,2:0:0:0:
172,205,49486,1,10,2:0:0:0:
220,265,49609,6,0,P|212:324|209:411,1,120.927996337891,6|0,3:2|2:0,2:0:0:0:
265,197,49978,1,0,3:0:0:0:
314,131,50101,1,0,3:0:0:0:
258,68,50224,2,0,P|220:62|186:57,1,60.9519981689453,8|0,2:0|2:0,2:0:0:0:
51,104,50470,6,0,P|33:69|43:24,1,60.4639981689453,2|0,2:0|3:0,2:0:0:0:
125,137,50715,1,2,2:0:0:0:
166,204,50838,1,0,3:0:0:0:
136,278,50961,1,2,2:0:0:0:
23,229,51084,6,0,P|5:194|15:149,1,60.9519981689453,2|8,3:2|2:0,2:0:0:0:
3,315,51330,2,0,P|20:350|10:395,1,60.9519981689453,2|0,2:0|2:0,2:0:0:0:
136,278,51576,6,0,L|278:280,1,120.927996337891,2|0,3:2|2:0,2:0:0:0:
351,376,51945,2,0,B|334:347|334:347|344:310,1,60.9519981689453,2|0,3:2|3:0,2:0:0:0:
327,180,52191,1,8,2:0:0:0:
327,180,52314,2,0,B|344:209|344:209|334:246,1,60.9519981689453,0|0,2:0|2:0,2:0:0:0:
454,273,52560,5,0,3:0:0:0:
454,273,52806,1,0,3:0:0:0:
454,273,53051,1,0,3:0:0:0:
496,174,53174,5,8,2:0:0:0:
428,139,53297,1,0,2:0:0:0:
496,96,53420,1,2,2:0:0:0:
428,63,53543,1,0,3:0:0:0:
360,96,53666,6,0,L|281:81,1,60.9519981689453,2|0,2:0|2:0,2:0:0:0:
183,20,53912,1,0,3:0:0:0:
129,69,54035,1,0,3:0:0:0:
163,134,54158,2,0,L|242:119,1,60.9519981689453,8|0,2:0|2:0,2:0:0:0:
41,213,54404,6,0,B|27:245|27:245|54:282,1,60.9519981689453,2|0,2:0|3:0,2:0:0:0:
226,261,54650,2,0,B|240:240|240:240|226:208,1,60.9519981689453,2|0,2:0|3:0,2:0:0:0:
138,310,54896,1,2,2:0:0:0:
138,310,55019,2,0,P|135:345|133:387,1,60.9519981689453,2|8,3:2|2:0,2:0:0:0:
316,367,55265,1,2,2:0:0:0:
379,323,55388,1,2,2:0:0:0:
453,348,55511,6,0,P|411:357|344:300,1,120.439996337891,2|0,3:2|2:0,2:0:0:0:
389,181,55879,2,0,P|399:209|395:254,1,60.9519981689453,2|0,3:2|3:0,2:0:0:0:
295,219,56125,5,8,2:0:0:0:
276,89,56248,1,8,2:0:0:0:
133,111,56371,1,8,2:0:0:0:
161,250,56494,1,8,2:0:0:0:
87,202,56617,6,0,P|33:209|3:320,1,180.903994506836,4|0,2:0|3:0,2:0:0:0:
1,316,57047,1,0,3:0:0:0:
1,316,57109,1,10,2:0:0:0:
86,300,57232,1,2,3:2:0:0:
169,347,57355,1,2,2:2:0:0:
280,301,57478,6,0,L|501:327,1,201.546666666666,4|0,1:0|1:0,1:0:0:0:
333,215,57847,2,0,B|289:186|289:186|217:212,1,101.586666666667,8|0,1:0|1:0,1:0:0:0:
512,107,58092,1,0,1:0:0:0:
450,167,58215,1,0,1:0:0:0:
388,97,58338,2,0,B|432:68|432:68|504:94,1,101.586666666667,8|0,1:0|1:0,1:0:0:0:
284,23,58584,5,0,1:0:0:0:
193,36,58707,1,0,1:0:0:0:
97,50,58830,1,8,1:0:0:0:
6,65,58953,1,0,1:0:0:0:
0,172,59076,5,0,1:0:0:0:
187,199,59199,1,0,1:0:0:0:
91,185,59322,1,8,1:0:0:0:
278,214,59445,2,0,B|340:253|340:253|292:373,1,201.546666666666,4|0,1:0|1:0,1:0:0:0:
85,384,59814,5,8,1:0:0:0:
45,303,59937,1,0,1:0:0:0:
130,277,60060,1,0,1:0:0:0:
167,356,60183,1,0,1:0:0:0:
184,187,60306,6,0,P|128:161|70:186,1,101.586666666667,8|0,1:0|1:0,1:0:0:0:
291,354,60551,2,0,P|346:379|404:354,1,101.586666666667,0|0,1:0|1:0,1:0:0:0:
243,273,60797,1,8,1:0:0:0:
243,273,60920,1,0,1:0:0:0:
311,204,61043,5,0,1:0:0:0:
448,252,61166,1,0,1:0:0:0:
359,122,61289,1,8,1:0:0:0:
504,168,61412,2,0,P|494:77|379:49,1,201.546666666666,4|0,1:0|1:0,1:0:0:0:
169,11,61781,5,8,1:0:0:0:
154,116,61904,1,0,1:0:0:0:
54,99,62027,1,0,1:0:0:0:
154,116,62150,1,0,1:0:0:0:
133,209,62273,1,8,1:0:0:0:
154,116,62396,1,0,1:0:0:0:
254,127,62519,5,0,1:0:0:0:
294,231,62642,1,0,1:0:0:0:
405,225,62765,1,8,1:0:0:0:
365,118,62888,1,0,1:0:0:0:
354,358,63011,5,0,1:0:0:0:
223,349,63133,1,0,1:0:0:0:
265,218,63256,1,8,1:0:0:0:
405,225,63379,2,0,P|495:171|461:55,1,201.546666666666,4|0,1:0|1:0,1:0:0:0:
264,0,63748,5,8,1:0:0:0:
333,138,63871,1,0,1:0:0:0:
231,98,63994,5,8,1:0:0:0:
162,236,64117,1,0,1:0:0:0:
252,200,64240,5,8,1:0:0:0:
321,338,64363,1,0,1:0:0:0:
175,379,64486,1,0,3:0:0:0:
146,371,64547,1,0,3:0:0:0:
116,363,64609,1,0,3:0:0:0:
87,354,64670,1,0,3:0:0:0:
57,345,64732,2,0,P|21:303|48:227,1,101.586666666667,8|0,1:0|1:0,1:0:0:0:
254,5,64978,5,8,1:0:0:0:
254,5,65101,2,0,B|275:48|275:48|236:82|236:82|284:129|239:229,1,226.740008583069,2|0,3:0|1:0,1:0:0:0:
250,201,65347,6,0,P|316:215|383:130,1,160,6|0,1:2|1:0,1:0:0:0:
166,133,65715,2,0,B|134:104|134:104|72:118,1,81.2693333333332,8|0,1:0|1:0,1:0:0:0:
156,229,65961,1,0,1:0:0:0:
75,200,66084,1,0,1:0:0:0:
13,266,66207,2,0,B|45:295|45:295|107:281,1,81.2693333333332,10|0,1:2|1:0,1:0:0:0:
250,364,66453,5,0,1:0:0:0:
232,279,66576,1,0,1:0:0:0:
219,373,66699,1,10,1:2:0:0:
262,267,66822,2,0,P|301:272|349:277,1,81.2693333333332,2|0,1:2|1:0,1:0:0:0:
219,373,67068,2,0,P|180:378|132:383,1,81.2693333333332,2|10,1:2|1:2,1:0:0:0:
384,366,67314,6,0,P|433:309|413:210,1,161.237333333333,2|0,1:2|1:0,1:0:0:0:
391,152,67683,1,10,1:2:0:0:
394,134,67929,5,0,1:0:0:0:
315,87,68051,1,0,1:0:0:0:
316,171,68174,1,8,1:0:0:0:
396,117,68420,5,0,1:0:0:0:
314,71,68543,1,0,1:0:0:0:
305,157,68666,1,8,1:0:0:0:
399,101,68912,5,0,1:0:0:0:
315,46,69035,1,0,1:0:0:0:
218,83,69158,1,10,1:2:0:0:
299,143,69281,1,2,1:2:0:0:
190,204,69404,6,0,P|90:192|1:180,2,160.586666666666,4|8|0,1:0|1:0|1:0,1:0:0:0:
190,204,70019,1,0,1:0:0:0:
312,298,70142,2,0,P|288:265|299:203,1,81.2693333333332,10|0,1:2|1:0,1:0:0:0:
231,372,70388,2,0,P|207:339|218:277,1,81.2693333333332,2|0,1:2|1:0,1:0:0:0:
385,233,70633,5,10,1:2:0:0:
385,233,70756,2,0,B|446:230|467:264|451:272|475:321|528:310,1,161.237333333333,2|2,1:2|1:2,1:0:0:0:
444,141,71125,5,10,1:2:0:0:
347,132,71248,1,6,1:2:0:0:
347,132,71494,1,0,1:0:0:0:
273,77,71617,6,0,B|245:114|245:114|272:171,1,81.2693333333332,10|0,1:2|1:0,1:0:0:0:
293,336,71863,2,0,B|274:293|274:293|212:288,1,81.2693333333332,8|0,1:0|1:0,1:0:0:0:
37,212,72109,2,0,B|83:217|83:217|118:165,1,81.2693333333332,8|0,1:0|1:0,1:0:0:0:
197,207,72355,5,0,3:0:0:0:
197,207,72416,1,0,3:0:0:0:
197,207,72478,1,0,3:0:0:0:
184,363,72601,1,8,1:0:0:0:
126,354,72683,1,0,1:0:0:0:
78,320,72765,1,0,1:0:0:0:
24,323,72847,5,10,1:2:0:0:
73,239,72970,1,0,3:0:0:0:
8,162,73092,1,10,1:2:0:0:
68,47,73215,6,0,B|102:24|102:24|175:41|187:123,1,161.237333333333,6|0,1:2|1:0,1:0:0:0:
342,157,73584,2,0,P|304:173|259:131,1,81.2693333333332,8|0,1:0|1:0,1:0:0:0:
382,69,73830,2,0,P|387:28|446:10,1,81.2693333333332,0|0,1:0|1:0,1:0:0:0:
473,206,74076,2,0,P|468:167|437:144,1,81.2693333333332,10|0,1:2|1:0,1:0:0:0:
340,258,74322,5,0,1:0:0:0:
340,258,74445,1,0,1:0:0:0:
424,292,74568,1,10,1:2:0:0:
345,349,74691,2,0,L|239:337,1,81.2693333333332,2|0,1:2|1:0,1:0:0:0:
53,319,74937,2,0,L|159:307,1,81.2693333333332,2|10,1:2|1:2,1:0:0:0:
223,227,75183,6,0,P|143:216|132:141,1,161.237333333333,2|0,1:2|1:0,1:0:0:0:
64,87,75551,1,10,1:2:0:0:
55,74,75797,5,0,1:0:0:0:
129,41,75920,1,0,1:0:0:0:
204,67,76043,1,8,1:0:0:0:
210,82,76289,5,0,1:0:0:0:
292,110,76412,1,0,1:0:0:0:
373,74,76535,1,8,1:0:0:0:
384,62,76781,5,0,1:0:0:0:
423,150,76904,1,0,1:0:0:0:
392,240,77027,1,10,1:2:0:0:
431,328,77150,1,2,1:2:0:0:
299,292,77273,6,0,B|241:273|241:273|156:337,2,160.586666666666,4|8|0,1:0|1:0|1:0,1:0:0:0:
299,292,77888,1,0,1:0:0:0:
283,182,78011,2,0,P|274:141|305:87,1,80.6186666666666,10|0,1:2|1:0,1:0:0:0:
202,0,78256,2,0,P|211:41|180:95,1,81.2693333333332,2|0,1:2|1:0,1:0:0:0:
74,175,78502,5,10,1:2:0:0:
74,175,78625,2,0,P|-6:136|23:53,1,161.237333333333,2|2,1:2|1:2,1:0:0:0:
155,149,78994,5,10,1:2:0:0:
141,232,79117,1,6,1:2:0:0:
141,232,79363,1,0,1:0:0:0:
215,283,79486,5,10,1:2:0:0:
297,268,79609,1,0,1:0:0:0:
399,317,79732,5,8,1:0:0:0:
478,294,79855,1,0,1:0:0:0:
372,122,79978,5,8,1:0:0:0:
294,175,80101,1,8,1:0:0:0:
381,214,80224,2,0,P|447:188|352:32,1,320,6|2,1:2|1:2,1:0:0:0:
357,30,81207,6,0,L|350:73,3,30.2319990844727,4|0|0|0,2:0|2:0|2:0|2:0,1:0:0:0:
250,62,81453,5,2,2:0:0:0:
213,27,81535,1,0,3:0:0:0:
171,54,81617,1,0,3:0:0:0:
171,54,81699,2,0,L|163:127,1,60.4639981689453,10|0,3:2|1:0,1:0:0:0:
62,298,81945,5,2,3:2:0:0:
3,241,82068,1,0,3:0:0:0:
82,220,82191,1,0,3:0:0:0:
261,322,82437,5,2,2:0:0:0:
298,358,82519,1,0,3:0:0:0:
342,331,82601,1,0,3:0:0:0:
342,331,82683,2,0,L|350:258,1,60.4639981689453,10|0,3:2|1:0,1:0:0:0:
451,87,82929,5,2,3:2:0:0:
509,150,83051,1,0,3:0:0:0:
427,170,83174,1,0,3:0:0:0:
223,195,83420,5,2,3:2:0:0:
267,222,83502,1,0,3:0:0:0:
269,170,83584,1,0,3:0:0:0:
254,193,83666,5,10,3:2:0:0:
464,320,83912,1,2,1:2:0:0:
470,81,84158,1,10,1:2:0:0:
400,201,84281,5,8,0:1:0:0:
319,116,84404,1,0,3:0:0:0:
314,102,84465,1,0,3:0:0:0:
317,88,84527,1,0,3:0:0:0:
324,78,84588,1,0,3:0:0:0:
335,72,84650,5,8,1:0:0:0:
254,193,84773,2,0,L|266:264,1,60.4639981689453,4|0,0:0|1:0,1:0:0:0:
205,27,85019,5,8,1:0:0:0:
117,142,85142,2,0,L|124:189,3,30.069332417806,4|0|0|0,2:0|2:0|2:0|2:0,1:0:0:0:
55,81,85388,5,2,2:0:0:0:
7,61,85470,1,0,3:0:0:0:
11,11,85551,1,0,3:0:0:0:
11,11,85633,2,0,B|46:20|46:20|59:53,1,60.9519981689453,10|0,3:2|1:0,1:0:0:0:
31,175,85879,5,2,3:2:0:0:
3,254,86002,1,0,3:0:0:0:
65,310,86125,1,0,3:0:0:0:
208,279,86371,5,2,2:0:0:0:
256,299,86453,1,0,3:0:0:0:
252,349,86535,1,0,3:0:0:0:
252,349,86617,2,0,B|217:340|217:340|204:307,1,60.4639981689453,10|0,3:2|1:0,1:0:0:0:
232,185,86863,5,2,3:2:0:0:
260,106,86986,1,0,3:0:0:0:
198,50,87109,1,0,3:0:0:0:
428,11,87355,5,2,3:2:0:0:
403,56,87437,1,0,3:0:0:0:
431,100,87519,1,0,3:0:0:0:
450,55,87601,6,0,L|454:42,1,10.0773333333333,10|0,3:2|3:0,1:0:0:0:
510,217,87847,2,0,L|514:204,1,10.0773333333333,2|0,3:2|3:0,1:0:0:0:
370,338,88092,1,10,3:2:0:0:
312,177,88338,1,0,3:0:0:0:
312,177,88400,1,0,3:0:0:0:
312,177,88461,1,0,3:0:0:0:
312,177,88523,1,0,0:0:0:0:
312,177,88584,2,0,P|269:112|177:120,1,161.237328450521,10|8,1:2|1:0,1:0:0:0:
16,99,88953,5,8,1:0:0:0:
108,57,89076,2,0,L|111:13,3,30.069332417806,4|0|0|0,2:0|2:0|2:0|2:0,1:0:0:0:
99,165,89322,5,2,2:0:0:0:
72,209,89404,1,0,3:0:0:0:
88,265,89486,1,0,3:0:0:0:
88,265,89568,2,0,P|116:280|149:266,1,60.4639981689453,10|0,3:2|1:0,1:0:0:0:
277,379,89814,5,2,3:2:0:0:
257,289,89937,1,0,3:0:0:0:
277,379,90060,1,0,3:0:0:0:
413,219,90306,5,2,2:0:0:0:
440,175,90388,1,0,3:0:0:0:
424,119,90470,1,0,3:0:0:0:
424,119,90551,2,0,P|395:103|362:117,1,60.9519981689453,10|0,3:2|1:0,1:0:0:0:
235,5,90797,5,2,3:2:0:0:
255,95,90920,1,0,3:0:0:0:
235,5,91043,1,0,3:0:0:0:
210,220,91289,5,2,3:2:0:0:
253,191,91371,1,0,3:0:0:0:
299,210,91453,1,0,3:0:0:0:
250,171,91535,5,10,3:2:0:0:
103,342,91781,1,2,1:2:0:0:
431,297,92027,1,10,1:2:0:0:
320,380,92150,5,8,0:0:0:0:
235,342,92273,1,0,3:0:0:0:
230,329,92334,1,0,3:0:0:0:
233,315,92396,2,0,L|280:304,1,30.2319990844727,0|0,3:0|3:0,1:0:0:0:
434,171,92519,5,10,1:2:0:0:
272,83,92642,2,0,L|246:184,1,90.207997253418,4|0,0:0|1:0,1:0:0:0:
249,170,92888,5,8,1:0:0:0:
105,45,93011,2,0,P|28:32|11:118,1,160.586666666666,6|8,1:2|1:0,1:0:0:0:
70,163,93379,5,0,1:0:0:0:
28,254,93502,1,0,1:0:0:0:
116,257,93625,1,0,1:0:0:0:
162,177,93748,2,0,L|253:189,1,80.6186666666666,8|0,1:0|1:0,1:0:0:0:
441,278,93994,5,0,1:0:0:0:
362,314,94117,1,0,1:0:0:0:
336,228,94240,1,8,1:0:0:0:
418,186,94363,1,0,1:0:0:0:
450,311,94486,5,0,1:0:0:0:
331,199,94609,1,0,1:0:0:0:
329,324,94732,1,10,1:2:0:0:
459,178,94855,1,2,1:2:0:0:
363,31,94978,6,0,B|302:38|278:84|278:84|352:120|323:243,1,240.879992675781,14|0,1:2|1:0,1:0:0:0:
149,353,95347,2,0,B|210:346|234:300|234:300|160:264|189:141,1,240.879992675781,14|0,1:2|1:0,1:0:0:0:
450,311,95715,5,10,1:2:0:0:
62,73,95961,1,8,3:0:0:0:
72,66,96023,1,8,3:0:0:0:
82,60,96084,1,8,3:0:0:0:
93,55,96146,1,8,3:0:0:0:
103,49,96207,5,10,1:2:0:0:
239,73,96330,1,8,1:0:0:0:
209,212,96453,1,10,1:2:0:0:
461,133,96576,5,10,3:2:0:0:
325,157,96699,1,8,1:0:0:0:
355,295,96822,2,0,B|332:224|332:224|400:158|371:57,1,220.806673380533,6|0,1:0|1:0,1:0:0:0:
125,332,97191,6,0,P|168:318|260:298,1,110.850670023601,8|0,1:0|1:0,1:0:0:0:
104,54,97437,2,0,P|60:71|-28:93,1,110.850670023601,0|0,1:0|1:0,1:0:0:0:
0,235,97683,2,0,P|53:219|132:196,1,110.850670023601,10|0,1:0|1:0,1:0:0:0:
370,185,97929,5,2,1:0:0:0:
245,140,98051,1,0,1:0:0:0:
314,30,98174,2,0,P|369:32|405:114,1,111.745336690267,8|0,1:0|1:0,1:0:0:0:
422,307,98420,5,2,1:0:0:0:
256,257,98543,1,0,1:0:0:0:
378,146,98666,1,8,1:0:0:0:
360,243,98789,2,0,B|295:226|241:266|281:296|220:343|144:308,1,220.806673380533,0|0,1:0|1:0,1:0:0:0:
106,58,99158,2,0,B|205:110|205:110|179:238,1,220.806673380533,10|0,1:0|1:0,1:0:0:0:
9,296,99527,5,0,1:0:0:0:
168,316,99650,1,10,1:0:0:0:
94,240,99773,1,2,1:0:0:0:
88,367,99896,2,0,L|99:257,1,110.850670023601,2|0,1:0|1:0,1:0:0:0:
360,243,100142,5,10,1:0:0:0:
360,243,100265,1,0,1:0:0:0:
272,188,100388,5,2,1:0:0:0:
301,334,100511,1,2,1:0:0:0:
446,301,100633,1,10,1:0:0:0:
421,155,100756,2,0,P|379:87|235:111,1,221.7013400472,6|0,3:1|1:0,1:0:0:0:
52,140,101125,6,0,B|78:91|78:91|154:98,1,111.745336690267,8|0,1:0|1:0,1:0:0:0:
208,310,101371,2,0,B|181:358|181:358|105:351,1,110.850670023601,0|0,1:0|1:0,1:0:0:0:
10,279,101617,5,10,1:0:0:0:
129,233,101740,1,0,1:0:0:0:
241,187,101863,2,0,P|283:211|287:301,1,110.850670023601,2|0,1:0|1:0,1:0:0:0:
472,356,102109,2,0,P|430:332|426:242,1,110.850670023601,8|0,1:0|1:0,1:0:0:0:
420,14,102355,5,2,1:0:0:0:
369,143,102478,1,2,1:0:0:0:
512,82,102601,5,10,1:0:0:0:
263,68,102724,2,0,P|189:127|236:243,1,220.806673380533,2|0,1:0|1:0,1:0:0:0:
422,273,103092,5,10,1:0:0:0:
346,182,103215,1,0,1:0:0:0:
422,273,103338,1,0,1:0:0:0:
325,333,103461,1,0,1:0:0:0:
464,284,103584,5,8,1:0:0:0:
369,143,103707,1,0,1:0:0:0:
464,284,103830,1,0,1:0:0:0:
333,382,103953,1,0,1:0:0:0:
507,294,104076,5,8,1:0:0:0:
372,261,104199,1,0,1:0:0:0:
229,238,104322,1,2,1:2:0:0:
229,238,104383,1,2,1:2:0:0:
229,238,104445,1,2,1:2:0:0:
369,143,104568,6,0,B|398:158|398:158|405:200,2,55.4253350118001,10|2|2,1:2|1:2|1:2,1:0:0:0:
154,52,104814,2,0,B|213:18|213:18|274:59|274:59|345:8|450:47,1,301.100011444092,6|8,1:0|1:0,1:0:0:0:
229,238,105183,6,0,L|214:356,1,110.850670023601,0|0,1:0|1:0,1:0:0:0:
229,238,105429,1,0,1:0:0:0:
16,194,105551,5,10,1:0:0:0:
16,194,105674,2,0,L|3:84,1,111.745336690267,2|0,1:0|1:0,1:0:0:0:
131,164,105920,1,0,1:0:0:0:
215,347,106043,6,0,P|158:335|104:327,1,111.745336690267,10|0,1:0|1:0,1:0:0:0:
337,218,106289,2,0,P|280:230|226:238,1,110.850670023601,2|0,1:0|1:0,1:0:0:0:
477,337,106535,2,0,P|420:325|366:317,1,110.850670023601,10|0,1:0|1:0,1:0:0:0:
493,131,106781,6,0,P|370:140|348:261,1,220.806673380533,2|8,1:0|1:0,1:0:0:0:
144,68,107150,5,0,1:0:0:0:
286,23,107273,1,0,1:0:0:0:
144,68,107396,1,2,3:1:0:0:
144,68,107457,1,0,3:0:0:0:
144,68,107519,1,8,3:1:0:0:
0,101,107642,6,0,P|33:213|64:338,1,220.806673380533,2|0,1:0|3:0,1:0:0:0:
228,248,108011,5,8,3:1:0:0:
135,206,108133,1,0,3:0:0:0:
212,151,108256,1,0,3:0:0:0:
288,332,108379,5,2,3:1:0:0:
418,256,108502,1,10,3:1:0:0:
298,179,108625,1,2,3:1:0:0:
364,102,108748,6,0,B|472:113|472:113|510:269,1,220.806673380533,4|10,1:0|1:0,1:0:0:0:
288,332,109117,2,0,P|299:263|315:194,1,110.850670023601,2|0,1:0|1:0,1:0:0:0:
150,15,109363,5,2,1:0:0:0:
33,89,109486,1,10,1:0:0:0:
151,167,109609,2,0,P|169:268|194:430,1,220.806673380533,2|0,1:0|1:0,1:0:0:0:
187,383,109978,1,8,1:0:0:0:
60,288,110101,2,0,P|168:270|276:251,1,220.806673380533,2|0,1:0|1:0,1:0:0:0:
479,377,110470,6,0,B|519:338|519:338|498:255,1,110.850670023601,10|0,1:0|1:0,1:0:0:0:
351,75,110715,2,0,B|311:114|311:114|332:197,1,111.745336690267,2|0,1:0|1:0,1:0:0:0:
364,303,110961,5,14,1:0:0:0:
450,127,111084,1,2,1:0:0:0:
351,75,111207,5,12,1:0:0:0:
378,204,111330,1,0,1:0:0:0:
140,193,111453,5,12,1:0:0:0:
262,144,111576,1,0,1:0:0:0:
266,378,111699,5,12,1:0:0:0:
262,144,111822,1,8,1:0:0:0:
260,257,111945,5,2,3:1:0:0:
220,276,112027,1,0,3:0:0:0:
180,295,112109,1,0,3:0:0:0:
140,314,112191,1,10,1:1:0:0:
102,99,112314,1,6,3:1:0:0:
102,99,112560,6,0,P|32:135|40:287,1,220.806673380533,6|0,1:0|1:0,1:0:0:0:
161,384,112929,2,0,P|101:369|44:357,1,110.850670023601,8|0,1:0|1:0,1:0:0:0:
186,122,113174,1,0,1:0:0:0:
297,154,113297,1,0,1:0:0:0:
405,182,113420,2,0,P|458:193|512:207,1,111.745336690267,10|0,1:0|1:0,1:0:0:0:
305,360,113666,5,2,1:0:0:0:
221,224,113789,1,0,1:0:0:0:
305,360,113912,2,0,P|353:331|360:251,1,110.850670023601,8|0,1:0|1:0,1:0:0:0:
425,56,114158,5,2,1:0:0:0:
301,69,114281,1,0,1:0:0:0:
351,177,114404,1,8,1:0:0:0:
478,161,114527,2,0,P|342:132|257:116,1,220.806673380533,0|0,1:0|1:0,1:0:0:0:
7,120,114896,5,10,1:0:0:0:
7,120,115019,1,0,1:0:0:0:
183,69,115142,1,0,1:0:0:0:
183,69,115265,1,0,1:0:0:0:
142,240,115388,5,10,1:0:0:0:
108,144,115511,1,2,1:0:0:0:
49,264,115633,2,0,L|36:387,1,111.745336690267,2|0,1:0|1:0,1:0:0:0:
244,217,115879,2,0,L|228:336,1,111.745336690267,10|0,1:0|1:0,1:0:0:0:
486,248,116125,5,2,1:0:0:0:
326,161,116248,1,2,1:0:0:0:
497,284,116371,1,10,1:0:0:0:
318,119,116494,2,0,B|348:50|461:26|515:111,1,220.806673380533,6|0,3:1|1:0,1:0:0:0:
331,257,116863,6,0,B|276:260|276:260|238:210,1,110.850670023601,8|0,1:0|1:0,1:0:0:0:
123,35,117109,1,0,1:0:0:0:
6,57,117232,1,0,1:0:0:0:
81,146,117355,2,0,B|135:149|135:149|173:99,1,110.850670023601,10|0,1:0|1:0,1:0:0:0:
134,349,117601,5,2,1:0:0:0:
28,266,117724,1,0,1:0:0:0:
33,364,117847,1,8,1:0:0:0:
133,248,117970,1,0,1:0:0:0:
376,360,118092,5,2,1:0:0:0:
239,253,118215,1,2,1:0:0:0:
246,378,118338,1,10,1:0:0:0:
373,230,118461,2,0,B|445:219|494:117|409:15,1,221.7013400472,2|0,1:0|1:0,1:0:0:0:
217,12,118830,5,10,1:0:0:0:
184,149,118953,1,0,1:0:0:0:
69,61,119076,1,0,1:0:0:0:
69,61,119199,1,0,1:0:0:0:
256,21,119322,5,8,1:0:0:0:
168,179,119445,1,0,1:0:0:0:
82,26,119568,1,0,1:0:0:0:
82,26,119691,1,0,1:0:0:0:
278,44,119814,6,0,P|334:54|420:63,1,110.850670023601,8|0,1:0|1:0,1:0:0:0:
512,175,120060,1,2,1:2:0:0:
495,176,120121,1,2,1:2:0:0:
478,179,120183,1,2,1:2:0:0:
296,280,120306,1,10,1:2:0:0:
313,281,120367,1,2,1:2:0:0:
330,284,120429,1,2,1:2:0:0:
424,339,120551,6,0,B|408:217|408:217|370:180|370:180|389:39,1,302.320011444092,6|8,1:0|1:0,1:0:0:0:
217,320,120920,2,0,P|165:354|99:330,1,111.745336690267,0|0,1:0|1:0,1:0:0:0:
217,320,121166,1,0,1:0:0:0:
58,107,121289,5,10,1:0:0:0:
58,107,121412,2,0,P|119:116|114:276,1,220.806673380533,2|0,1:0|1:0,1:0:0:0:
359,274,121781,6,0,L|245:177,1,110.850670023601,10|0,1:0|1:0,1:0:0:0:
495,130,122027,2,0,L|467:277,1,110.850670023601,2|0,1:0|1:0,1:0:0:0:
289,72,122273,2,0,L|430:21,1,110.850670023601,10|0,1:0|1:0,1:0:0:0:
173,12,122519,6,0,P|164:75|157:150,1,110.850670023601,2|0,1:0|1:0,1:0:0:0:
29,109,122765,2,0,P|34:54|42:-1,1,110.850670023601,8|0,1:0|1:0,1:0:0:0:
175,309,123011,5,2,1:0:0:0:
31,347,123133,1,2,3:1:0:0:
71,204,123256,1,8,3:1:0:0:
282,369,123379,5,2,1:0:0:0:
349,269,123502,2,0,P|394:262|430:172,1,111.745336690267,0|0,3:0|3:0,1:0:0:0:
297,45,123748,5,8,3:1:0:0:
297,45,123871,1,0,3:0:0:0:
297,45,123994,1,0,3:0:0:0:
338,163,124117,5,2,3:1:0:0:
219,118,124240,1,10,3:1:0:0:
155,222,124363,1,2,3:1:0:0:
0,122,124486,6,0,P|78:124|232:118,1,220.806673380533,4|10,1:0|1:0,1:0:0:0:
262,364,124855,2,0,P|197:365|120:361,1,110.850670023601,2|0,1:0|1:0,1:0:0:0:
283,234,125101,5,2,1:0:0:0:
393,288,125224,1,10,1:0:0:0:
283,234,125347,5,2,1:0:0:0:
493,356,125470,2,0,B|542:304|512:188|410:177,1,220.806673380533,2|8,1:0|1:0,1:0:0:0:
119,4,125838,2,0,B|70:56|100:172|202:183,1,221.7013400472,2|0,1:0|1:0,1:0:0:0:
181,179,126207,1,8,1:0:0:0:
477,55,126453,5,2,1:0:0:0:
477,55,126699,1,8,1:0:0:0:
378,18,126945,1,0,1:0:0:0:
378,18,127068,1,0,1:0:0:0:
378,18,127191,1,8,1:0:0:0:
123,367,127437,6,0,B|138:268|61:197|61:197|96:80,1,260.953321431478,14|0,1:0|1:0,1:0:0:0:
378,18,127806,2,0,B|363:117|440:188|440:188|405:305,1,260.953321431478,14|0,1:0|3:0,1:0:0:0:
385,286,128113,1,0,3:0:0:0:
394,330,128174,1,8,1:0:0:0:
21,81,128420,5,0,3:0:0:0:
170,115,128543,2,0,P|165:164|161:210,4,80.2933333333332,0|0|0|0|0,3:0|0:0|0:0|0:0|0:0,0:0:0:0:
241,244,129158,5,0,3:0:0:0:
92,278,129281,2,0,P|97:327|101:373,4,80.1306666666666,0|0|0|0|0,3:0|0:0|0:0|0:0|0:0,0:0:0:0:
92,278,130019,1,8,1:0:0:0:
272,12,130388,5,0,3:0:0:0:
310,187,130511,2,0,B|345:197|345:197|413:173,4,80.1306666666666,0|0|0|0|0,3:0|0:0|0:0|0:0|0:0,0:0:0:0:
327,97,131125,5,0,3:0:0:0:
289,272,131248,2,0,B|254:282|254:282|186:258,4,80.1306666666666,0|0|0|0|0,3:0|0:0|0:0|0:0|0:0,0:0:0:0:
289,272,131986,1,8,1:0:0:0:
145,189,132355,5,0,3:0:0:0:
209,44,132478,2,0,P|229:78|217:124,4,80.1306666666666,0|0|0|0|0,3:0|0:0|0:0|0:0|0:0,0:0:0:0:
402,45,133092,5,0,3:0:0:0:
338,190,133215,2,0,P|318:156|330:110,4,80.2933333333332,0|0|0|0|0,3:0|0:0|0:0|0:0|0:0,0:0:0:0:
338,190,133953,2,0,L|442:206,1,80.6186666666666,8|0,0:0|0:0,0:0:0:0:
483,330,134199,5,8,1:3:0:0:
483,330,134261,1,8,1:3:0:0:
483,330,134322,2,0,P|415:296|433:184,1,180.415994506836,8|8,1:0|1:0,1:0:0:0:
312,361,134937,5,0,3:0:0:0:
312,361,134998,1,0,3:0:0:0:
312,361,135060,1,8,1:0:0:0:
142,365,135306,5,8,1:0:0:0:
170,222,135429,1,8,0:0:0:0:
88,246,135551,5,0,3:0:0:0:
86,198,135674,1,0,3:0:0:0:
104,162,135797,1,0,3:0:0:0:
144,143,135920,1,0,3:0:0:0:
209,91,136043,5,8,1:0:0:0:
248,254,136166,1,8,1:0:0:0:
331,287,136289,6,0,P|442:286|470:183,1,200.733333333333,4|0,1:0|1:0,1:0:0:0:
354,96,136658,2,0,P|297:0|194:27,1,200.733333333333,8|0,1:0|1:0,1:0:0:0:
178,172,137027,2,0,P|123:268|198:344,1,200.733333333333,8|0,1:0|1:0,1:0:0:0:
351,186,137396,5,8,1:0:0:0:
276,126,137519,1,0,1:0:0:0:
259,223,137642,1,0,1:0:0:0:
295,180,137765,5,0,3:0:0:0:
295,180,137888,1,0,3:0:0:0:
257,348,138011,5,8,1:0:0:0:
257,348,138256,2,0,B|211:303|149:321|169:341|118:367|38:296,1,201.546666666666,0|8,3:0|1:0,1:0:0:0:
259,223,138625,2,0,B|305:178|367:196|347:216|398:242|478:171,1,201.546666666666,0|0,3:0|3:0,1:0:0:0:
223,98,138994,2,0,B|177:53|115:71|135:91|84:117|4:46,2,200.326666666666,8|0|0,1:0|3:0|1:0,1:0:0:0:
363,84,139609,5,8,1:0:0:0:
363,84,139732,2,0,L|352:206,1,100.773333333333,0|0,1:0|1:0,1:0:0:0:
295,27,139978,5,8,1:0:0:0:
441,127,140101,1,8,1:0:0:0:
276,197,140224,2,0,B|229:250|243:350|349:370,1,200.733333333333,4|8,1:0|1:0,1:0:0:0:
98,182,140592,2,0,B|145:129|131:29|25:9,1,201.546666666666,0|0,3:0|3:0,3:0:0:0:
287,191,140961,2,0,B|240:244|254:344|360:364,1,201.546666666666,8|0,1:0|1:0,1:0:0:0:
329,355,141330,1,0,1:0:0:0:
477,282,141453,5,8,1:0:0:0:
399,244,141576,1,0,1:0:0:0:
472,197,141699,1,0,3:0:0:0:
389,157,141822,1,0,3:0:0:0:
482,37,141945,5,8,1:0:0:0:
482,37,142191,2,0,L|371:52,1,100.773333333333,0|0,1:0|1:0,1:0:0:0:
382,50,142375,5,0,1:0:0:0:
382,50,142437,1,0,1:0:0:0:
304,18,142560,1,0,1:0:0:0:
220,68,142683,5,8,1:0:0:0:
256,235,142806,1,8,1:0:0:0:
182,165,142929,5,0,1:0:0:0:
78,169,143051,1,0,1:0:0:0:
18,260,143174,5,8,1:0:0:0:
32,77,143297,1,8,1:0:0:0:
18,260,143666,5,8,1:0:0:0:
32,77,143789,1,8,1:0:0:0:
342,362,144035,6,0,B|326:308|271:283|216:301|216:301|200:353|134:366,1,240.879992675781,6|2,1:0|1:0,1:0:0:0:
59,184,144404,2,0,B|112:202|112:202|131:283,1,119.951996337891,10|2,1:0|1:0,1:0:0:0:
311,195,144650,5,2,1:0:0:0:
213,172,144773,1,2,1:0:0:0:
328,181,144896,1,10,1:0:0:0:
195,187,145019,1,2,1:0:0:0:
347,108,145142,5,2,1:0:0:0:
205,74,145265,1,2,1:0:0:0:
371,87,145388,1,10,1:0:0:0:
179,96,145511,1,2,1:0:0:0:
284,35,145633,5,2,1:0:0:0:
269,250,145756,1,2,1:0:0:0:
390,152,145879,5,10,1:0:0:0:
157,140,146002,2,0,P|42:116|72:21,1,240.879992675781,6|0,1:0|1:0,1:0:0:0:
82,381,146371,5,8,1:0:0:0:
1,300,146494,1,0,1:0:0:0:
107,273,146617,2,0,P|178:285|215:347,1,119.951996337891,0|0,1:0|1:0,1:0:0:0:
341,161,146863,5,10,1:0:0:0:
311,353,146986,2,0,B|359:344|403:375|403:375|401:298|489:241,1,239.903992675781,2|0,1:0|1:0,1:0:0:0:
325,64,147355,5,8,1:0:0:0:
421,109,147478,1,2,1:0:0:0:
421,109,147539,1,2,1:0:0:0:
421,109,147601,1,2,1:0:0:0:
321,259,147724,5,0,1:0:0:0:
170,159,147847,1,10,1:0:0:0:
325,64,147970,2,0,P|308:178|299:326,1,239.903992675781,6|0,1:0|1:0,1:0:0:0:
64,275,148338,5,8,1:0:0:0:
17,190,148461,1,0,1:0:0:0:
83,119,148584,1,0,1:0:0:0:
170,159,148707,1,0,1:0:0:0:
163,255,148830,1,8,1:0:0:0:
99,197,148953,1,0,1:0:0:0:
269,179,149076,5,0,1:0:0:0:
163,63,149199,1,0,1:0:0:0:
316,94,149322,1,8,1:0:0:0:
170,159,149445,1,0,1:0:0:0:
250,23,149568,5,2,1:0:0:0:
269,179,149691,1,2,1:0:0:0:
287,335,149814,1,10,1:0:0:0:
366,280,149937,6,0,B|451:246|471:132|380:68,1,239.903992675781,6|0,1:0|1:0,1:0:0:0:
269,179,150306,2,0,P|201:169|128:154,1,119.951996337891,10|0,1:0|1:0,1:0:0:0:
118,27,150551,2,0,P|53:15|-23:2,1,120.927996337891,2|0,1:0|1:0,1:0:0:0:
41,253,150797,5,10,1:0:0:0:
150,159,150920,1,2,1:0:0:0:
78,369,151043,5,2,1:0:0:0:
78,369,151166,1,0,1:0:0:0:
294,335,151289,5,10,1:0:0:0:
294,335,151412,1,0,1:0:0:0:
512,289,151535,5,2,1:0:0:0:
512,289,151658,1,0,1:0:0:0:
431,237,151781,5,10,1:0:0:0:
377,227,151842,1,10,1:0:0:0:
323,219,151904,1,10,1:0:0:0:
269,211,151965,1,10,1:0:0:0:
241,164,152027,6,0,P|252:79|416:69,1,239.903992675781,6|8,1:0|1:0,1:0:0:0:
340,135,152396,1,0,1:0:0:0:
241,164,152519,1,0,1:0:0:0:
131,187,152642,1,0,1:0:0:0:
46,109,152765,6,0,P|41:43|87:0,1,119.951996337891,10|0,1:0|1:0,1:0:0:0:
66,304,153011,6,0,B|64:268|51:249|51:249|79:279|124:307|186:309|243:257|229:185,1,299.880011444092,2|8,1:0|3:1,1:0:0:0:
230,203,153318,1,0,3:0:0:0:
230,203,153379,2,0,P|204:157|240:86,1,120.927996337891,2|0,3:1|1:0,1:0:0:0:
337,20,153625,1,2,1:0:0:0:
368,269,153748,1,10,1:0:0:0:
356,146,153871,6,0,P|479:148|478:283,1,240.879992675781,6|0,1:0|1:0,1:0:0:0:
251,346,154240,1,8,1:0:0:0:
270,244,154363,1,0,1:0:0:0:
368,269,154486,1,0,1:0:0:0:
345,367,154609,1,0,1:0:0:0:
157,276,154732,6,0,P|92:287|28:293,1,119.951996337891,10|0,1:0|1:0,1:0:0:0:
136,30,154978,5,2,1:0:0:0:
222,110,155101,1,0,1:0:0:0:
129,181,155224,1,8,1:0:0:0:
45,100,155347,1,0,3:0:0:0:
45,100,155592,1,0,3:0:0:0:
129,181,155715,1,8,3:1:0:0:
222,110,155838,5,6,1:0:0:0:
222,110,155900,1,2,1:0:0:0:
222,110,155961,1,2,1:0:0:0:
351,190,156084,1,2,1:0:0:0:
361,24,156207,1,10,1:0:0:0:
314,102,156330,1,2,1:0:0:0:
430,211,156453,5,2,1:0:0:0:
473,208,156515,1,2,1:0:0:0:
503,176,156576,1,2,1:0:0:0:
351,190,156699,1,10,1:0:0:0:
446,312,156822,1,2,1:0:0:0:
182,360,156945,5,2,1:0:0:0:
320,299,157068,1,2,1:0:0:0:
191,236,157191,1,10,1:0:0:0:
280,188,157314,1,2,1:0:0:0:
207,114,157437,1,2,1:0:0:0:
108,158,157560,5,2,1:0:0:0:
280,188,157683,1,10,1:0:0:0:
322,27,157806,2,0,B|242:42|165:4|165:4|69:3,1,239.903992675781,6|0,1:0|1:0,1:0:0:0:
35,246,158174,6,0,P|20:269|18:319,6,53.5288888888888,10|0|0|0|0|0|0,1:0|1:0|1:0|1:0|1:0|1:0|1:0,1:0:0:0:
205,364,158543,2,0,P|156:310|93:309,1,120.927996337891,2|8,1:0|1:0,1:0:0:0:
388,159,158789,1,2,1:0:0:0:
444,244,158912,2,0,P|395:298|332:299,1,120.927996337891,2|0,1:0|1:0,1:0:0:0:
279,205,159158,1,8,1:0:0:0:
460,46,159281,5,2,3:1:0:0:
460,46,159527,1,2,3:1:0:0:
64,45,159773,5,6,1:0:0:0:
64,45,160019,1,0,1:0:0:0:
228,105,160142,5,10,1:2:0:0:
140,138,160265,1,0,1:0:0:0:
281,175,160388,5,10,1:2:0:0:
370,203,160511,1,0,1:0:0:0:
232,250,160633,5,10,1:2:0:0:
153,279,160756,1,0,1:0:0:0:
310,101,160879,5,10,1:2:0:0:
313,258,161002,1,0,1:0:0:0:
169,197,161125,1,10,1:2:0:0:
160,37,161248,1,0,1:0:0:0:
250,33,161371,5,10,1:2:0:0:
232,250,161494,1,2,1:2:0:0:
344,180,161617,1,10,1:2:0:0:
133,116,161740,1,6,3:2:0:0:
133,116,161986,1,0,1:0:0:0:
120,307,162109,5,10,1:2:0:0:
9,269,162232,1,0,1:0:0:0:
232,250,162355,5,10,1:2:0:0:
128,279,162478,1,0,1:0:0:0:
350,309,162601,5,10,1:2:0:0:
242,276,162724,1,0,1:0:0:0:
441,241,162847,5,10,1:2:0:0:
417,91,162970,1,0,1:0:0:0:
336,43,163092,5,10,1:2:0:0:
306,197,163215,1,0,1:0:0:0:
226,250,163338,5,10,1:2:0:0:
174,35,163461,1,2,1:2:0:0:
78,70,163584,5,10,1:2:0:0:
38,286,163707,1,6,3:2:0:0:
38,286,163953,1,0,1:0:0:0:
226,250,164076,5,10,1:2:0:0:
252,384,164199,1,0,1:0:0:0:
306,197,164322,5,10,1:2:0:0:
176,152,164445,1,0,1:0:0:0:
313,294,164568,5,10,1:2:0:0:
416,203,164691,2,0,P|410:146|404:52,1,119.951996337891,0|10,1:0|1:2,1:0:0:0:
294,84,164937,5,0,1:0:0:0:
226,250,165060,1,10,1:2:0:0:
116,109,165183,1,0,1:0:0:0:
306,50,165306,5,10,1:2:0:0:
251,280,165429,1,2,1:2:0:0:
78,120,165551,1,10,1:2:0:0:
306,50,165674,1,6,3:2:0:0:
306,50,165920,1,0,1:0:0:0:
230,199,166043,5,10,1:2:0:0:
408,253,166166,1,0,1:0:0:0:
230,199,166289,5,10,1:2:0:0:
126,349,166412,1,0,1:0:0:0:
230,199,166535,5,10,1:2:0:0:
167,19,166658,1,0,1:0:0:0:
193,269,166781,5,10,2:0:0:0:
299,230,166904,1,2,2:0:0:0:
262,124,167027,1,2,2:0:0:0:
158,161,167150,1,2,2:0:0:0:
193,269,167273,1,2,2:0:0:0:
299,230,167396,1,2,2:0:0:0:
262,124,167519,1,2,2:0:0:0:
158,161,167642,1,2,2:0:0:0:
461,200,167888,5,0,3:0:0:0:
461,200,167949,1,0,3:0:0:0:
461,200,168011,2,0,P|456:267|453:325,1,99.9599999999999,14|0,1:2|1:0,1:0:0:0:
490,381,168256,2,0,P|485:314|482:256,1,100.773333333333,2|0,1:2|1:0,1:0:0:0:
348,366,168502,5,10,1:2:0:0:
275,316,168625,2,0,P|248:240|314:106,1,200.733333333333,6|0,1:2|1:0,1:0:0:0:
139,55,168994,6,0,P|171:75|175:160,1,100.773333333333,10|0,1:2|1:0,1:0:0:0:
235,206,169240,2,0,P|201:224|125:184,1,99.9599999999999,2|0,1:2|1:0,1:0:0:0:
54,215,169486,2,0,P|55:176|127:130,1,99.9599999999999,10|0,1:2|1:0,1:0:0:0:
262,44,169732,6,0,P|334:41|490:30,1,199.92,6|8,1:2|1:0,1:0:0:0:
400,179,170101,1,2,1:2:0:0:
346,80,170224,1,0,1:0:0:0:
400,179,170347,1,0,1:0:0:0:
461,32,170470,1,10,1:2:0:0:
512,141,170592,6,0,B|412:115|430:206|282:172,1,200.733333333333,6|0,3:2|1:0,1:0:0:0:
54,229,170961,2,0,B|154:203|136:294|284:260,1,200.733333333333,10|0,1:2|1:0,1:0:0:0:
489,293,171330,5,2,1:2:0:0:
396,259,171453,1,10,1:2:0:0:
410,349,171576,2,0,B|386:354|386:354|426:380,1,49.9799999999999,2|0,1:2|3:0,1:0:0:0:
60,325,171945,6,0,B|1:274|6:195|53:143,1,199.92,14|2,1:2|1:2,1:0:0:0:
69,42,172314,1,0,1:0:0:0:
153,104,172437,1,10,1:2:0:0:
275,41,172560,6,0,B|363:38|343:153|466:141,1,199.92,6|0,3:2|1:0,1:0:0:0:
258,231,172929,2,0,B|238:184|238:184|274:115,1,99.9599999999999,10|0,1:2|1:0,1:0:0:0:
438,141,173174,2,0,B|458:188|458:188|422:257,1,100.773333333333,2|0,1:2|1:0,1:0:0:0:
347,192,173420,5,10,1:2:0:0:
347,192,173666,1,6,1:2:0:0:
283,322,173789,1,0,1:0:0:0:
166,227,173912,1,8,1:0:0:0:
185,191,174035,5,4,1:0:0:0:
242,308,174158,1,0,1:0:0:0:
347,222,174281,1,8,1:0:0:0:
329,193,174404,5,4,1:0:0:0:
277,298,174527,1,0,1:0:0:0:
183,220,174650,1,8,1:0:0:0:
198,197,174773,5,4,1:0:0:0:
244,291,174896,1,0,1:0:0:0:
329,221,175019,1,8,1:0:0:0:
282,122,175142,1,0,1:0:0:0:
347,344,175265,5,8,1:0:0:0:
471,224,175388,1,8,1:0:0:0:
395,68,175511,2,0,P|363:65|335:66,1,49.9799999999999,8|0,1:0|3:0,1:0:0:0:
33,219,175879,6,0,B|101:207|168:276|152:359,1,200.733333333333,14|2,1:2|1:2,1:0:0:0:
51,315,176248,1,0,1:0:0:0:
98,130,176371,5,10,1:2:0:0:
200,196,176494,2,0,P|276:191|422:174,1,200.733333333333,6|0,1:2|1:0,1:0:0:0:
333,0,176863,2,0,P|314:46|346:108,1,99.9599999999999,10|0,1:2|1:0,1:0:0:0:
476,248,177109,1,2,1:2:0:0:
399,177,177232,1,0,1:0:0:0:
500,152,177355,2,0,P|519:106|487:44,1,99.9599999999999,10|0,1:2|1:0,1:0:0:0:
366,272,177601,6,0,P|314:275|247:284,1,99.9599999999999,6|0,1:2|1:0,1:0:0:0:
99,192,177847,2,0,P|47:195|-20:204,1,99.9599999999999,8|0,1:0|1:0,1:0:0:0:
224,169,178092,1,2,1:2:0:0:
138,304,178215,1,0,1:0:0:0:
224,169,178338,1,8,1:0:0:0:
92,59,178461,6,0,B|172:51|211:4|211:4|299:-2,1,200.733333333333,6|0,1:2|3:0,1:0:0:0:
311,19,178769,1,0,3:0:0:0:
347,35,178830,2,0,B|423:24|495:93|434:207,1,200.733333333333,8|0,1:0|1:0,1:0:0:0:
299,360,179199,5,2,1:0:0:0:
195,254,179322,1,10,1:0:0:0:
336,218,179445,1,2,1:0:0:0:
258,98,179568,6,0,L|259:314,2,199.92,6|8|0,1:2|1:0|1:0,1:0:0:0:
258,98,180183,1,0,1:0:0:0:
105,52,180306,2,0,P|89:116|106:268,1,199.92,8|0,1:0|1:0,1:0:0:0:
169,331,180674,1,0,1:0:0:0:
342,331,180797,1,8,1:0:0:0:
412,248,180920,2,0,P|425:149|407:52,1,200.733333333333,0|0,1:0|1:0,1:0:0:0:
219,74,181289,5,10,1:0:0:0:
253,194,181412,1,2,1:0:0:0:
295,310,181535,2,0,B|166:285|188:406|50:383,1,259.895988098145,14|0,1:2|1:0,1:0:0:0:
219,74,181904,2,0,B|348:99|326:-22|464:1,1,259.895988098145,14|0,1:2|1:0,1:0:0:0:
427,263,182273,6,0,P|380:240|391:157,1,109.956003356934,8|0,1:0|1:0,1:0:0:0:
85,121,182519,1,8,3:0:0:0:
111,127,182580,1,8,3:0:0:0:
132,144,182642,1,8,3:0:0:0:
143,169,182703,1,8,3:0:0:0:
141,196,182765,1,8,3:0:0:0:
54,204,182888,5,8,1:0:0:0:
53,48,183011,1,8,1:3:0:0:
201,0,183133,1,8,1:0:0:0:
293,126,183256,1,8,1:3:0:0:
201,253,183379,1,8,1:0:0:0:
201,253,183625,5,8,1:0:0:0:
441,331,183748,1,8,1:0:0:0:
293,126,183871,1,8,1:0:0:0:
293,379,183994,1,8,1:0:0:0:
440,175,184117,1,8,1:0:0:0:
337,258,184240,5,8,3:0:0:0:
314,295,184301,1,8,3:0:0:0:
326,336,184363,1,8,1:0:0:0:
154,120,184486,1,8,1:0:0:0:
150,107,184547,2,0,B|133:70|133:70|44:105,1,120.928,8|2,0:0|1:2,1:0:0:0:
117,367,184978,5,8,1:0:0:0:
100,212,185101,1,0,3:0:0:0:
100,212,185347,2,0,P|166:193|154:23,1,239.903992675781,6|0,1:0|1:0,1:0:0:0:
111,112,185715,1,8,1:0:0:0:
286,26,185838,5,0,1:0:0:0:
314,145,185961,1,0,1:0:0:0:
395,36,186084,2,0,P|451:49|548:68,1,120.927996337891,0|10,1:0|1:0,1:0:0:0:
465,291,186330,5,0,1:0:0:0:
355,281,186453,2,0,P|299:268|202:249,1,120.927996337891,2|0,1:0|1:0,1:0:0:0:
0,87,186699,2,0,P|58:98|117:112,1,119.951996337891,8|0,1:0|1:0,1:0:0:0:
177,334,186945,5,2,1:0:0:0:
29,365,187068,1,0,1:0:0:0:
17,212,187191,1,8,1:0:0:0:
17,212,187252,1,0,1:0:0:0:
17,212,187314,1,0,1:0:0:0:
163,176,187437,2,0,P|202:188|231:282,1,120.927996337891,0|0,1:0|1:0,1:0:0:0:
426,362,187683,5,10,1:0:0:0:
465,283,187806,1,0,1:0:0:0:
405,216,187929,1,0,1:0:0:0:
366,291,188051,1,0,1:0:0:0:
496,190,188174,5,10,1:0:0:0:
405,93,188297,1,2,1:0:0:0:
312,202,188420,2,0,P|304:273|295:343,1,121.903996337891,2|0,1:0|1:0,1:0:0:0:
82,24,188666,2,0,P|74:95|65:165,1,121.903996337891,10|0,1:0|1:0,1:0:0:0:
211,265,188912,5,2,1:0:0:0:
161,147,189035,1,2,1:0:0:0:
125,309,189158,5,10,1:0:0:0:
233,76,189281,2,0,P|318:100|418:-4,1,240.879992675781,6|0,3:1|1:0,1:0:0:0:
512,201,189650,2,0,B|451:219|451:219|381:156,1,120.927996337891,8|0,1:0|1:0,1:0:0:0:
298,321,189896,2,0,B|359:339|359:339|429:276,1,120.927996337891,0|0,1:0|1:0,1:0:0:0:
140,158,190142,5,10,1:0:0:0:
77,270,190265,1,0,1:0:0:0:
166,351,190388,2,0,P|202:296|165:226,1,120.927996337891,2|0,1:0|1:0,1:0:0:0:
50,50,190633,2,0,P|14:105|51:175,1,121.903996337891,8|0,1:0|1:0,1:0:0:0:
281,199,190879,5,2,1:0:0:0:
193,36,191002,1,2,1:0:0:0:
140,158,191125,1,10,1:0:0:0:
329,74,191248,2,0,P|433:63|477:194,1,240.879992675781,2|0,1:0|1:0,1:0:0:0:
342,342,191617,5,10,1:0:0:0:
245,208,191740,1,0,1:0:0:0:
402,259,191863,1,0,1:0:0:0:
245,310,191986,1,0,1:0:0:0:
348,159,192109,5,8,1:0:0:0:
230,320,192232,1,0,1:0:0:0:
419,259,192355,1,0,1:0:0:0:
230,197,192478,1,0,1:0:0:0:
352,373,192601,5,8,1:0:0:0:
218,188,192724,1,0,1:0:0:0:
435,259,192847,1,2,1:2:0:0:
469,269,192908,1,2,1:2:0:0:
501,252,192970,1,2,1:2:0:0:
218,329,193092,1,10,1:2:0:0:
185,314,193154,1,2,1:2:0:0:
150,323,193215,1,2,1:2:0:0:
319,256,193338,6,0,B|361:204|361:204|326:146|326:146|392:89|369:-6,1,302.320011444092,6|8,1:0|1:0,1:0:0:0:
130,27,193707,2,0,L|305:50,1,120.927996337891,0|0,1:0|1:0,1:0:0:0:
130,27,193953,1,0,1:0:0:0:
111,183,194076,5,10,1:0:0:0:
111,183,194199,2,0,B|0:210|0:210|8:366,1,240.879992675781,2|0,1:0|1:0,1:0:0:0:
215,148,194568,2,0,P|254:86|221:6,1,120.927996337891,10|0,1:0|1:0,1:0:0:0:
301,216,194814,2,0,P|372:199|405:119,1,120.927996337891,2|0,1:0|1:0,1:0:0:0:
289,323,195060,2,0,P|351:362|431:329,1,120.927996337891,10|0,1:0|1:0,1:0:0:0:
486,70,195306,6,0,L|233:40,1,240.879992675781,2|8,1:0|1:0,1:0:0:0:
132,82,195674,1,0,1:0:0:0:
200,168,195797,1,0,1:0:0:0:
82,0,195920,5,2,3:1:0:0:
82,0,195982,1,0,3:0:0:0:
82,0,196043,1,8,3:1:0:0:
7,159,196166,1,2,1:0:0:0:
200,168,196289,5,0,3:0:0:0:
103,198,196412,1,0,3:0:0:0:
103,295,196535,1,8,3:1:0:0:
199,329,196658,1,0,3:0:0:0:
262,253,196781,1,0,3:0:0:0:
176,244,196904,5,2,3:1:0:0:
367,330,197027,1,10,3:1:0:0:
453,139,197150,1,2,3:1:0:0:
397,213,197273,6,0,B|275:208|305:317|188:329,1,240.879992675781,4|10,1:0|1:0,1:0:0:0:
0,112,197642,2,0,B|121:107|91:216|208:228,1,240.879992675781,2|2,1:0|1:0,1:0:0:0:
502,102,198011,5,10,1:0:0:0:
397,213,198133,1,2,1:0:0:0:
339,72,198256,2,0,P|209:55|86:39,1,241.855992675781,2|8,1:0|1:0,1:0:0:0:
198,328,198625,2,0,P|316:343|435:359,1,241.855992675781,2|0,1:0|1:0,1:0:0:0:
435,359,198994,1,10,1:0:0:0:
1,266,199240,6,0,L|153:252,1,120.927996337891,2|0,1:0|1:0,1:0:0:0:
249,93,199486,5,14,1:0:0:0:
289,305,199609,1,2,1:0:0:0:
138,151,199732,5,12,1:0:0:0:
323,196,199855,1,0,1:0:0:0:
152,32,199978,5,12,1:0:0:0:
323,196,200101,1,0,1:0:0:0:
161,353,200224,5,12,1:0:0:0:
249,93,200347,1,8,1:0:0:0:
323,196,200470,5,2,3:1:0:0:
363,233,200551,1,0,3:0:0:0:
418,230,200633,1,0,3:0:0:0:
455,188,200715,1,10,1:1:0:0:
211,228,200838,1,6,3:1:0:0:
211,228,201084,6,0,B|133:202|84:89|186:-9,1,241.855992675781,6|0,1:0|1:0,1:0:0:0:
74,259,201453,2,0,L|57:382,1,120.927996337891,8|0,1:0|1:0,1:0:0:0:
323,196,201699,2,0,L|306:77,1,120.927996337891,0|0,1:0|1:0,1:0:0:0:
505,297,201945,5,10,1:0:0:0:
375,283,202068,1,0,1:0:0:0:
242,264,202191,2,0,P|213:209|252:134,1,120.927996337891,2|0,1:0|1:0,1:0:0:0:
428,79,202437,2,0,P|457:134|418:209,1,120.927996337891,8|0,1:0|1:0,1:0:0:0:
195,44,202683,5,2,1:0:0:0:
97,181,202806,1,0,1:0:0:0:
4,32,202929,1,8,1:0:0:0:
101,74,203051,2,0,P|155:66|344:39,1,241.855992675781,0|0,1:0|1:0,1:0:0:0:
171,307,203420,5,10,1:0:0:0:
72,282,203543,1,0,1:0:0:0:
97,181,203666,1,0,1:0:0:0:
200,205,203789,1,0,1:0:0:0:
272,285,203912,5,10,1:0:0:0:
417,260,204035,1,2,1:0:0:0:
392,114,204158,2,0,P|333:124|264:144,1,120.927996337891,2|0,1:0|1:0,1:0:0:0:
72,282,204404,2,0,P|131:292|200:312,1,120.927996337891,10|0,1:0|1:0,1:0:0:0:
160,8,204650,5,2,1:0:0:0:
141,254,204773,1,2,1:0:0:0:
24,119,204896,5,10,1:0:0:0:
275,140,205019,2,0,P|358:113|475:212,1,240.879992675781,6|0,3:1|1:0,1:0:0:0:
301,323,205388,5,8,1:0:0:0:
238,237,205511,1,0,1:0:0:0:
340,223,205633,2,0,B|396:243|396:243|403:308,1,121.903996337891,0|0,1:0|1:0,1:0:0:0:
182,329,205879,2,0,B|126:309|126:309|119:244,1,121.903996337891,10|0,1:0|1:0,1:0:0:0:
0,22,206125,5,2,1:0:0:0:
158,83,206248,1,0,1:0:0:0:
15,197,206371,2,0,P|18:264|26:322,1,120.927996337891,8|0,1:0|1:0,1:0:0:0:
229,15,206617,5,2,1:0:0:0:
71,76,206740,1,2,1:0:0:0:
214,190,206863,2,0,P|211:257|203:315,1,119.951996337891,10|2,1:0|1:0,1:0:0:0:
203,309,207109,1,0,1:0:0:0:
300,16,207355,5,10,1:0:0:0:
347,149,207478,1,0,1:0:0:0:
214,190,207601,1,0,1:0:0:0:
170,62,207724,1,0,1:0:0:0:
327,9,207847,5,8,1:0:0:0:
353,173,207970,1,0,1:0:0:0:
188,197,208092,1,0,1:0:0:0:
163,36,208215,1,0,1:0:0:0:
363,10,208338,5,8,1:0:0:0:
156,200,208461,1,0,1:0:0:0:
355,207,208584,1,2,1:2:0:0:
402,227,208646,1,2,1:2:0:0:
445,196,208707,1,2,1:2:0:0:
159,3,208830,1,10,1:2:0:0:
105,0,208892,1,2,1:2:0:0:
62,31,208953,1,2,1:2:0:0:
155,166,209076,6,0,B|224:175|224:175|305:37|305:37|408:42,1,301.100011444092,6|8,1:0|1:0,1:0:0:0:
427,318,209445,6,0,P|362:322|308:256,1,120.927996337891,0|0,1:0|1:0,1:0:0:0:
427,318,209691,1,0,1:0:0:0:
191,289,209814,5,10,1:0:0:0:
191,289,209937,2,0,P|143:324|31:217,1,240.879992675781,2|0,1:0|1:0,1:0:0:0:
20,93,210306,5,10,1:0:0:0:
121,106,210429,1,0,1:0:0:0:
190,31,210551,5,2,1:0:0:0:
291,18,210674,1,0,1:0:0:0:
360,213,210797,5,10,1:0:0:0:
235,118,210920,1,0,1:0:0:0:
395,61,211043,2,0,P|390:116|384:187,1,121.903996337891,2|0,1:0|1:0,1:0:0:0:
106,332,211289,2,0,P|111:277|117:206,1,120.927996337891,8|0,1:0|1:0,1:0:0:0:
269,357,211535,5,2,1:0:0:0:
383,325,211658,1,0,3:1:0:0:
496,299,211781,1,8,3:1:0:0:
222,255,211904,5,2,1:0:0:0:
383,325,212027,1,0,3:0:0:0:
330,230,212150,1,0,3:0:0:0:
269,357,212273,1,8,3:1:0:0:
131,302,212396,1,0,3:0:0:0:
194,163,212519,1,0,3:0:0:0:
296,131,212642,5,2,3:1:0:0:
74,177,212765,1,10,3:1:0:0:
296,131,212888,1,2,3:1:0:0:
59,31,213011,2,0,P|8:93|16:257,1,240.879992675781,4|10,1:0|1:0,1:0:0:0:
247,346,213379,2,0,P|298:284|290:120,1,241.855992675781,2|2,1:0|1:0,1:0:0:0:
509,121,213748,5,10,1:0:0:0:
414,220,213871,1,2,1:0:0:0:
400,27,213994,2,0,B|296:75|262:-10|139:54,1,240.879992675781,2|8,1:0|1:0,1:0:0:0:
112,357,214363,2,0,B|216:309|250:394|373:330,1,240.879992675781,2|0,1:0|1:0,1:0:0:0:
346,341,214732,1,10,1:0:0:0:
135,192,214978,5,2,1:0:0:0:
135,192,215224,1,8,1:0:0:0:
211,136,215347,1,0,1:0:0:0:
264,231,215470,1,0,1:0:0:0:
307,135,215592,1,0,1:0:0:0:
389,193,215715,1,8,1:0:0:0:
119,21,215961,5,8,3:0:0:0:
84,31,216023,1,8,3:0:0:0:
62,60,216084,1,8,3:0:0:0:
60,95,216146,1,8,3:0:0:0:
75,127,216207,1,8,3:0:0:0:
31,226,216330,5,8,1:0:0:0:
259,202,216453,1,8,1:0:0:0:
119,21,216576,1,8,1:0:0:0:
136,315,216699,5,10,1:0:0:0:
246,31,216822,2,0,P|325:5|472:84,1,220.806673380533,4|0,1:0|1:0,1:0:0:0:
254,301,217191,6,0,B|232:250|232:250|279:168,1,110.850670023601,8|0,1:0|1:0,1:0:0:0:
455,212,217437,1,0,1:0:0:0:
358,131,217560,1,0,1:0:0:0:
455,212,217683,2,0,B|477:263|477:263|449:310,1,110.850670023601,8|0,1:0|1:0,1:0:0:0:
236,340,217929,5,0,1:0:0:0:
259,202,218051,1,0,1:0:0:0:
114,179,218174,1,8,1:0:0:0:
259,202,218297,1,0,1:0:0:0:
165,265,218420,5,0,1:0:0:0:
200,108,218543,1,0,1:0:0:0:
351,144,218666,1,8,1:0:0:0:
331,309,218789,2,0,L|82:325,1,220.806673380533,4|0,1:0|1:0,1:0:0:0:
4,142,219158,5,8,1:0:0:0:
4,142,219281,1,0,1:0:0:0:
86,57,219404,1,0,1:0:0:0:
116,191,219527,1,0,1:0:0:0:
200,108,219650,6,0,P|187:52|177:-6,1,110.850670023601,8|0,1:0|1:0,1:0:0:0:
468,223,219896,2,0,P|455:279|445:337,1,110.850670023601,0|0,1:0|1:0,1:0:0:0:
335,356,220142,1,8,1:0:0:0:
335,356,220265,1,0,1:0:0:0:
216,197,220388,5,0,1:0:0:0:
360,240,220511,1,0,1:0:0:0:
168,288,220633,5,8,1:0:0:0:
23,242,220756,2,0,B|4:169|4:169|69:106|61:-1,1,220.806673380533,4|0,1:0|1:0,1:0:0:0:
260,14,221125,6,0,P|311:33|408:56,1,110.850670023601,8|0,1:0|1:0,1:0:0:0:
262,145,221371,1,0,1:0:0:0:
262,145,221494,1,0,1:0:0:0:
166,241,221617,2,0,P|219:255|270:274,1,110.850670023601,8|0,1:0|1:0,1:0:0:0:
497,194,221863,5,0,1:0:0:0:
412,138,221986,1,0,1:0:0:0:
345,206,222109,1,8,1:0:0:0:
262,145,222232,1,0,1:0:0:0:
397,293,222355,5,0,1:0:0:0:
336,85,222478,1,0,1:0:0:0:
412,138,222601,5,8,1:0:0:0:
321,346,222724,2,0,P|243:344|215:188,1,220.806673380533,4|0,1:0|1:0,1:0:0:0:
42,69,223092,5,8,1:0:0:0:
148,41,223215,1,0,1:0:0:0:
120,146,223338,1,0,1:0:0:0:
228,115,223461,1,0,1:0:0:0:
191,226,223584,1,8,1:0:0:0:
302,196,223707,1,0,1:0:0:0:
267,23,223830,5,0,1:0:0:0:
394,136,223953,1,0,1:0:0:0:
228,115,224076,1,8,1:0:0:0:
371,29,224199,1,0,1:0:0:0:
302,196,224322,1,0,1:0:0:0:
313,101,224445,5,8,1:0:0:0:
75,136,224568,1,8,1:0:0:0:
239,320,224691,2,0,B|305:275|349:292|335:335|416:348|486:279,1,220.806673380533,12|0,1:0|1:0,1:0:0:0:
156,379,225060,6,0,P|136:332|170:251,1,110.850670023601,8|0,1:0|1:0,1:0:0:0:
75,136,225306,1,0,1:0:0:0:
186,115,225429,1,0,1:0:0:0:
293,93,225551,2,0,P|313:140|279:221,1,110.850670023601,8|0,1:0|1:0,1:0:0:0:
419,384,225797,5,0,1:0:0:0:
511,297,225920,1,0,1:0:0:0:
428,220,226043,1,8,1:0:0:0:
328,294,226166,1,0,1:0:0:0:
422,302,226289,5,0,1:0:0:0:
433,135,226412,1,0,1:0:0:0:
422,302,226535,1,8,1:0:0:0:
433,135,226658,2,0,P|318:118|296:14,1,220.806673380533,4|0,1:0|1:0,1:0:0:0:
393,51,227027,1,8,1:0:0:0:
314,130,227150,1,0,1:0:0:0:
174,32,227273,6,0,P|103:25|47:21,1,110.850670023601,0|0,1:0|1:0,1:0:0:0:
297,273,227519,2,0,P|226:266|170:262,1,110.850670023601,8|0,1:0|1:0,1:0:0:0:
99,334,227765,5,0,1:0:0:0:
99,334,227888,1,0,1:0:0:0:
154,144,228011,1,8,1:0:0:0:
154,144,228133,1,0,1:0:0:0:
60,196,228256,5,0,1:0:0:0:
187,263,228379,1,0,1:0:0:0:
19,225,228502,1,8,1:0:0:0:
227,237,228625,2,0,P|274:163|185:43,1,220.806673380533,4|0,1:0|1:0,1:0:0:0:
462,40,228994,5,8,1:0:0:0:
377,74,229117,1,0,1:0:0:0:
454,211,229240,5,0,1:0:0:0:
369,168,229363,1,0,1:0:0:0:
452,127,229486,1,8,1:0:0:0:
373,260,229609,1,0,1:0:0:0:
175,124,229732,5,0,1:0:0:0:
192,236,229855,1,0,1:0:0:0:
298,210,229978,1,8,1:0:0:0:
283,96,230101,1,0,1:0:0:0:
130,188,230224,5,2,1:2:0:0:
215,59,230347,1,2,1:2:0:0:
347,144,230470,1,10,1:2:0:0:
259,279,230592,2,0,B|182:300|120:243|120:243|11:256,1,220.806673380533,4|0,1:0|1:0,1:0:0:0:
215,59,230961,2,0,B|292:80|354:23|354:23|463:36,1,220.806673380533,12|0,1:0|3:0,1:0:0:0:
443,64,231269,1,0,3:0:0:0:
459,98,231330,2,0,P|448:159|431:247,1,110.850670023601,8|0,1:0|1:0,1:0:0:0:
51,251,231576,5,0,3:0:0:0:
51,251,231638,1,0,3:0:0:0:
51,251,231699,1,12,1:0:0:0:
146,276,231822,1,0,1:0:0:0:
7,286,231945,5,12,1:0:0:0:
178,233,232068,1,0,1:0:0:0:
91,110,232191,5,8,1:0:0:0:
74,344,232314,1,8,1:0:0:0:
311,362,232437,1,8,1:0:0:0:
330,125,232560,1,12,1:0:0:0:
74,344,233174,5,4,1:0:0:0:
13,42,233666,5,8,1:0:0:0:
141,188,233789,1,8,1:0:0:0:
218,111,233912,5,0,3:0:0:0:
221,72,233974,1,0,3:0:0:0:
194,44,234035,1,0,3:0:0:0:
155,36,234097,1,0,3:0:0:0:
119,50,234158,2,0,P|112:109|107:190,1,110.850670023601,8|0,1:0|1:0,1:0:0:0:
479,231,234404,5,8,1:0:0:0:
294,202,234527,1,4,3:1:0:0:
256,192,234588,12,0,238953,1:0:0:0:
