osu file format v14

[General]
AudioFilename: audio.mp3
AudioLeadIn: 0
PreviewTime:96146
Countdown: 0
SampleSet: Normal
StackLeniency: 0.3
Mode: 0
LetterboxInBreaks: 0
WidescreenStoryboard: 1

[Editor]
Bookmarks: 16171,31909,41745,57483,65352,81089,96826,112564,127810,128425,144039,159776,168015,185350,201088,216825,232563,238957
DistanceSpacing: 0.5
BeatDivisor: 3
GridSize: 32
TimelineZoom: 2

[Metadata]
Title:Dorothea
TitleUnicode:ドロチア
Artist:Eine Kleine
ArtistUnicode:Eine Kleine
Creator:IsomirDiAngelo
Version:Shidoni's Insane
Source:
Tags:lmt shidoni shirahane suou lolcubes dorochia shoujo D 少女-D- くろねこ kuroneko japanese gothic jrock rock metal
BeatmapID:2604388
BeatmapSetID:1241592

[Difficulty]
HPDrainRate:4
CircleSize:4
OverallDifficulty:9
ApproachRate:9
SliderMultiplier:1.8
SliderTickRate:1

[Events]
//Background and Video events
0,0,"bg.jpg"
//Break Periods
//Storyboard Layer 0 (Background)
//Storyboard Layer 1 (Fail)
//Storyboard Layer 2 (Pass)
//Storyboard Layer 3 (Foreground)
//Storyboard Layer 4 (Overlay)
//Storyboard Sound Samples

[TimingPoints]
62,245.901639344262,4,2,1,50,1,0
552,245.901639344262,4,2,1,50,1,0
8170,-100,4,1,1,70,0,0
8297,-125,4,1,1,70,0,0
16166,-111.111111111111,4,1,1,70,0,0
32211,-111.111111111111,4,2,1,5,0,0
32273,-83.3333333333333,4,1,1,70,0,0
33871,-111.111111111111,4,1,1,70,0,0
34178,-111.111111111111,4,2,1,5,0,0
34240,-83.3333333333333,4,1,1,70,0,0
35838,-111.111111111111,4,1,1,70,0,0
36145,-111.111111111111,4,2,1,5,0,0
36207,-83.3333333333333,4,1,1,70,0,0
37806,-111.111111111111,4,1,1,70,0,0
38113,-111.111111111111,4,2,1,5,0,0
38174,-83.3333333333333,4,1,1,70,0,0
39773,-100,4,1,1,70,0,0
40879,-769.230769230769,4,1,1,70,0,0
41740,-111.111111111111,4,2,1,70,0,0
42785,-111.111111111111,4,2,1,5,0,0
42847,-111.111111111111,4,2,1,70,0,0
44506,-111.111111111111,4,2,1,5,0,0
44568,-111.111111111111,4,2,1,70,0,0
46719,-111.111111111111,4,2,1,5,0,0
46781,-111.111111111111,4,2,1,70,0,0
50654,-111.111111111111,4,2,1,5,0,0
50715,-111.111111111111,4,2,1,70,0,0
52375,-111.111111111111,4,2,1,5,0,0
52437,-111.111111111111,4,2,1,70,0,0
54588,-111.111111111111,4,2,1,5,0,0
54650,-111.111111111111,4,2,1,70,0,0
57478,-111.111111111111,4,1,1,70,0,0
66391,-111.111111111111,4,2,1,5,0,0
66453,-111.111111111111,4,1,1,70,0,0
70326,-111.111111111111,4,2,1,5,0,0
70388,-111.111111111111,4,1,1,70,0,0
71617,-99.9999999999999,4,1,1,70,0,0
72355,-111.111111111111,4,1,1,70,0,0
74260,-111.111111111111,4,2,1,5,0,0
74322,-111.111111111111,4,1,1,70,0,0
78195,-111.111111111111,4,2,1,5,0,0
78256,-111.111111111111,4,1,1,70,0,0
79486,-99.9999999999999,4,1,1,70,0,0
80224,-142.857142857143,4,1,1,70,0,0
81207,-125,4,1,1,70,0,0
82375,-125,4,2,1,5,0,0
82437,-125,4,1,1,70,0,0
83358,-125,4,2,1,5,0,0
83420,-125,4,1,1,70,0,0
86309,-125,4,2,1,5,0,0
86371,-125,4,1,1,70,0,0
87293,-125,4,2,1,5,0,0
87355,-125,4,1,1,70,0,0
90244,-125,4,2,1,5,0,0
90306,-125,4,1,1,70,0,0
91227,-125,4,2,1,5,0,0
91289,-125,4,1,1,70,0,0
93011,-111.111111111111,4,1,1,70,0,0
95899,-111.111111111111,4,2,1,5,0,0
95961,-111.111111111111,4,1,1,70,0,0
96822,-90.9090909090908,4,1,1,70,0,0
99096,-90.9090909090908,4,2,1,5,0,0
99158,-90.9090909090908,4,1,1,70,0,0
103031,-90.9090909090908,4,2,1,5,0,0
103092,-90.9090909090908,4,1,1,70,0,0
104752,-90.9090909090908,4,2,1,5,0,0
104814,-90.9090909090908,4,1,1,70,0,0
114834,-90.9090909090908,4,2,1,5,0,0
114896,-90.9090909090908,4,1,1,70,0,0
118768,-90.9090909090908,4,2,1,5,0,0
118830,-90.9090909090908,4,1,1,70,0,0
120490,-90.9090909090908,4,2,1,5,0,0
120551,-90.9090909090908,4,1,1,70,0,0
126637,-90.9090909090908,4,2,1,5,0,0
126699,-90.9090909090908,4,1,1,70,0,0
127433,-90.9090909090908,4,2,1,70,0,0
128358,-90.9090909090908,4,2,1,5,0,0
128420,-111.111111111111,4,2,1,70,0,0
134318,-111.111111111111,4,1,1,70,0,0
138195,-111.111111111111,4,2,1,5,0,0
138256,-111.111111111111,4,1,1,70,0,0
142129,-111.111111111111,4,2,1,5,0,0
142191,-99.9999999999999,4,1,1,70,0,0
142437,-90.9090909090909,4,1,1,70,0,0
142621,-90.9090909090909,4,2,1,5,0,0
142683,-83.3333333333333,4,1,1,70,0,0
144035,-83.3333333333333,4,1,1,70,0,0
150797,-200,4,1,1,70,0,0
150981,-200,4,2,1,5,0,0
151043,-83.3333333333333,4,1,1,70,0,0
154424,-83.3333333333333,4,2,1,5,0,0
154486,-83.3333333333333,4,1,1,70,0,0
159342,-83.3333333333333,4,1,1,5,0,0
159527,-83.3333333333333,4,1,1,70,0,0
159588,-83.3333333333333,4,1,1,5,0,0
159769,-83.3333333333333,4,1,1,90,0,0
159773,-76.9230769230769,4,1,1,80,0,0
159834,-76.9230769230769,4,1,1,5,0,0
160019,-76.9230769230769,4,1,1,80,0,0
167884,-76.9230769230769,4,1,1,70,0,0
167888,-83.3333333333333,4,1,1,70,0,0
169670,-83.3333333333333,4,2,1,5,0,0
169732,-83.3333333333333,4,1,1,70,0,0
177539,-83.3333333333333,4,2,1,5,0,0
177601,-83.3333333333333,4,1,1,70,0,0
182457,-83.3333333333333,4,2,1,5,0,0
182519,-83.3333333333333,4,1,1,70,0,0
183502,-76.9230769230769,4,1,1,70,0,0
185347,-90.9090909090909,4,1,1,70,0,0
187621,-90.9090909090909,4,2,1,5,0,0
187683,-90.9090909090909,4,1,1,70,0,0
191555,-90.9090909090909,4,2,1,5,0,0
191617,-90.9090909090909,4,1,1,70,0,0
193276,-90.9090909090909,4,2,1,5,0,0
193338,-90.9090909090909,4,1,1,70,0,0
203358,-90.9090909090909,4,2,1,5,0,0
203420,-90.9090909090909,4,1,1,70,0,0
207293,-90.9090909090909,4,2,1,5,0,0
207355,-90.9090909090909,4,1,1,70,0,0
209014,-90.9090909090909,4,2,1,5,0,0
209076,-90.9090909090909,4,1,1,70,0,0
215162,-90.9090909090909,4,2,1,5,0,0
215224,-90.9090909090909,4,1,1,70,0,0
216822,-90.9090909090909,4,1,1,70,0,0
230961,-83.3333333333333,4,1,1,70,0,0
233666,-83.3333333333333,4,1,1,70,0,0
234158,-111.111111111111,4,1,1,70,0,0
234527,-285.714285714284,4,1,1,70,0,0
238830,-117.647058823529,4,1,1,70,0,0
238949,-117.647058823529,4,1,1,5,0,0

[Colours]
Combo1 : 43,159,230
Combo2 : 230,187,123
Combo3 : 215,55,112

[HitObjects]
153,330,8297,6,0,B|106:315|82:276|93:220|114:194|114:194|81:203|68:244,1,216,8|8,3:1|1:0,1:0:0:0:
357,244,10265,6,0,B|404:229|428:190|417:134|396:108|396:108|429:117|442:158,1,216,8|8,1:0|1:0,1:0:0:0:
161,163,12232,6,0,B|114:148|90:109|101:53|122:27|122:27|89:36|76:77,1,216,8|8,1:0|1:0,1:0:0:0:
270,228,14199,5,4,1:0:0:0:
270,228,14322,2,0,P|306:214|343:231,1,72
453,262,14568,2,0,P|422:237|419:197,1,72
422,30,14814,2,0,P|412:94|278:119,1,216
317,20,15306,6,0,L|336:62,6,36,8|0|0|0|0|0|0,1:0|3:0|3:0|3:0|3:0|0:0|3:0,0:0:0:0:
417,206,15797,1,8,1:0:0:0:
417,206,16166,6,0,B|385:170|326:178|326:178|308:214|258:219,1,161.999995056153,4|0,1:0|1:0,1:0:0:0:
191,109,16535,2,0,B|236:107|236:107|265:149,1,80.9999975280763,8|0,1:0|1:0,1:0:0:0:
222,280,16781,1,0,1:0:0:0:
222,280,16904,1,0,1:0:0:0:
272,359,17027,2,0,P|309:366|353:331,1,80.9999975280763,8|0,1:0|1:0,1:0:0:0:
177,200,17273,5,0,1:0:0:0:
177,200,17396,1,0,1:0:0:0:
123,277,17519,2,0,P|86:284|42:249,1,80.9999975280763,8|0,1:0|0:0,0:0:0:0:
78,94,17765,2,0,P|115:87|159:122,2,80.9999975280763,0|0|8,1:0|1:0|1:0,0:0:0:0:
18,175,18133,6,0,B|97:186|97:186|99:189|99:189|205:203,1,161.999995056153,4|0,1:0|1:0,1:0:0:0:
263,284,18502,2,0,B|304:283|304:283|338:244,1,80.9999975280763,8|0,1:0|1:0,0:0:0:0:
406,136,18748,2,0,B|447:137|447:137|481:176,1,80.9999975280763,0|0,1:0|1:0,1:0:0:0:
436,321,18994,6,0,P|416:269|437:217,1,80.9999975280763,8|0,1:0|0:0,0:0:0:0:
330,252,19240,1,0,1:0:0:0:
330,252,19363,1,0,1:0:0:0:
330,252,19486,2,0,P|341:197|387:165,1,80.9999975280763,8|0,1:0|0:0,0:0:0:0:
281,134,19732,2,0,P|321:95|377:95,2,80.9999975280763,0|0|8,1:0|1:0|1:0,0:0:0:0:
180,238,20101,6,0,P|146:199|149:82,1,161.999995056153,4|0,1:0|1:0,1:0:0:0:
19,32,20470,2,0,P|43:82|37:132,1,80.9999975280763,8|0,1:0|1:0,1:0:0:0:
3,224,20715,1,0,1:0:0:0:
3,224,20838,1,0,1:0:0:0:
78,282,20961,2,0,B|82:323|82:323|84:325|84:325|88:374,1,80.9999975280763,8|0,1:0|1:0,0:0:0:0:
105,180,21207,5,0,1:0:0:0:
105,180,21330,1,0,1:0:0:0:
180,238,21453,2,0,B|184:279|184:279|186:281|186:281|190:330,1,80.9999975280763,8|0,1:0|0:0,0:0:0:0:
344,348,21699,2,0,B|348:307|348:307|350:305|350:305|354:256,2,80.9999975280763,0|0|8,1:0|1:0|1:0,0:0:0:0:
262,384,22068,6,0,L|269:197,1,161.999995056153,4|0,1:0|1:0,1:0:0:0:
350,166,22437,2,0,B|369:127|369:127|346:83,1,80.9999975280763,8|0,1:0|0:0,0:0:0:0:
193,90,22683,2,0,B|175:123|175:123|194:162,1,80.9999975280763,0|0,1:0|1:0,0:0:0:0:
276,132,22929,1,8,1:0:0:0:
276,132,23051,1,0,1:0:0:0:
195,262,23174,6,0,B|153:265|153:265|152:266|152:266|103:270,1,80.9999975280763,8|0,1:0|1:0,0:0:0:0:
338,271,23420,2,0,B|380:274|380:274|381:275|381:275|430:279,1,80.9999975280763,8|0,1:0|1:0,0:0:0:0:
265,318,23666,1,8,1:0:0:0:
268,222,23789,1,2,3:0:0:0:
43,52,24035,6,0,B|89:37|126:71|126:71|167:107|215:81,1,161.999995056153,4|0,1:0|1:0,1:0:0:0:
315,22,24404,2,0,B|278:39|278:39|270:93,1,80.9999975280763,8|0,1:0|1:0,1:0:0:0:
268,222,24650,1,0,1:0:0:0:
268,222,24773,1,0,1:0:0:0:
347,167,24896,2,0,P|358:140|343:84,1,80.9999975280763,8|0,1:0|1:0,1:0:0:0:
192,89,25142,5,0,1:0:0:0:
192,89,25265,1,0,1:0:0:0:
113,144,25388,2,0,P|102:171|117:227,1,80.9999975280763,8|0,1:0|0:0,0:0:0:0:
267,298,25633,2,0,P|278:271|263:215,2,80.9999975280763,0|0|8,1:0|1:0|1:0,0:0:0:0:
134,318,26002,6,0,B|174:321|174:321|238:377|238:377|291:378,1,161.999995056153,4|0,1:0|1:0,1:0:0:0:
408,372,26371,2,0,B|409:331|409:331|371:295,1,80.9999975280763,8|0,1:0|1:0,0:0:0:0:
267,221,26617,2,0,B|270:180|270:180|310:148,1,80.9999975280763,0|0,1:0|1:0,0:0:0:0:
454,201,26863,6,0,P|401:218|350:194,1,80.9999975280763,8|0,1:0|0:0,0:0:0:0:
379,303,27109,1,0,1:0:0:0:
379,303,27232,1,0,1:0:0:0:
379,303,27355,2,0,P|324:289|295:241,1,80.9999975280763,8|0,1:0|0:0,0:0:0:0:
259,346,27601,2,0,P|222:304|225:248,2,80.9999975280763,0|0|8,1:0|1:0|1:0,0:0:0:0:
97,384,27970,6,0,P|130:312|104:209,1,161.999995056153,4|0,1:0|1:0,1:0:0:0:
28,153,28338,2,0,P|8:113|35:61,1,80.9999975280763,8|0,1:0|1:0,1:0:0:0:
98,0,28584,1,0,1:0:0:0:
98,0,28707,1,0,1:0:0:0:
173,58,28830,2,0,B|177:99|177:99|179:101|179:101|183:150,1,80.9999975280763,8|0,1:0|1:0,0:0:0:0:
16,79,29076,5,0,1:0:0:0:
16,79,29199,1,0,1:0:0:0:
91,137,29322,2,0,B|95:178|95:178|97:180|97:180|101:229,1,80.9999975280763,8|0,1:0|0:0,0:0:0:0:
263,239,29568,2,0,B|267:198|267:198|269:196|269:196|273:147,2,80.9999975280763,0|0|8,1:0|1:0|1:0,0:0:0:0:
182,137,29937,6,0,L|179:306,1,161.999995056153,4|0,1:0|1:0,1:0:0:0:
126,361,30306,2,0,P|92:379|40:355,1,80.9999975280763,8|0,1:0|0:0,0:0:0:0:
224,364,30551,2,0,P|258:382|310:358,1,80.9999975280763,0|0,1:0|1:0,0:0:0:0:
179,298,30797,1,8,1:0:0:0:
179,298,30920,1,0,1:0:0:0:
100,216,31043,6,0,B|61:210|61:210|60:211|60:211|13:204,1,80.9999975280763,8|0,1:0|1:0,0:0:0:0:
254,220,31289,2,0,B|293:214|293:214|294:215|294:215|341:208,1,80.9999975280763,8|0,1:0|3:0,0:0:0:0:
179,298,31535,1,8,1:0:0:0:
183,172,31658,1,2,3:0:0:0:
481,65,31904,6,0,B|486:43|483:18|453:1|424:11|406:26|406:26|380:47|347:57|314:38,1,202.499993820191,4|0,1:0|2:0,1:0:0:0:
325,43,32273,6,0,B|297:36|285:15|285:15|250:19|229:42,1,107.999996704102,8|0,1:0|1:0,1:0:0:0:
106,144,32519,2,0,B|133:137|145:116|145:116|180:120|201:143,1,107.999996704102,8|0,1:0|3:0,0:0:0:0:
294,215,32765,1,0,1:0:0:0:
294,215,33011,6,0,P|282:164|299:104,1,107.999996704102,8|0,1:0|1:0,1:0:0:0:
267,298,33256,2,0,P|225:266|199:209,1,107.999996704102,8|0,1:0|1:0,1:0:0:0:
299,378,33502,1,8,1:0:0:0:
299,378,33625,2,0,P|246:376|225:366,1,53.9999983520508,0|0,3:0|0:0,0:0:0:0:
7,338,33871,6,0,B|43:369|90:362|124:331|122:283|122:283|147:271|171:288,1,202.499993820191,4|0,1:0|2:0,1:0:0:0:
159,281,34240,6,0,P|204:296|263:259,1,107.999996704102,8|0,1:0|1:0,1:0:0:0:
234,97,34486,2,0,P|189:82|130:119,1,107.999996704102,8|0,1:0|3:0,0:0:0:0:
195,188,34732,1,0,1:0:0:0:
195,188,34978,6,0,P|235:139|228:85,1,107.999996704102,8|0,1:0|0:0,1:0:0:0:
304,64,35224,2,0,P|312:82|361:104,3,53.9999983520508,0|0|0|0,3:0|3:0|3:0|3:0,0:0:0:0:
340,175,35470,1,8,1:0:0:0:
340,175,35592,2,0,P|322:177|279:210,1,53.9999983520508,8|0,0:0|0:0,0:0:0:0:
164,363,35838,6,0,B|193:294|282:300|282:300|283:328|313:351,1,202.499993820191,4|0,1:0|2:0,1:0:0:0:
310,348,36207,6,0,B|366:350|366:350|367:352|367:352|425:354,1,107.999996704102,8|0,1:0|1:0,1:0:0:0:
512,248,36453,2,0,B|456:250|456:250|455:252|455:252|397:254,1,107.999996704102,8|0,1:0|3:0,0:0:0:0:
291,195,36699,1,0,1:0:0:0:
291,195,36945,6,0,P|295:142|270:85,1,107.999996704102,8|0,1:0|1:0,1:0:0:0:
328,268,37191,2,0,P|365:231|382:171,1,107.999996704102,8|0,1:0|1:0,1:0:0:0:
310,348,37437,1,8,1:0:0:0:
310,348,37560,2,0,P|362:338|381:325,1,53.9999983520508,0|0,3:0|0:0,0:0:0:0:
96,333,37806,6,0,B|66:340|51:354|51:354|66:305|125:283|160:286|195:302,1,202.499993820191,4|0,1:0|2:0,1:0:0:0:
176,295,38174,6,0,B|208:269|208:269|212:188,1,107.999996704102,8|0,1:0|1:0,1:0:0:0:
98,160,38420,2,0,B|66:134|66:134|62:53,1,107.999996704102,8|0,1:0|3:0,0:0:0:0:
158,0,38666,1,0,1:0:0:0:
158,0,38912,6,0,P|192:52|180:105,1,107.999996704102,8|0,1:0|0:0,1:0:0:0:
253,134,39158,2,0,P|262:116|313:100,3,53.9999983520508,0|0|0|0,3:0|3:0|3:0|3:0,0:0:0:0:
300,28,39404,1,8,1:0:0:0:
300,28,39526,2,0,P|282:24|242:-13,1,53.9999983520508,8|0,0:0|0:0,0:0:0:0:
454,2,39773,6,0,B|441:46|441:46|498:120|498:120|485:179,1,180,4|0,1:0|3:0,1:0:0:0:
473,237,40080,1,0,0:0:0:0:
473,237,40142,2,0,L|422:224,3,45,8|0|0|0,3:1|0:0|3:0|0:0,0:0:0:0:
388,289,40388,2,0,L|340:253,2,60,8|0|0,0:0|0:0|0:0,0:0:0:0:
294,313,40633,2,0,L|257:263,2,60,8|0|0,0:0|0:0|0:0,0:0:0:0:
193,307,40879,6,0,L|176:259,1,46.7999997143555,8|0,0:0|0:0,0:0:0:0:
57,115,41740,6,0,B|101:78|150:102|150:102|173:133|209:126,1,161.999995056153,6|0,3:2|2:0,0:0:0:0:
241,57,42109,2,0,B|213:46|200:26|200:26|200:51|219:67,1,80.9999975280763,0|0,3:0|3:0,0:0:0:0:
308,117,42355,2,0,B|344:113|344:113|346:115|346:115|401:109,1,80.9999975280763,8|0,2:0|0:0,0:0:0:0:
450,13,42601,2,0,P|495:29|484:116,1,121.499996292114,2|0,2:0|2:0,0:0:0:0:
503,95,42847,6,0,B|487:126|487:126|497:177,1,80.9999975280763,2|0,2:0|0:0,0:0:0:0:
387,110,43092,1,2,2:0:0:0:
387,110,43215,2,0,B|370:140|370:140|380:191,1,80.9999975280763,2|8,2:0|2:0,2:0:0:0:
270,124,43461,1,2,2:0:0:0:
270,124,43584,1,2,2:0:0:0:
262,199,43707,6,0,P|216:162|195:241,1,161.999995056153,2|0,3:2|2:0,2:0:0:0:
293,272,44076,2,0,P|323:269|319:315,1,80.9999975280763,2|0,3:2|3:0,2:0:0:0:
243,350,44322,2,0,B|227:312|182:306|182:306|168:325|140:330,1,121.499996292114,8|0,2:0|2:0,0:0:0:0:
117,336,44568,1,0,0:0:0:0:
117,336,44691,6,0,P|78:347|23:330,1,80.9999975280763,0|0,3:0|0:0,0:0:0:0:
109,154,44937,2,0,P|70:143|15:160,1,80.9999975280763,0|0,3:0|0:0,0:0:0:0:
26,245,45183,1,0,3:0:0:0:
26,245,45306,2,0,B|97:238|97:238|101:241|101:241|205:231,1,161.999995056153,8|2,2:0|2:0,0:0:0:0:
289,194,45674,5,0,3:0:0:0:
289,194,45797,2,0,B|309:166|353:159|383:182|392:215|392:215|401:192|430:177,1,161.999995056153,2|0,2:0|3:0,0:0:0:0:
507,231,46166,1,0,3:0:0:0:
507,231,46289,2,0,B|473:234|463:239|463:239|455:256|459:290,1,80.9999975280763,8|0,2:0|0:0,0:0:0:0:
473,368,46535,2,0,P|428:345|354:373,1,121.499996292114,2|0,2:0|2:0,2:0:0:0:
362,364,46781,6,0,B|345:333|345:333|355:282,1,80.9999975280763,2|0,2:0|2:0,2:0:0:0:
245,349,47027,1,2,2:0:0:0:
245,349,47150,2,0,B|228:318|228:318|238:267,1,80.9999975280763,2|8,2:0|2:0,2:0:0:0:
128,335,47396,1,2,2:0:0:0:
128,335,47519,1,2,2:0:0:0:
106,253,47642,6,0,B|82:258|65:273|65:273|87:231|136:223|175:243,1,161.999995056153,2|0,3:2|2:0,2:0:0:0:
237,273,48011,2,0,P|284:276|315:250,1,80.9999975280763,2|0,3:2|3:0,2:0:0:0:
397,171,48256,1,8,2:0:0:0:
397,171,48379,2,0,L|390:69,1,80.9999975280763,8|8,2:0|2:0,0:0:0:0:
272,43,48625,6,0,L|259:226,2,161.999995056153,0|0|0,3:0|3:0|3:0,0:0:0:0:
272,43,49240,1,10,2:0:0:0:
189,39,49363,1,8,2:0:0:0:
102,34,49486,1,10,2:0:0:0:
21,73,49609,6,0,P|59:94|12:185,1,161.999995056153,6|0,3:2|2:0,0:0:0:0:
9,289,49978,2,0,P|41:260|85:270,1,80.9999975280763,0|0,3:0|3:0,0:0:0:0:
137,355,50224,2,0,B|175:357|175:357|176:359|176:359|222:361,1,80.9999975280763,8|0,2:0|0:0,0:0:0:0:
321,296,50470,2,0,B|367:295|385:343|375:362|375:362|350:377|337:364,1,121.499996292114,2|0,2:0|2:0,0:0:0:0:
354,369,50715,6,0,B|382:341|382:341|374:276,1,80.9999975280763,2|0,2:0|0:0,0:0:0:0:
458,257,50961,1,2,2:0:0:0:
458,257,51084,2,0,B|430:228|430:228|438:163,1,80.9999975280763,2|8,2:0|2:0,2:0:0:0:
355,145,51330,1,2,2:0:0:0:
355,145,51453,1,0,2:0:0:0:
321,73,51576,6,0,B|366:55|400:81|400:81|440:114|489:87,1,161.999995056153,2|0,3:2|2:0,2:0:0:0:
512,0,51945,2,0,B|467:-6|467:-6|441:36,1,80.9999975280763,2|0,3:2|3:0,2:0:0:0:
355,145,52191,2,0,B|339:182|294:188|294:188|280:166|251:158,1,121.499996292114,8|0,2:0|2:0,0:0:0:0:
236,159,52437,1,0,0:0:0:0:
236,159,52560,6,0,P|198:151|145:185,1,80.9999975280763,0|0,3:0|0:0,0:0:0:0:
32,155,52806,2,0,P|62:119|65:73,1,80.9999975280763,0|0,3:0|0:0,0:0:0:0:
174,5,53051,1,0,3:0:0:0:
174,5,53174,2,0,P|164:70|161:191,1,161.999995056153,8|2,2:0|2:0,0:0:0:0:
190,274,53543,1,0,3:0:0:0:
190,274,53666,6,0,B|216:228|277:232|277:232|295:268|336:276,1,161.999995056153,2|0,2:0|3:0,0:0:0:0:
374,206,54035,1,0,3:0:0:0:
374,206,54158,2,0,B|348:193|340:173|340:173|338:196|356:213,1,80.9999975280763,8|0,2:0|0:0,0:0:0:0:
445,272,54404,2,0,B|448:211|448:211|450:209|450:209|454:141,1,121.499996292114,2|0,2:0|2:0,2:0:0:0:
453,151,54650,6,0,B|438:122|438:122|372:109,1,80.9999975280763,2|0,2:0|2:0,2:0:0:0:
333,32,54896,1,2,2:0:0:0:
333,32,55019,2,0,B|317:61|317:61|251:74,1,80.9999975280763,2|8,2:0|2:0,2:0:0:0:
206,130,55265,1,2,2:0:0:0:
206,130,55388,1,2,2:0:0:0:
154,42,55511,6,0,P|119:6|43:67,1,161.999995056153,2|0,3:2|2:0,2:0:0:0:
92,170,55879,2,0,P|128:145|111:109,1,80.9999975280763,2|0,3:2|3:0,2:0:0:0:
38,265,56125,1,8,2:0:0:0:
120,269,56248,1,8,2:0:0:0:
203,274,56371,1,8,2:0:0:0:
286,280,56494,1,8,2:0:0:0:
361,244,56617,1,4,2:0:0:0:
361,244,56986,6,0,P|379:224|402:217,1,40.4999987640381,0|0,3:0|3:0,0:0:0:0:
351,241,57109,2,0,B|390:190|445:218|445:218|475:238|506:221,1,161.999995056153,10|2,2:0|2:0,0:0:0:0:
289,348,57478,6,0,B|250:297|195:325|195:325|165:345|134:328,1,161.999995056153,4|0,1:0|1:0,0:0:0:0:
11,277,57847,2,0,P|60:278|93:244,1,80.9999975280763,8|0,1:0|1:0,1:0:0:0:
206,186,58092,1,0,1:0:0:0:
206,186,58215,1,0,1:0:0:0:
256,107,58338,2,0,P|293:100|337:135,1,80.9999975280763,8|0,1:0|1:0,1:0:0:0:
161,266,58584,5,0,1:0:0:0:
161,266,58707,1,0,1:0:0:0:
107,189,58830,2,0,P|70:182|26:217,1,80.9999975280763,8|0,1:0|0:0,0:0:0:0:
62,372,59076,2,0,P|99:379|143:344,2,80.9999975280763,0|0|8,1:0|1:0|1:0,0:0:0:0:
2,291,59445,6,0,B|81:280|81:280|83:277|83:277|189:263,1,161.999995056153,4|0,1:0|1:0,1:0:0:0:
266,299,59814,2,0,B|310:301|310:301|356:271,1,80.9999975280763,8|0,1:0|1:0,0:0:0:0:
430,177,60060,2,0,B|386:179|386:179|355:158,1,80.9999975280763,0|0,1:0|1:0,0:0:0:0:
339,11,60306,6,0,P|295:46|287:101,1,80.9999975280763,8|0,1:0|1:0,1:0:0:0:
212,17,60552,1,0,1:0:0:0:
212,17,60675,1,0,1:0:0:0:
212,17,60798,2,0,P|194:70|217:120,1,80.9999975280763,8|0,1:0|0:0,0:0:0:0:
110,95,61044,2,0,P|125:148|173:176,2,80.9999975280763,0|0|8,1:0|1:0|1:0,0:0:0:0:
7,0,61412,6,0,B|35:39|35:39|7:181,1,161.999995056153,4|0,1:0|1:0,1:0:0:0:
35,272,61781,2,0,B|50:238|50:238|118:226,1,80.9999975280763,8|0,1:0|0:0,0:0:0:0:
217,216,62027,1,0,1:0:0:0:
217,216,62150,1,0,1:0:0:0:
163,292,62273,2,0,B|165:333|165:333|167:334|167:334|169:380,1,80.9999975280763,8|0,1:0|1:0,0:0:0:0:
303,384,62519,5,0,1:0:0:0:
303,384,62642,1,0,1:0:0:0:
357,308,62765,2,0,B|355:267|355:267|353:266|353:266|351:220,1,80.9999975280763,8|0,1:0|1:0,0:0:0:0:
460,145,63011,2,0,B|458:104|458:104|456:103|456:103|454:57,2,80.9999975280763,0|0|8,1:0|1:0|1:0,0:0:0:0:
512,296,63379,6,0,B|478:300|478:300|426:380|426:380|388:385,1,161.999995056153,4|0,1:0|1:0,1:0:0:0:
303,384,63748,2,0,P|272:354|266:303,1,80.9999975280763,8|0,1:0|1:0,0:0:0:0:
388,161,63994,2,0,P|377:202|336:233,1,80.9999975280763,8|0,1:0|1:0,0:0:0:0:
152,198,64240,2,0,P|193:186|240:206,1,80.9999975280763,8|0,1:0|1:0,0:0:0:0:
341,307,64486,6,0,P|369:309|398:295,3,40.4999987640381,0|0|0|0,3:0|3:0|3:0|3:0,0:0:0:0:
395,300,64732,2,0,L|389:389,1,80.9999975280763,8|0,1:0|1:0,1:0:0:0:
512,284,64978,1,8,1:0:0:0:
512,284,65101,2,0,B|510:241|510:241|509:240|509:240|506:194,1,80.9999975280763,2|0,3:0|0:0,0:0:0:0:
490,65,65347,6,0,B|452:28|397:47|397:47|382:78|351:84,1,161.999995056153,6|0,1:2|1:0,1:0:0:0:
238,4,65715,2,0,P|283:-10|314:11,1,80.9999975280763,8|0,1:0|1:0,1:0:0:0:
286,144,65961,1,0,1:0:0:0:
286,144,66084,1,0,1:0:0:0:
369,169,66207,2,0,P|395:196|366:280,1,121.499996292114,10|0,1:2|2:0,1:0:0:0:
378,271,66453,6,0,B|337:266|337:266|266:312|266:312|214:305,1,161.999995056153,0|10,1:0|1:2,0:0:0:0:
110,251,66822,2,0,B|85:233|29:243|11:286|11:286|6:248|21:227,1,161.999995056153,2|2,1:2|1:2,1:0:0:0:
52,133,67191,1,10,1:2:0:0:
52,133,67314,2,0,P|96:161|179:89,1,161.999995056153,2|0,1:2|1:0,1:0:0:0:
114,9,67683,6,0,B|111:53|111:53|112:53|112:53|108:97,1,80.9999975280763,10|0,1:2|0:0,0:0:0:0:
100,213,67929,1,0,1:0:0:0:
100,213,68051,1,0,1:0:0:0:
143,288,68174,2,0,P|183:310|237:295,1,80.9999975280763,8|0,1:0|0:0,0:0:0:0:
294,200,68420,5,0,1:0:0:0:
294,200,68542,1,0,1:0:0:0:
251,125,68666,2,0,P|211:103|157:118,1,80.9999975280763,8|0,1:0|0:0,0:0:0:0:
196,214,68912,1,0,1:0:0:0:
204,201,69035,1,0,1:0:0:0:
188,201,69158,1,10,1:2:0:0:
216,306,69281,6,0,B|252:286|291:311|291:311|326:345|369:331,1,161.999995056153,2|0,1:2|0:0,0:0:0:0:
506,296,69650,2,0,P|463:296|435:264,1,80.9999975280763,8|0,1:0|0:0,0:0:0:0:
413,154,69896,1,0,1:0:0:0:
413,154,70019,1,0,1:0:0:0:
495,226,70142,2,0,L|502:98,1,121.499996292114,10|0,1:2|2:0,1:0:0:0:
501,104,70388,6,0,B|475:69|475:69|344:77,1,161.999995056153,2|10,1:2|1:2,1:0:0:0:
238,50,70756,2,0,B|209:39|198:16|198:16|184:44|188:94|219:140,1,161.999995056153,2|2,1:2|1:2,1:0:0:0:
295,216,71125,1,10,1:2:0:0:
295,216,71248,2,0,B|329:185|263:163|187:207|203:271,1,161.999995056153,6|0,1:2|1:0,0:0:0:0:
195,352,71617,6,0,B|236:353|236:353|237:356|237:356|284:357,1,90,10|0,1:2|0:0,0:0:0:0:
113,249,71863,2,0,B|154:250|154:250|155:253|155:253|202:254,1,90,8|0,1:0|0:0,0:0:0:0:
31,146,72109,1,8,1:0:0:0:
207,120,72355,6,0,L|203:71,3,40.4999987640381,0|0|0|0,3:0|3:0|3:0|3:0,0:0:0:0:
204,63,72601,2,0,B|242:68|242:68|321:10|321:10|372:15,1,161.999995056153,8|10,1:0|1:2,0:0:0:0:
486,25,72970,1,0,3:0:0:0:
486,25,73215,6,0,B|487:-2|450:-4|409:28|405:95|445:131,1,161.999995056153,6|0,1:2|1:0,1:0:0:0:
501,235,73584,2,0,P|493:200|440:200,1,80.9999975280763,8|0,1:0|1:0,1:0:0:0:
342,235,73830,1,0,1:0:0:0:
342,235,73953,1,0,1:0:0:0:
279,169,74076,2,0,B|219:166|219:166|218:168|218:168|157:166,1,121.499996292114,10|0,1:2|2:0,1:0:0:0:
158,166,74322,6,0,P|111:139|52:219,1,161.999995056153,0|10,1:0|1:2,0:0:0:0:
33,335,74691,2,0,B|68:310|118:331|118:331|150:368|196:353,1,161.999995056153,2|2,1:2|1:2,1:0:0:0:
250,241,75060,1,10,1:2:0:0:
250,241,75183,2,0,B|285:283|265:336|265:336|282:300|329:291,1,161.999995056153,2|0,1:2|1:0,1:0:0:0:
414,373,75551,6,0,B|372:368|372:368|370:369|370:369|314:365,1,80.9999975280763,10|0,1:2|0:0,0:0:0:0:
182,356,75797,1,0,1:0:0:0:
182,356,75920,1,0,1:0:0:0:
118,295,76043,2,0,P|97:255|114:204,1,80.9999975280763,8|0,1:0|0:0,0:0:0:0:
231,161,76289,5,0,1:0:0:0:
231,161,76412,1,0,1:0:0:0:
295,222,76535,2,0,P|315:261|298:312,1,80.9999975280763,8|0,1:0|0:0,0:0:0:0:
197,253,76781,1,0,1:0:0:0:
212,254,76904,1,0,1:0:0:0:
203,267,77027,1,10,1:2:0:0:
295,222,77150,6,0,P|352:217|470:211,1,161.999995056153,2|0,1:2|0:0,0:0:0:0:
471,340,77519,2,0,B|438:329|438:329|430:282,1,80.9999975280763,8|0,1:0|0:0,0:0:0:0:
508,149,77765,1,0,1:0:0:0:
508,149,77888,1,0,1:0:0:0:
462,76,78011,2,0,P|422:44|348:85,1,121.499996292114,10|0,1:2|2:0,1:0:0:0:
359,63,78256,6,0,B|326:104|326:104|210:86,1,161.999995056153,2|10,1:2|1:2,1:0:0:0:
93,42,78625,2,0,B|68:13|128:10|146:48|146:103|90:152,1,161.999995056153,2|2,1:2|1:2,1:0:0:0:
41,238,78994,1,10,1:2:0:0:
41,238,79117,2,0,B|76:236|76:236|146:294|146:294|184:293,1,161.999995056153,6|0,1:2|1:0,0:0:0:0:
317,352,79486,6,0,B|276:353|276:353|275:356|275:356|228:357,1,90,10|0,1:2|0:0,0:0:0:0:
399,249,79732,2,0,B|358:250|358:250|357:253|357:253|310:254,1,90,8|0,1:0|0:0,0:0:0:0:
481,146,79978,1,8,1:0:0:0:
481,146,80101,1,8,1:0:0:0:
353,115,80224,6,0,B|296:103|286:42|309:10|309:10|272:23|271:58,1,188.999994232178,6|0,1:2|0:0,1:0:0:0:
124,221,80715,2,0,B|181:209|191:148|169:116|169:116|205:129|206:163,1,188.999994232178,2|0,1:2|0:0,0:0:0:0:
327,277,81207,6,0,P|310:258|304:240,3,36,4|0|0|0,2:0|0:0|0:0|0:0,0:0:0:0:
296,243,81453,6,0,L|291:329,1,72,2|0,2:0|0:0,0:0:0:0:
406,214,81699,2,0,L|401:300,1,72,10|0,3:2|0:0,1:0:0:0:
512,187,81945,1,2,3:2:0:0:
512,187,82068,1,0,3:0:0:0:
464,106,82191,6,0,B|441:90|409:105|409:105|379:120|343:100,1,108,0|0,3:0|2:0,0:0:0:0:
351,101,82437,2,0,P|343:85|375:29,1,72,2|0,2:0|0:0,0:0:0:0:
236,0,82683,2,0,P|244:16|212:72,1,72,10|0,3:2|0:0,1:0:0:0:
271,146,82929,1,2,3:2:0:0:
271,146,83051,1,0,3:0:0:0:
180,138,83174,6,0,L|186:255,1,108,0|0,3:0|2:0,0:0:0:0:
187,260,83420,2,0,P|148:255|113:274,1,72,2|0,3:2|0:0,0:0:0:0:
6,195,83666,2,0,P|21:231|55:252,1,72,10|0,3:2|0:0,0:0:0:0:
40,384,83912,2,0,P|63:352|64:312,1,72,2|0,1:2|0:0,0:0:0:0:
12,183,84158,5,10,1:2:0:0:
110,187,84281,1,8,0:1:0:0:
110,187,84404,2,0,L|124:145,3,36,0|0|0|0,3:0|3:0|3:0|3:0,0:0:0:0:
185,245,84650,1,8,1:0:0:0:
105,200,84773,1,4,0:0:0:0:
338,106,85142,6,0,P|355:87|361:69,3,36,4|0|0|0,2:0|0:0|0:0|0:0,0:0:0:0:
369,73,85388,6,0,L|374:159,1,72,2|0,2:0|0:0,0:0:0:0:
259,43,85633,2,0,L|264:129,1,72,10|0,3:2|0:0,1:0:0:0:
153,16,85879,1,2,3:2:0:0:
153,16,86002,1,0,3:0:0:0:
70,65,86125,6,0,P|36:98|68:148,1,108,0|0,3:0|2:0,0:0:0:0:
77,148,86371,2,0,B|116:143|116:143|152:167,1,72,2|0,2:0|0:0,0:0:0:0:
114,305,86617,2,0,B|75:310|75:310|39:286,1,72,10|0,3:2|0:0,1:0:0:0:
99,227,86863,1,0,0:0:0:0:
99,227,86986,1,0,3:0:0:0:
185,253,87109,6,0,B|240:250|240:250|241:252|241:252|310:248,1,108,0|0,3:0|2:0,0:0:0:0:
305,249,87355,2,0,P|328:207|317:173,1,72,2|0,3:2|0:0,0:0:0:0:
390,319,87601,2,0,P|342:320|318:346,1,72,10|0,3:2|3:0,1:0:0:0:
408,210,87847,2,0,P|432:250|467:258,1,72,2|0,3:2|3:0,1:0:0:0:
496,127,88092,6,0,L|504:34,1,72,10|0,3:2|0:0,0:0:0:0:
323,185,88338,2,0,L|317:118,3,36,0|0|0|0,3:0|3:0|3:0|0:0,0:0:0:0:
309,67,88584,1,10,1:2:0:0:
182,186,88830,1,8,1:0:0:0:
182,186,88953,1,8,1:0:0:0:
103,246,89076,6,0,L|96:295,3,36,4|0|0|0,2:0|0:0|0:0|0:0,0:0:0:0:
85,289,89322,6,0,L|98:205,1,72,2|0,2:0|0:0,0:0:0:0:
170,114,89568,2,0,L|183:198,1,72,10|0,3:2|0:0,1:0:0:0:
258,299,89814,2,0,L|271:215,1,72,2|0,3:2|3:0,0:0:0:0:
291,104,90060,6,0,P|329:115|379:53,1,108,0|0,3:0|2:0,0:0:0:0:
388,64,90306,2,0,P|388:108|413:136,1,72,2|0,2:0|0:0,0:0:0:0:
343,193,90551,2,0,P|371:226|408:232,1,72,10|0,3:2|0:0,1:0:0:0:
391,320,90797,2,0,P|434:327|466:307,1,72,2|0,3:2|3:0,0:0:0:0:
505,233,91043,6,0,L|383:232,1,108,0|0,3:0|2:0,0:0:0:0:
383,233,91289,2,0,P|339:246|314:280,1,72,2|0,3:2|0:0,0:0:0:0:
267,93,91535,2,0,P|300:124|342:129,1,72,10|0,3:2|0:0,0:0:0:0:
203,263,91781,2,0,P|213:218|196:179,1,72,2|0,1:2|0:0,0:0:0:0:
148,71,92027,5,10,1:2:0:0:
83,156,92150,1,8,0:0:0:0:
83,156,92273,2,0,L|87:196,3,36,0|0|0|0,3:0|3:0|3:0|3:0,0:0:0:0:
0,86,92519,1,10,1:2:0:0:
80,140,92642,1,4,0:0:0:0:
272,285,93011,6,0,B|316:264|351:293|351:293|387:322|431:301,2,161.999995056153,6|8|0,1:2|1:0|1:0,1:0:0:0:
117,298,93625,1,0,1:0:0:0:
117,298,93748,2,0,P|102:253|124:211,1,80.9999975280763,8|0,1:0|1:0,1:0:0:0:
268,209,93994,2,0,P|282:253|260:295,2,80.9999975280763,0|0|8,1:0|1:0|1:0,0:0:0:0:
183,168,94363,6,0,L|199:335,1,161.999995056153,0|0,1:0|1:0,0:0:0:0:
105,384,94732,1,10,1:2:0:0:
105,384,94855,1,2,1:2:0:0:
0,283,94978,6,0,P|68:293|111:208,1,161.999995056153,14|0,1:2|1:0,1:0:0:0:
104,6,95347,2,0,P|61:59|113:139,1,161.999995056153,14|0,1:2|1:0,1:0:0:0:
275,209,95715,2,0,P|262:173|175:177,1,121.499996292114,10|0,1:2|2:0,0:0:0:0:
188,165,95961,6,0,L|190:216,3,40.4999987640381,8|8|8|8,3:0|3:0|3:0|3:0,0:0:0:0:
195,293,96207,2,0,B|273:285|273:285|273:287|273:287|369:277,1,161.999995056153,10|10,1:2|1:2,0:0:0:0:
465,270,96576,1,10,3:2:0:0:
465,270,96699,1,8,1:0:0:0:
496,140,96822,6,0,B|448:119|438:65|459:29|459:29|427:39|412:74,1,198.000006042481,6|0,1:0|1:0,1:0:0:0:
344,183,97191,2,0,B|292:186|266:130|266:130|223:72|165:92,1,198.000006042481,8|0,1:0|1:0,1:0:0:0:
63,167,97560,1,0,1:0:0:0:
63,167,97683,2,0,P|116:163|101:219,1,99.0000030212403,10|0,1:0|1:0,0:0:0:0:
54,290,97929,5,2,1:0:0:0:
54,290,98051,1,0,0:0:0:0:
141,350,98174,2,0,B|189:346|189:346|191:347|191:347|250:342,1,99.0000030212403,8|0,1:0|0:0,0:0:0:0:
127,203,98420,1,2,1:0:0:0:
127,203,98542,1,0,1:0:0:0:
217,259,98666,2,0,B|265:255|265:255|267:256|267:256|326:251,1,99.0000030212403,8|0,1:0|1:0,0:0:0:0:
411,150,98912,6,0,B|432:167|409:192|352:157|344:110|369:72|386:65,1,148.50000453186,0|0,0:0|2:0,0:0:0:0:
377,71,99158,2,0,B|419:66|419:66|431:56|431:56|479:50,2,99.0000030212403,10|0|0,1:0|0:0|1:0,0:0:0:0:
268,98,99527,1,0,1:0:0:0:
268,98,99650,2,0,P|254:64|302:72,1,99.0000030212403,10|2,1:0|1:0,0:0:0:0:
250,194,99896,6,0,P|224:237|214:306,1,99.0000030212403,2|0,1:0|1:0,1:0:0:0:
89,134,100142,2,0,P|128:81|141:43,1,99.0000030212403,10|0,1:0|1:0,0:0:0:0:
45,239,100388,1,2,1:0:0:0:
45,239,100511,2,0,B|95:228|95:228|140:271,1,99.0000030212403,2|10,1:0|1:0,0:0:0:0:
273,354,100756,6,0,B|311:340|317:303|304:270|279:256|279:256|258:245|240:221|250:190,1,198.000006042481,6|0,3:1|1:0,1:0:0:0:
275,59,101125,2,0,B|287:39|303:73|265:108|210:75|210:75|206:31|140:40|114:64,1,198.000006042481,8|0,1:0|1:0,1:0:0:0:
39,143,101494,1,0,1:0:0:0:
39,143,101617,2,0,P|80:126|90:172,1,99.0000030212403,10|0,1:0|1:0,0:0:0:0:
22,291,101863,5,2,1:0:0:0:
22,291,101986,1,0,0:0:0:0:
120,247,102109,2,0,B|124:297|124:297|125:298|125:298|129:351,1,99.0000030212403,8|0,1:0|0:0,0:0:0:0:
230,334,102355,1,2,1:0:0:0:
230,334,102478,1,2,1:0:0:0:
329,374,102601,2,0,B|333:324|333:324|334:323|334:323|338:270,1,99.0000030212403,10|2,1:0|1:0,0:0:0:0:
414,142,102847,6,0,B|434:114|395:99|369:120|380:170|403:203|416:220|439:222,1,148.50000453186,0|0,0:0|2:0,0:0:0:0:
422,216,103092,2,0,B|463:220|463:220|474:236|474:236|529:243,2,99.0000030212403,10|0|0,1:0|1:0|1:0,0:0:0:0:
342,279,103461,1,0,1:0:0:0:
342,279,103584,2,0,B|286:267|259:328|259:328|230:386|154:376,1,198.000006042481,8|0,1:0|1:0,0:0:0:0:
57,290,103953,1,0,1:0:0:0:
57,290,104076,2,0,P|120:295|127:170,1,198.000006042481,8|2,1:0|1:2,0:0:0:0:
22,91,104445,1,2,1:2:0:0:
22,91,104568,2,0,B|59:94|59:94|120:40|120:40|172:43,1,148.50000453186,10|0,1:2|2:0,0:0:0:0:
149,41,104814,6,0,B|189:44|209:13|209:13|183:46|178:105|213:128,1,198.000006042481,6|8,1:0|1:0,1:0:0:0:
310,206,105183,2,0,B|365:213|390:157|390:157|411:100|480:104,1,198.000006042481,0|0,0:0|1:0,0:0:0:0:
473,217,105551,1,10,1:0:0:0:
473,217,105674,2,0,B|421:220|400:163|400:163|375:107|320:114,1,198.000006042481,2|0,1:0|1:0,1:0:0:0:
213,128,106043,6,0,P|175:168|181:226,1,99.0000030212403,10|0,1:0|1:0,1:0:0:0:
83,292,106289,2,0,P|67:239|14:215,1,99.0000030212403,2|0,1:0|1:0,1:0:0:0:
6,98,106535,2,0,P|59:110|106:76,1,99.0000030212403,10|0,1:0|1:0,1:0:0:0:
226,34,106781,6,0,B|274:13|333:55|323:114|323:114|336:83|377:64,1,198.000006042481,2|8,1:0|1:0,1:0:0:0:
451,157,107150,2,0,B|458:119|433:98|377:122|365:178|376:238|412:265,1,198.000006042481,0|2,1:0|3:1,0:0:0:0:
496,351,107519,2,0,P|506:323|451:337,1,99.0000030212403,8|2,3:1|1:0,0:0:0:0:
339,375,107765,5,0,0:0:0:0:
339,375,107888,1,0,3:0:0:0:
278,280,108011,2,0,B|283:229|283:229|285:227|285:227|291:162,1,99.0000030212403,8|0,3:1|3:0,0:0:0:0:
399,117,108256,1,0,3:0:0:0:
399,117,108379,1,2,3:1:0:0:
460,212,108502,2,0,B|455:263|455:263|453:265|453:265|447:330,1,99.0000030212403,10|2,3:1|3:1,0:0:0:0:
345,378,108748,6,0,B|294:377|267:322|267:322|248:256|173:267,1,198.000006042481,4|10,1:0|1:0,1:0:0:0:
174,368,109117,2,0,P|233:368|196:276,1,198.000006042481,2|2,1:0|1:0,1:0:0:0:
87,255,109486,2,0,P|65:269|75:218,1,99.0000030212403,10|2,1:0|1:0,0:0:0:0:
122,111,109732,6,0,P|197:105|329:93,1,198.000006042481,0|8,0:0|1:0,0:0:0:0:
459,38,110101,2,0,B|501:0|402:28|409:63|431:86|431:86|468:103|437:157,1,198.000006042481,2|0,1:0|1:0,1:0:0:0:
330,244,110470,2,0,P|326:205|376:217,1,99.0000030212403,10|0,1:0|0:0,0:0:0:0:
479,301,110715,6,0,B|432:292|392:337|392:337|352:394|288:376,1,198.000006042481,2|14,1:0|1:0,1:0:0:0:
177,377,111084,1,2,1:0:0:0:
177,377,111207,2,0,L|167:261,1,99.0000030212403,12|0,1:0|1:0,0:0:0:0:
330,244,111453,2,0,L|321:145,1,99.0000030212403,12|0,1:0|1:0,0:0:0:0:
162,132,111699,2,0,L|152:16,1,99.0000030212403,12|8,1:0|1:0,0:0:0:0:
310,151,111945,6,0,L|302:82,2,66.0000020141602,2|0|0,3:1|0:0|0:0,0:0:0:0:
300,65,112191,1,10,1:1:0:0:
462,88,112314,1,6,3:1:0:0:
462,88,112560,6,0,B|492:86|512:99|512:99|503:56|423:33|383:57,1,198.000006042481,6|0,1:0|1:0,1:0:0:0:
310,151,112929,2,0,B|259:163|212:115|218:64|218:64|197:93|202:134,1,198.000006042481,8|0,1:0|1:0,1:0:0:0:
121,226,113297,1,0,1:0:0:0:
121,226,113420,2,0,P|73:213|106:181,1,99.0000030212403,10|0,1:0|1:0,0:0:0:0:
246,253,113666,5,2,1:0:0:0:
246,253,113789,1,0,0:0:0:0:
186,345,113912,2,0,B|138:349|138:349|136:352|136:352|72:358,1,99.0000030212403,8|0,1:0|0:0,0:0:0:0:
29,274,114158,1,2,1:0:0:0:
29,274,114281,1,0,1:0:0:0:
89,182,114404,2,0,B|137:178|137:178|139:175|139:175|203:169,1,99.0000030212403,8|0,1:0|1:0,0:0:0:0:
314,183,114650,6,0,P|354:142|324:58,1,148.50000453186,0|0,0:0|2:0,0:0:0:0:
329,62,114896,2,0,B|286:56|286:56|276:40|276:40|231:34,2,99.0000030212403,10|0|0,1:0|1:0|1:0,0:0:0:0:
482,90,115265,1,0,1:0:0:0:
482,90,115388,2,0,P|447:65|447:107,1,99.0000030212403,10|2,1:0|1:0,0:0:0:0:
496,238,115633,6,0,P|498:280|458:332,1,99.0000030212403,2|0,1:0|1:0,1:0:0:0:
286,271,115879,2,0,P|283:228|323:176,1,99.0000030212403,10|0,1:0|1:0,1:0:0:0:
364,355,116125,1,2,1:0:0:0:
364,355,116248,2,0,B|317:359|317:359|316:361|316:361|266:366,1,99.0000030212403,2|10,1:0|1:0,0:0:0:0:
112,372,116494,6,0,B|131:405|164:378|128:326|128:326|77:292|81:263|109:231,1,198.000006042481,6|0,3:1|1:0,1:0:0:0:
168,136,116863,2,0,B|222:144|256:89|256:89|293:38|353:52,1,198.000006042481,8|0,1:0|1:0,1:0:0:0:
461,79,117232,1,0,1:0:0:0:
461,79,117355,2,0,P|427:65|416:115,1,99.0000030212403,10|0,1:0|1:0,0:0:0:0:
490,245,117601,5,2,1:0:0:0:
490,245,117724,1,0,1:0:0:0:
392,201,117847,2,0,B|388:251|388:251|387:252|387:252|383:305,1,99.0000030212403,8|0,1:0|1:0,0:0:0:0:
278,261,118093,1,2,1:0:0:0:
278,261,118216,1,2,1:0:0:0:
179,301,118339,2,0,B|175:251|175:251|174:250|174:250|170:197,1,99.0000030212403,10|2,1:0|1:0,0:0:0:0:
64,111,118584,6,0,B|43:128|66:153|123:118|131:71|106:33|89:26,1,148.50000453186,0|0,0:0|2:0,0:0:0:0:
98,32,118830,2,0,B|56:27|56:27|44:17|44:17|-4:11,2,99.0000030212403,10|0|0,1:0|1:0|1:0,0:0:0:0:
232,44,119199,1,0,1:0:0:0:
232,44,119322,2,0,B|226:21|233:-1|233:-1|187:33|183:101|211:135,1,198.000006042481,8|0,1:0|1:0,0:0:0:0:
305,250,119691,1,0,1:0:0:0:
305,250,119814,2,0,P|238:215|183:313,1,198.000006042481,8|2,1:0|1:2,0:0:0:0:
288,378,120183,1,2,1:2:0:0:
288,378,120306,2,0,B|356:370|356:370|368:363|368:363|458:354,1,148.50000453186,10|0,1:2|2:0,0:0:0:0:
433,357,120551,6,0,B|464:378|479:354|482:342|482:342|458:295|414:280|414:280|409:250|430:221,1,198.000006042481,6|8,1:0|1:0,1:0:0:0:
487,97,120920,2,0,B|443:89|405:132|405:132|360:194|303:174,1,198.000006042481,0|0,0:0|1:0,0:0:0:0:
494,121,121289,1,10,1:0:0:0:
494,121,121412,2,0,B|450:129|412:86|412:86|367:24|310:44,1,198.000006042481,2|0,1:0|1:0,1:0:0:0:
255,129,121781,6,0,P|234:177|257:230,1,99.0000030212403,10|0,1:0|1:0,1:0:0:0:
246,343,122027,2,0,P|214:300|156:294,1,99.0000030212403,2|0,1:0|1:0,1:0:0:0:
65,229,122273,2,0,P|117:222|152:176,1,99.0000030212403,10|0,1:0|1:0,1:0:0:0:
61,46,122519,6,0,B|86:20|58:5|14:34|21:93|49:106|49:106|55:100|84:122|86:184,1,198.000006042481,2|8,1:0|1:0,1:0:0:0:
82,317,122888,1,0,0:0:0:0:
82,317,123011,2,0,B|135:320|135:320|201:266,1,99.0000030212403,2|2,1:0|3:1,0:0:0:0:
218,175,123256,2,0,P|264:185|231:219,1,99.0000030212403,8|2,3:1|1:0,0:0:0:0:
356,283,123502,5,0,3:0:0:0:
356,283,123625,1,0,3:0:0:0:
417,188,123748,2,0,B|412:137|412:137|410:135|410:135|404:70,1,99.0000030212403,8|0,3:1|3:0,0:0:0:0:
296,25,123994,1,0,3:0:0:0:
296,25,124117,1,2,3:1:0:0:
235,120,124240,2,0,B|240:171|240:171|242:173|242:173|248:238,1,99.0000030212403,10|2,3:1|3:1,0:0:0:0:
417,207,124486,6,0,B|366:208|339:263|339:263|320:329|245:318,1,198.000006042481,4|10,1:0|1:0,1:0:0:0:
246,217,124855,2,0,P|305:217|268:309,1,198.000006042481,2|2,1:0|1:0,1:0:0:0:
150,329,125224,2,0,P|128:315|138:366,1,99.0000030212403,10|2,1:0|1:0,0:0:0:0:
49,242,125470,6,0,P|136:229|264:215,1,198.000006042481,2|8,1:0|1:0,1:0:0:0:
392,245,125838,2,0,B|415:281|350:254|346:197|389:184|389:184|383:177|419:145|369:91,1,198.000006042481,2|0,1:0|1:0,1:0:0:0:
268,96,126207,2,0,P|274:144|298:113,1,99.0000030212403,8|0,1:0|0:0,0:0:0:0:
276,11,126453,6,0,B|243:6|243:6|176:54|176:54|125:50,1,148.50000453186,2|0,1:0|2:0,0:0:0:0:
143,51,126699,2,0,B|114:34|111:5|111:5|52:26|31:86|55:132,1,198.000006042481,8|0,1:0|1:0,0:0:0:0:
100,227,127068,1,0,1:0:0:0:
100,227,127191,2,0,B|144:223|144:223|145:227|145:227|206:222,1,99.0000030212403,8|0,1:0|0:0,0:0:0:0:
321,58,127437,6,0,P|243:46|194:143,1,198.000006042481,14|0,1:0|1:0,1:0:0:0:
204,374,127806,2,0,P|252:313|193:222,1,198.000006042481,14|0,1:0|3:0,1:0:0:0:
9,143,128174,2,0,P|23:183|122:179,1,148.50000453186,8|0,1:0|2:0,0:0:0:0:
116,186,128420,6,0,B|112:146|112:146|114:144|114:144|110:97,2,80.9999975280763,0|0|0,3:0|3:0|0:0,0:0:0:0:
116,186,129158,2,0,B|112:146|112:146|114:144|114:144|110:97,2,80.9999975280763,0|0|0,3:0|3:0|0:0,0:0:0:0:
398,320,130019,5,8,1:0:0:0:
398,320,130388,2,0,B|402:279|402:279|400:277|400:277|404:230,2,80.9999975280763,0|0|0,3:0|3:0|0:0,0:0:0:0:
398,320,131125,2,0,B|402:279|402:279|400:277|400:277|404:230,2,80.9999975280763,0|0|0,3:0|3:0|0:0,0:0:0:0:
154,60,131986,5,8,1:0:0:0:
154,60,132355,2,0,B|133:42|110:41|110:41|111:47|84:44|64:45,2,80.9999975280763,0|0|0,3:0|3:0|0:0,0:0:0:0:
154,60,133092,2,0,B|133:42|110:41|110:41|111:47|84:44|64:45,2,80.9999975280763,0|0|0,3:0|3:0|0:0,0:0:0:0:
351,157,133953,5,8,1:0:0:0:
351,157,134322,2,0,B|372:139|395:138|395:138|394:144|421:141|441:142,1,80.9999975280763,8|0,1:0|0:0,0:0:0:0:
507,132,134568,1,0,0:0:0:0:
352,148,134691,2,0,B|373:130|396:129|396:129|395:135|422:132|442:133,1,80.9999975280763,8|0,1:0|0:0,0:0:0:0:
512,124,134937,2,0,L|506:183,1,40.4999987640381,0|0,3:0|3:0,0:0:0:0:
481,264,135060,6,0,B|501:263|493:244|462:240|431:256|421:274|421:274|432:282|414:304|389:312|352:312,1,161.999995056153,8|8,1:0|1:0,0:0:0:0:
281,260,135429,2,0,B|232:253|230:199|230:199|199:141|144:161,1,161.999995056153,8|0,0:0|3:0,0:0:0:0:
105,271,135797,2,0,P|146:264|122:213,1,80.9999975280763,0|0,3:0|3:0,0:0:0:0:
91,128,136043,1,8,1:0:0:0:
91,128,136166,1,8,1:0:0:0:
160,22,136289,6,0,B|187:2|211:17|214:19|225:34|225:34|237:66|265:89|302:90,1,161.999995056153,4|0,1:0|1:0,1:0:0:0:
357,11,136658,2,0,B|312:-9|275:-5|289:15|335:34|372:24|394:44|399:89,1,161.999995056153,8|0,1:0|1:0,1:0:0:0:
355,147,137027,2,0,P|346:177|370:153,1,80.9999975280763,8|0,1:0|0:0,1:0:0:0:
470,99,137273,5,0,1:0:0:0:
470,99,137396,2,0,B|470:70|434:85|448:144|475:154|475:154|477:146|477:146|499:160|508:199,1,161.999995056153,8|0,1:0|1:0,0:0:0:0:
489,290,137765,1,0,3:0:0:0:
489,290,137888,1,0,3:0:0:0:
403,241,138011,2,0,B|352:237|352:237|352:244|352:244|273:239,1,121.499996292114,8|0,1:0|2:0,0:0:0:0:
288,239,138256,6,0,B|246:261|251:273|199:277|195:243|246:217|273:192|242:168,1,161.999995056153,0|8,3:0|1:0,1:0:0:0:
179,103,138625,2,0,B|156:89|113:100|92:130|92:130|117:97|101:50,1,161.999995056153,0|0,3:0|3:0,1:0:0:0:
13,52,138994,2,0,P|8:89|31:69,1,80.9999975280763,8|0,1:0|0:0,1:0:0:0:
141,0,139240,6,0,B|161:36|205:18|205:18|235:1|262:5|294:43,1,161.999995056153,0|0,3:0|1:0,0:0:0:0:
339,119,139609,2,0,P|301:105|270:138,2,80.9999975280763,8|0|0,1:0|0:0|1:0,0:0:0:0:
391,197,139978,1,8,1:0:0:0:
391,197,140101,1,8,1:0:0:0:
456,84,140224,6,0,B|446:106|445:131|445:131|459:135|475:156|475:156|472:185|469:250,1,161.999995056153,4|8,1:0|1:0,1:0:0:0:
479,339,140592,2,0,B|509:339|482:307|445:333|432:352|432:352|428:346|428:346|392:373|351:358,1,161.999995056153,0|0,3:0|3:0,3:0:0:0:
347,255,140961,2,0,P|385:253|354:280,1,80.9999975280763,8|0,1:0|0:0,1:0:0:0:
281,331,141207,5,0,1:0:0:0:
281,331,141330,1,0,1:0:0:0:
171,259,141453,1,8,1:0:0:0:
171,259,141576,2,0,P|239:252|345:242,1,161.999995056153,0|0,1:0|3:0,0:0:0:0:
459,229,141945,6,0,B|440:241|432:217|450:197|491:203|486:172|486:172|486:151|456:127,1,121.499996292114,8|0,1:0|2:0,0:0:0:0:
474,145,142191,2,0,B|449:145|431:123|431:123|405:96|382:103,1,90,0|0,1:0|1:0,1:0:0:0:
246,165,142437,2,0,B|267:178|277:151|256:128|209:134|214:99|214:99|214:74|249:47,1,148.50000453186,0|0,1:0|2:0,0:0:0:0:
232,61,142683,2,0,B|262:61|283:34|283:34|316:1|343:9,1,107.999996704102,8|8,1:0|1:0,0:0:0:0:
460,0,142929,1,0,1:0:0:0:
467,85,143051,1,0,1:0:0:0:
476,169,143174,5,8,1:0:0:0:
476,169,143297,1,8,1:0:0:0:
265,202,143666,1,8,1:0:0:0:
265,202,143789,1,8,1:0:0:0:
41,214,144035,6,0,B|85:245|129:225|160:191|152:144|152:144|170:176|213:173,1,215.999993408203,6|2,1:0|1:0,1:0:0:0:
268,163,144404,2,0,B|277:121|252:96|252:96|223:97|215:111,1,107.999996704102,10|2,1:0|1:0,1:0:0:0:
118,264,144650,2,0,B|149:293|183:283|183:283|196:257|189:243,1,107.999996704102,2|2,1:0|1:0,0:0:0:0:
105,84,144896,2,0,B|63:96|55:131|55:131|70:155|86:155,1,107.999996704102,10|2,1:0|1:0,0:0:0:0:
268,163,145142,6,0,B|319:166|319:166|321:169|321:169|388:173,1,107.999996704102,2|2,1:0|1:0,0:0:0:0:
105,84,145388,2,0,B|54:87|54:87|52:90|52:90|-15:94,1,107.999996704102,10|2,1:0|1:0,0:0:0:0:
183,14,145633,1,2,1:0:0:0:
183,14,145756,1,2,1:0:0:0:
218,106,145879,1,10,1:0:0:0:
397,5,146002,6,0,B|442:11|454:53|441:94|409:111|409:111|388:122|367:150|375:179,1,215.999993408203,6|0,1:0|1:0,1:0:0:0:
444,283,146371,2,0,P|465:215|447:171,1,107.999996704102,8|0,1:0|0:0,0:0:0:0:
291,141,146617,2,0,P|264:187|270:240,2,107.999996704102,0|0|10,1:0|1:0|1:0,0:0:0:0:
327,382,146986,6,0,B|350:272|350:272|352:270|352:270|379:144,1,215.999993408203,2|0,1:0|1:0,1:0:0:0:
407,60,147355,1,8,1:0:0:0:
407,60,147478,1,2,1:0:0:0:
291,141,147601,2,0,B|256:154|197:130|204:50|204:50|219:74|185:115,1,215.999993408203,2|10,1:0|1:0,0:0:0:0:
47,175,147970,6,0,B|20:187|-9:154|-5:94|104:95|134:144|141:205,1,215.999993408203,6|0,1:0|1:0,1:0:0:0:
182,333,148338,2,0,P|232:369|291:348,1,107.999996704102,8|0,1:0|1:0,0:0:0:0:
345,255,148584,1,0,1:0:0:0:
345,255,148707,1,0,1:0:0:0:
244,296,148830,2,0,B|245:260|221:234|221:234|223:201|241:184,1,107.999996704102,8|0,1:0|1:0,0:0:0:0:
330,135,149076,5,0,1:0:0:0:
330,135,149199,1,0,1:0:0:0:
437,173,149322,2,0,B|436:137|460:111|460:111|458:78|440:61,1,107.999996704102,8|0,1:0|1:0,0:0:0:0:
316,17,149568,1,0,0:0:0:0:
316,17,149691,1,2,1:0:0:0:
229,87,149814,1,10,1:0:0:0:
330,135,149937,6,0,B|368:163|429:158|460:110|460:110|435:139|438:179,1,215.999993408203,6|0,1:0|1:0,1:0:0:0:
473,375,150306,2,0,B|483:316|483:316|484:316|484:316|495:255,1,107.999996704102,10|0,1:0|1:0,0:0:0:0:
345,383,150551,2,0,B|355:324|355:324|356:324|356:324|367:263,1,107.999996704102,2|0,1:0|1:0,1:0:0:0:
221,384,150797,2,0,B|227:343|227:343|228:343|228:343|236:301,1,67.5,10|0,1:0|2:0,0:0:0:0:
233,318,151043,6,0,B|273:310|284:291|284:291|289:262|277:241,1,107.999996704102,2|0,1:0|1:0,0:0:0:0:
99,151,151289,2,0,B|86:189|97:208|97:208|119:227|143:227,1,107.999996704102,10|0,1:0|1:0,0:0:0:0:
328,110,151535,2,0,B|300:79|279:79|279:79|251:89|239:110,1,107.999996704102,2|0,1:0|1:0,0:0:0:0:
217,191,151781,1,10,1:0:0:0:
217,191,151904,1,10,1:0:0:0:
148,64,152027,6,0,B|142:39|157:14|157:14|95:42|81:105|100:154,1,215.999993408203,6|8,1:0|1:0,1:0:0:0:
144,231,152396,1,0,0:0:0:0:
144,231,152519,2,0,B|165:280|165:280|141:340,1,107.999996704102,0|0,1:0|1:0,0:0:0:0:
10,384,152765,2,0,B|-11:335|-11:335|13:275,1,107.999996704102,10|0,1:0|1:0,1:0:0:0:
98,150,153011,6,0,B|129:128|175:136|175:136|202:152|216:192|216:192|225:167|252:150|278:153,1,215.999993408203,2|8,1:0|3:1,1:0:0:0:
372,220,153379,1,2,3:1:0:0:
372,220,153502,1,0,1:0:0:0:
288,328,153625,2,0,B|285:274|285:274|287:271|287:271|284:206,1,107.999996704102,2|10,1:0|1:0,0:0:0:0:
453,89,153871,6,0,B|446:185|446:185|450:192|450:192|444:333,1,215.999993408203,6|0,1:0|1:0,1:0:0:0:
356,369,154240,2,0,B|322:374|293:353|287:327|287:327|236:308|205:363,1,161.999995056153,8|0,1:0|2:0,0:0:0:0:
219,342,154486,2,0,P|163:370|109:348,1,107.999996704102,0|0,1:0|1:0,0:0:0:0:
92,177,154732,2,0,P|148:149|202:171,1,107.999996704102,10|0,1:0|1:0,1:0:0:0:
46,278,154978,6,0,B|151:262|151:262|153:264|153:264|273:244,1,215.999993408203,2|8,1:0|1:0,0:0:0:0:
293,140,155347,2,0,B|318:103|318:103|297:17,1,107.999996704102,0|0,3:0|0:0,0:0:0:0:
442,209,155592,2,0,B|417:172|417:172|438:86,2,107.999996704102,0|8|6,3:0|3:1|1:0,0:0:0:0:
509,279,155961,5,2,1:0:0:0:
455,358,156084,1,2,1:0:0:0:
384,291,156207,1,10,1:0:0:0:
442,209,156330,1,2,1:0:0:0:
378,306,156453,6,0,P|348:328|272:296,1,107.999996704102,2|2,1:0|1:0,0:0:0:0:
293,140,156699,2,0,P|323:118|399:150,1,107.999996704102,10|2,1:0|1:0,0:0:0:0:
214,218,156945,5,2,1:0:0:0:
132,227,157068,1,2,1:0:0:0:
80,162,157191,1,10,1:0:0:0:
86,80,157314,1,2,1:0:0:0:
64,168,157437,6,0,B|62:215|62:215|61:216|61:216|59:277,1,107.999996704102,2|2,1:0|1:0,0:0:0:0:
218,330,157683,1,10,1:0:0:0:
218,330,157806,6,0,B|214:221|214:221|212:219|212:219|208:91,1,215.999993408203,6|0,1:0|1:0,1:0:0:0:
129,23,158174,2,0,B|110:23|89:11|89:11|116:50|169:32|169:32|211:12|250:33,1,215.999993408203,10|0,1:0|1:0,1:0:0:0:
400,103,158543,1,2,1:0:0:0:
400,103,158666,2,0,P|343:91|296:111,1,107.999996704102,8|2,1:0|1:0,0:0:0:0:
165,218,158912,6,0,B|130:252|55:241|34:174|34:174|66:190|69:233,1,215.999993408203,2|8,1:0|1:0,1:0:0:0:
36,331,159281,2,0,L|26:395,1,53.9999983520508,2|0,1:1|0:0,0:0:0:0:
226,276,159527,2,0,L|216:340,1,53.9999983520508,2|0,1:1|0:0,0:0:0:0:
415,221,159773,2,0,L|405:285,1,58.4999973220826,6|0,1:0|0:0,0:0:0:0:
273,171,160019,5,0,1:0:0:0:
273,171,160142,2,0,P|258:123|287:55,1,116.999994644165,10|0,1:2|1:0,0:0:0:0:
415,221,160388,2,0,P|436:167|421:112,1,116.999994644165,10|0,1:2|1:0,0:0:0:0:
334,269,160633,6,0,B|338:326|338:326|340:327|340:327|344:388,1,116.999994644165,10|0,1:2|1:0,0:0:0:0:
207,213,160879,2,0,B|211:270|211:270|213:271|213:271|217:332,1,116.999994644165,10|0,1:2|1:0,0:0:0:0:
75,155,161125,5,10,1:2:0:0:
17,214,161248,1,0,1:0:0:0:
78,269,161371,1,10,1:2:0:0:
133,210,161494,1,2,1:2:0:0:
77,142,161617,1,10,1:2:0:0:
77,142,161740,2,0,B|111:173|166:167|209:140|209:83|209:83|212:109|241:132,1,233.999989288331,6|0,3:2|1:0,0:0:0:0:
325,229,162109,6,0,P|385:234|441:178,1,116.999994644165,10|0,1:2|1:0,0:0:0:0:
389,44,162355,2,0,P|329:39|273:95,1,116.999994644165,10|0,1:2|1:0,0:0:0:0:
243,220,162601,6,0,B|245:275|245:275|247:277|247:277|249:338,1,116.999994644165,10|0,1:2|1:0,0:0:0:0:
76,141,162847,2,0,B|75:201|75:201|73:203|73:203|71:258,1,116.999994644165,10|0,1:2|1:0,0:0:0:0:
184,40,163092,6,0,B|214:20|250:41|250:41|266:76|311:72,1,116.999994644165,10|0,1:2|1:0,0:0:0:0:
497,200,163338,2,0,B|467:180|431:201|431:201|415:236|370:232,1,116.999994644165,10|2,1:2|1:2,0:0:0:0:
249,337,163584,1,10,1:2:0:0:
249,337,163707,2,0,B|270:309|307:309|307:309|267:280|184:280|147:321,1,233.999989288331,6|0,3:2|1:0,0:0:0:0:
11,384,164076,6,0,P|38:343|17:268,1,116.999994644165,10|0,1:2|1:0,0:0:0:0:
196,111,164322,2,0,P|169:152|190:227,1,116.999994644165,10|0,1:2|1:0,0:0:0:0:
305,383,164568,6,0,B|310:321|310:321|313:318|313:318|318:254,1,116.999994644165,10|0,1:2|1:0,0:0:0:0:
484,268,164814,2,0,B|489:206|489:206|492:203|492:203|497:139,1,116.999994644165,10|0,1:2|1:0,0:0:0:0:
346,59,165060,5,10,1:2:0:0:
409,123,165183,1,0,1:0:0:0:
342,184,165306,1,10,1:2:0:0:
281,119,165429,1,2,1:2:0:0:
343,44,165552,1,10,1:2:0:0:
343,44,165674,2,0,B|301:39|301:39|179:127|179:127|119:119,1,233.999989288331,6|0,3:2|1:0,0:0:0:0:
50,0,166043,6,0,P|112:0|153:46,1,116.999994644165,10|0,1:2|1:0,0:0:0:0:
106,204,166289,2,0,P|44:204|3:158,1,116.999994644165,10|0,1:2|1:0,0:0:0:0:
138,121,166535,6,0,B|197:129|197:129|198:131|198:131|263:140,1,116.999994644165,10|0,1:2|1:0,0:0:0:0:
413,162,166781,1,10,3:2:0:0:
50,305,167888,6,0,P|79:308|113:295,1,53.9999983520508,0|0,3:0|3:0,0:0:0:0:
50,314,168011,2,0,B|96:329|164:293|162:225|162:225|165:260|200:280,1,215.999993408203,10|2,1:2|1:2,1:0:0:0:
294,197,168379,2,0,P|274:180|255:237,1,107.999996704102,0|10,1:0|1:2,0:0:0:0:
328,352,168625,6,0,B|338:390|285:375|289:300|335:279|335:279|344:285|344:285|383:253|363:201,1,215.999993408203,6|0,1:2|1:0,1:0:0:0:
302,110,168994,2,0,P|237:106|192:132,1,107.999996704102,10|0,1:2|1:0,1:0:0:0:
169,25,169240,2,0,P|116:63|98:112,1,107.999996704102,2|0,1:2|1:0,1:0:0:0:
12,45,169486,2,0,P|-3:108|33:207,1,161.999995056153,10|0,1:2|2:0,1:0:0:0:
26,198,169732,6,0,B|78:172|126:226|126:226|126:234|126:234|157:293|219:276,1,215.999993408203,6|8,1:2|1:0,1:0:0:0:
287,168,170101,1,2,1:2:0:0:
287,168,170224,2,0,P|241:167|197:209,1,107.999996704102,0|0,0:0|1:0,0:0:0:0:
126,338,170470,5,10,1:2:0:0:
126,338,170592,2,0,B|131:303|123:279|123:279|119:278|119:278|112:248|121:217,1,107.999996704102,6|0,3:2|0:0,1:0:0:0:
276,344,170838,1,0,1:0:0:0:
276,344,170961,2,0,B|281:309|273:285|273:285|269:284|269:284|262:254|271:223,1,107.999996704102,10|0,1:2|0:0,1:0:0:0:
425,346,171207,1,0,1:0:0:0:
425,346,171330,2,0,B|430:311|422:287|422:287|418:286|418:286|411:256|420:225,2,107.999996704102,2|10|2,1:2|1:2|1:2,0:0:0:0:
358,384,171699,1,0,0:0:0:0:
457,72,171945,6,0,B|498:85|509:39|450:4|369:20|325:78,1,215.999993408203,14|2,1:2|1:2,1:0:0:0:
329,204,172314,2,0,P|377:191|345:144,1,107.999996704102,0|10,1:0|1:2,0:0:0:0:
254,93,172560,2,0,B|242:62|255:31|255:31|196:64|185:126|206:176,1,215.999993408203,6|0,3:2|1:0,1:0:0:0:
264,255,172929,6,0,P|237:320|194:335,1,107.999996704102,10|0,1:2|1:0,1:0:0:0:
101,163,173174,2,0,P|170:153|205:183,1,107.999996704102,2|0,1:2|1:0,1:0:0:0:
102,350,173420,2,0,P|59:294|67:249,1,107.999996704102,10|0,1:2|0:0,0:0:0:0:
161,256,173666,5,6,1:2:0:0:
161,256,173789,2,0,B|192:265|207:259|211:253|211:253|216:254|216:254|236:239|273:252,1,107.999996704102,0|8,1:0|1:0,0:0:0:0:
415,353,174035,1,4,1:0:0:0:
415,353,174158,2,0,B|384:344|369:350|365:356|365:356|360:355|360:355|340:370|303:357,1,107.999996704102,0|8,1:0|1:0,0:0:0:0:
268,238,174404,5,4,1:0:0:0:
268,238,174527,2,0,B|265:214|253:194|253:194|249:191|249:191|253:194|253:194|280:197|312:189,1,107.999996704102,0|8,1:0|1:0,0:0:0:0:
456,238,174773,1,4,1:0:0:0:
456,238,174896,2,0,B|436:252|425:272|425:272|424:277|424:277|425:272|425:272|414:248|391:224,1,107.999996704102,0|8,1:0|1:0,0:0:0:0:
362,75,175142,1,0,0:0:0:0:
362,75,175265,2,0,B|384:84|407:84|407:84|412:82|412:82|407:84|407:84|391:105|382:137,2,107.999996704102,8|8|8,1:0|1:0|1:0,0:0:0:0:
300,129,175633,1,0,0:0:0:0:
54,254,175879,6,0,B|44:292|78:319|130:314|152:248|127:188|97:167,1,215.999993408203,14|2,1:2|1:2,1:0:0:0:
13,71,176248,2,0,P|-7:96|46:93,1,107.999996704102,0|10,1:0|1:2,0:0:0:0:
135,24,176494,2,0,B|198:11|225:61|225:61|226:77|226:77|253:133|316:128,1,215.999993408203,6|0,1:2|1:0,1:0:0:0:
409,128,176863,6,0,P|357:104|299:118,1,107.999996704102,10|0,1:2|1:0,1:0:0:0:
216,64,177109,2,0,P|168:95|150:151,1,107.999996704102,2|0,1:2|1:0,0:0:0:0:
63,197,177355,2,0,P|66:253|142:324,1,161.999995056153,10|0,1:2|2:0,1:0:0:0:
139,323,177601,6,0,B|166:263|249:268|249:268|237:301|259:348|296:346,1,215.999993408203,6|8,1:2|1:0,1:0:0:0:
427,261,177970,1,0,1:0:0:0:
427,261,178092,2,0,B|456:242|482:213|488:236|450:294|379:314|310:282,1,215.999993408203,2|8,1:2|1:0,0:0:0:0:
216,194,178461,2,0,P|306:186|450:171,1,215.999993408203,6|0,1:2|3:0,1:0:0:0:
505,67,178830,2,0,B|457:90|397:57|393:4|393:4|342:-4|324:34,1,215.999993408203,8|0,1:0|1:0,1:0:0:0:
225,97,179199,6,0,B|199:100|180:74|180:74|157:48|120:59,2,107.999996704102,2|10|2,1:0|1:0|1:0,0:0:0:0:
335,27,179568,2,0,B|363:6|386:13|386:13|390:39|413:60,1,107.999996704102,6|0,1:2|0:0,0:0:0:0:
287,132,179814,2,0,B|259:111|236:118|236:118|232:144|209:165,1,107.999996704102,8|0,1:0|0:0,0:0:0:0:
350,218,180060,5,0,1:0:0:0:
350,218,180183,1,0,1:0:0:0:
381,311,180306,2,0,P|396:262|353:218,1,107.999996704102,8|0,1:0|0:0,0:0:0:0:
223,208,180551,1,0,1:0:0:0:
223,208,180674,1,0,1:0:0:0:
288,134,180797,2,0,P|238:145|221:204,1,107.999996704102,8|0,1:0|1:0,0:0:0:0:
277,322,181043,1,0,0:0:0:0:
277,322,181166,1,0,1:0:0:0:
181,303,181289,2,0,P|215:340|275:325,1,107.999996704102,10|2,1:0|1:0,0:0:0:0:
440,170,181535,6,0,B|461:174|440:211|394:207|372:156|372:156|378:153|378:153|332:87|283:128,1,215.999993408203,14|0,1:2|1:0,1:0:0:0:
181,303,181904,2,0,B|166:319|144:282|171:244|226:251|226:251|226:257|226:257|305:251|295:187,1,215.999993408203,14|0,1:2|1:0,1:0:0:0:
193,13,182273,2,0,B|186:-7|229:-8|248:33|215:78|215:78|209:74|209:74|179:117|205:138,1,161.999995056153,8|0,1:0|2:0,0:0:0:0:
193,113,182519,6,0,B|195:140|195:140|197:141|197:141|198:171,3,53.9999983520508,8|8|8|8,3:0|3:0|3:0|3:0,0:0:0:0:
118,138,182765,2,0,B|94:136|69:132|69:132|70:136|70:136|40:133|1:131,1,107.999996704102,8|8,3:0|1:0,0:0:0:0:
219,258,183011,2,0,B|195:256|170:252|170:252|171:256|171:256|141:253|102:251,1,107.999996704102,8|8,1:3|1:0,0:0:0:0:
336,367,183256,2,0,B|312:365|287:361|287:361|288:365|288:365|258:362|219:360,1,107.999996704102,8|8,1:3|1:0,0:0:0:0:
410,300,183502,6,0,B|432:284|439:260|439:260|442:257|442:257|440:253|440:253|447:226|420:199,1,116.999994644165,0|8,0:0|1:0,0:0:0:0:
230,158,183748,2,0,B|208:174|201:198|201:198|198:201|198:201|200:205|200:205|193:232|220:259,1,116.999994644165,8|8,3:0|1:0,0:0:0:0:
416,301,183994,2,0,B|438:285|445:261|445:261|448:258|448:258|446:254|446:254|453:227|426:200,1,116.999994644165,8|8,1:0|1:0,0:0:0:0:
223,156,184240,2,0,B|201:172|194:196|194:196|191:199|191:199|193:203|193:203|186:230|213:257,1,116.999994644165,8|8,3:0|1:0,0:0:0:0:
324,231,184486,5,8,1:0:0:0:
73,171,184978,1,8,1:0:0:0:
73,171,185101,1,0,3:0:0:0:
324,231,185347,6,0,B|282:213|219:244|213:301|213:301|208:266|192:238,1,198.000006042481,6|0,1:0|1:0,1:0:0:0:
61,339,185715,2,0,B|60:396|127:405|171:360|145:269|95:245,1,198.000006042481,8|0,1:0|1:0,0:0:0:0:
50,157,186084,1,0,1:0:0:0:
50,157,186207,2,0,P|32:187|82:172,1,99.0000030212403,10|0,1:0|1:0,0:0:0:0:
131,87,186453,5,2,1:0:0:0:
131,87,186575,1,0,0:0:0:0:
218,27,186699,2,0,B|266:31|266:31|268:30|268:30|327:35,1,99.0000030212403,8|0,1:0|0:0,0:0:0:0:
204,174,186945,1,2,1:0:0:0:
204,174,187068,1,0,1:0:0:0:
294,118,187191,2,0,B|342:122|342:122|344:121|344:121|403:126,1,99.0000030212403,8|0,1:0|1:0,0:0:0:0:
443,221,187437,6,0,B|464:204|441:179|384:214|376:261|401:299|418:306,1,148.50000453186,0|0,1:0|2:0,1:0:0:0:
409,300,187683,2,0,B|451:305|451:305|463:315|463:315|511:321,2,99.0000030212403,10|0|0,1:0|1:0|1:0,0:0:0:0:
308,332,188052,1,0,1:0:0:0:
308,332,188175,2,0,P|294:366|342:358,1,99.0000030212403,10|2,1:0|1:0,0:0:0:0:
299,216,188420,6,0,P|293:165|295:105,1,99.0000030212403,2|0,1:0|1:0,1:0:0:0:
154,265,188666,2,0,P|148:316|150:376,1,99.0000030212403,10|0,1:0|1:0,1:0:0:0:
8,196,188912,1,2,1:0:0:0:
8,196,189035,2,0,B|57:203|57:203|101:169,1,99.0000030212403,2|10,1:0|1:0,0:0:0:0:
136,22,189281,6,0,B|189:8|218:62|218:62|251:126|310:115,1,198.000006042481,6|0,3:1|1:0,1:0:0:0:
439,25,189650,2,0,B|450:4|410:3|390:64|433:91|433:91|429:94|429:94|466:118|471:164,1,198.000006042481,8|0,1:0|1:0,1:0:0:0:
344,202,190019,1,0,1:0:0:0:
344,202,190142,2,0,P|357:162|400:192,1,99.0000030212403,10|0,1:0|1:0,0:0:0:0:
496,301,190388,5,2,1:0:0:0:
496,301,190511,1,0,1:0:0:0:
398,257,190634,2,0,B|394:307|394:307|393:308|393:308|389:361,1,99.0000030212403,8|0,1:0|1:0,1:0:0:0:
288,344,190880,1,2,1:0:0:0:
288,344,191003,1,0,0:0:0:0:
189,384,191126,2,0,B|185:334|185:334|184:333|184:333|180:280,1,99.0000030212403,10|2,1:0|1:0,0:0:0:0:
78,230,191371,6,0,B|68:252|91:263|130:229|135:186|115:153|93:141,1,148.50000453186,0|0,0:0|2:0,0:0:0:0:
96,143,191617,2,0,B|54:148|54:148|42:158|42:158|-6:164,2,99.0000030212403,10|0|0,1:0|1:0|1:0,0:0:0:0:
207,121,191986,1,0,1:0:0:0:
207,121,192109,2,0,B|220:90|274:75|317:85|317:85|324:127|361:144,1,198.000006042481,8|0,1:0|1:0,0:0:0:0:
491,115,192478,1,0,1:0:0:0:
491,115,192601,2,0,P|421:113|398:227,1,198.000006042481,8|2,1:0|1:2,0:0:0:0:
492,318,192970,1,2,1:2:0:0:
492,318,193092,2,0,B|502:333|511:297|461:288|426:318|426:318|425:324|425:324|397:346|350:339,1,148.50000453186,10|0,1:2|2:0,0:0:0:0:
380,340,193338,6,0,P|301:333|162:324,1,198.000006042481,6|8,1:0|1:0,1:0:0:0:
28,328,193707,2,0,B|11:367|98:374|111:293|100:233|44:207,1,198.000006042481,0|0,0:0|1:0,0:0:0:0:
195,111,194076,1,10,1:0:0:0:
195,111,194199,2,0,B|212:72|125:65|112:146|123:206|179:232,1,198.000006042481,2|0,1:0|1:0,1:0:0:0:
271,319,194568,6,0,P|315:309|350:250,1,99.0000030212403,10|0,1:0|1:0,1:0:0:0:
285,98,194814,2,0,P|271:141|304:201,1,99.0000030212403,2|0,1:0|1:0,1:0:0:0:
468,222,195060,2,0,P|436:188|368:187,1,99.0000030212403,10|0,1:0|1:0,1:0:0:0:
355,277,195306,6,0,P|316:318|187:290,1,198.000006042481,2|8,1:0|1:0,1:0:0:0:
39,277,195674,2,0,B|88:292|143:244|127:187|127:187|143:216|186:231,1,198.000006042481,0|2,1:0|3:1,0:0:0:0:
231,106,196043,2,0,P|190:141|239:159,1,99.0000030212403,8|2,3:1|1:0,0:0:0:0:
292,227,196289,5,0,3:0:0:0:
292,227,196412,1,0,3:0:0:0:
368,159,196535,2,0,B|362:107|362:107|363:106|363:106|357:50,1,99.0000030212403,8|0,3:1|3:0,0:0:0:0:
275,0,196781,1,0,3:0:0:0:
275,0,196904,1,2,3:1:0:0:
202,68,197027,2,0,B|208:120|208:120|207:121|207:121|213:177,1,99.0000030212403,10|2,3:1|3:1,0:0:0:0:
292,305,197273,6,0,B|339:310|368:252|368:252|373:253|373:253|403:193|474:216,1,198.000006042481,4|10,1:0|1:0,1:0:0:0:
457,310,197642,2,0,P|391:239|452:221,1,198.000006042481,2|2,1:0|1:0,1:0:0:0:
325,162,198011,2,0,P|344:140|293:141,1,99.0000030212403,10|2,1:0|1:0,0:0:0:0:
446,16,198256,6,0,P|342:25|221:36,1,198.000006042481,2|8,1:0|1:0,1:0:0:0:
101,25,198625,2,0,B|92:-6|125:-3|158:65|130:87|130:87|125:84|125:84|86:103|95:166,1,198.000006042481,2|0,1:0|1:0,1:0:0:0:
178,224,198994,2,0,P|159:202|210:203,1,99.0000030212403,10|0,1:0|0:0,0:0:0:0:
18,239,199240,6,0,B|64:216|100:261|100:261|148:325|205:297,1,198.000006042481,2|14,1:0|1:0,1:0:0:0:
327,368,199609,1,2,1:0:0:0:
327,368,199732,2,0,B|322:337|322:337|345:309|345:309|343:307|343:307|346:290|337:252,1,99.0000030212403,12|0,1:0|1:0,0:0:0:0:
178,224,199978,2,0,B|183:193|183:193|160:165|160:165|162:163|162:163|159:146|168:108,1,99.0000030212403,12|0,1:0|1:0,0:0:0:0:
349,110,200224,2,0,B|344:79|344:79|367:51|367:51|365:49|365:49|368:32|359:-6,1,99.0000030212403,12|8,1:0|1:0,0:0:0:0:
175,114,200470,6,0,L|182:42,2,66.0000020141602,2|0|0,3:1|0:0|0:0,0:0:0:0:
185,24,200715,1,10,1:1:0:0:
27,69,200838,1,6,3:1:0:0:
27,69,201084,6,0,B|39:39|107:33|97:116|72:128|72:128|19:147|51:210,1,198.000006042481,6|0,1:0|1:0,1:0:0:0:
1,301,201453,2,0,B|44:333|108:312|120:256|120:256|116:288|142:324,1,198.000006042481,8|0,1:0|1:0,1:0:0:0:
246,254,201822,1,0,1:0:0:0:
246,254,201945,2,0,P|200:245|229:290,1,99.0000030212403,10|0,1:0|1:0,0:0:0:0:
257,373,202191,5,2,1:0:0:0:
257,373,202314,1,0,0:0:0:0:
334,295,202437,2,0,B|330:245|330:245|332:243|332:243|328:189,1,99.0000030212403,8|0,1:0|0:0,0:0:0:0:
406,382,202683,1,2,1:0:0:0:
406,382,202806,1,0,1:0:0:0:
483,304,202929,2,0,B|479:254|479:254|481:252|481:252|477:198,1,99.0000030212403,8|0,1:0|1:0,0:0:0:0:
413,30,203174,6,0,B|422:5|369:5|354:56|376:103|422:120,1,148.50000453186,0|0,0:0|2:0,0:0:0:0:
412,115,203420,2,0,B|460:116|460:116|469:122|469:122|523:122,2,99.0000030212403,10|0|0,1:0|1:0|1:0,0:0:0:0:
328,197,203789,1,0,1:0:0:0:
328,197,203912,2,0,P|288:201|285:142,1,99.0000030212403,10|2,1:0|1:0,0:0:0:0:
314,38,204158,6,0,P|367:32|425:29,1,99.0000030212403,2|0,1:0|1:0,1:0:0:0:
197,120,204404,2,0,P|144:114|86:111,1,99.0000030212403,10|0,1:0|1:0,0:0:0:0:
328,197,204650,1,2,1:0:0:0:
328,197,204773,2,0,B|330:242|330:242|333:243|333:243|336:295,1,99.0000030212403,2|10,1:0|1:0,0:0:0:0:
216,367,205019,6,0,B|193:379|186:337|219:315|266:330|266:330|278:361|317:383|358:365,1,198.000006042481,6|0,3:1|1:0,1:0:0:0:
472,314,205388,2,0,P|498:256|435:121,1,198.000006042481,8|0,1:0|1:0,0:0:0:0:
318,152,205756,1,0,1:0:0:0:
318,152,205879,2,0,P|325:192|364:146,1,99.0000030212403,10|0,1:0|1:0,1:0:0:0:
357,55,206125,5,2,1:0:0:0:
357,55,206248,1,0,1:0:0:0:
250,109,206371,2,0,B|254:62|254:62|255:61|255:61|259:11,1,99.0000030212403,8|0,1:0|1:0,0:0:0:0:
145,71,206617,1,2,1:0:0:0:
145,71,206740,1,2,1:0:0:0:
37,12,206863,2,0,B|41:60|41:60|42:61|42:61|46:111,1,99.0000030212403,10|2,1:0|1:0,0:0:0:0:
114,264,207109,6,0,B|102:291|141:297|162:253|168:207|146:181|127:166,1,148.50000453186,0|0,1:0|2:0,0:0:0:0:
135,173,207355,2,0,B|93:178|93:178|81:188|81:188|40:193,2,99.0000030212403,10|0|0,1:0|1:0|1:0,0:0:0:0:
265,153,207724,1,0,1:0:0:0:
265,153,207847,2,0,B|290:126|293:102|293:102|339:126|363:182|351:236,1,198.000006042481,8|0,1:0|1:0,0:0:0:0:
337,364,208215,1,0,1:0:0:0:
337,364,208338,2,0,B|287:359|274:306|274:306|270:312|270:312|246:243|176:257,1,198.000006042481,8|2,1:0|1:2,0:0:0:0:
43,255,208707,1,2,1:2:0:0:
43,255,208830,2,0,B|67:232|67:232|57:358,1,148.50000453186,10|0,1:2|2:0,0:0:0:0:
58,347,209076,6,0,B|27:328|26:374|86:386|117:356|117:356|123:347|123:347|163:321|228:339,1,198.000006042481,6|8,1:0|1:0,1:0:0:0:
342,358,209445,2,0,B|325:316|359:270|359:270|410:213|379:162,1,198.000006042481,0|0,0:0|1:0,0:0:0:0:
360,373,209814,1,10,1:0:0:0:
360,373,209937,2,0,B|359:328|309:299|309:299|240:266|249:207,1,198.000006042481,2|0,1:0|1:0,1:0:0:0:
342,107,210306,6,0,P|401:97|447:122,1,99.0000030212403,10|0,1:0|1:0,0:0:0:0:
198,81,210551,2,0,P|246:115|261:165,1,99.0000030212403,2|0,1:0|1:0,0:0:0:0:
96,28,210797,2,0,P|106:87|81:133,1,99.0000030212403,10|0,1:0|1:0,0:0:0:0:
181,265,211043,6,0,P|162:154|209:68,1,198.000006042481,2|8,1:0|1:0,1:0:0:0:
310,18,211412,1,0,1:0:0:0:
310,18,211535,2,0,B|363:28|363:28|416:-6,1,99.0000030212403,2|0,1:0|3:1,0:0:0:0:
476,135,211781,2,0,P|464:90|439:132,1,99.0000030212403,8|2,3:1|1:0,0:0:0:0:
398,212,212027,5,0,3:0:0:0:
398,212,212150,1,0,3:0:0:0:
308,139,212273,2,0,B|256:146|256:146|254:148|254:148|195:154,1,99.0000030212403,8|0,3:1|3:0,0:0:0:0:
137,242,212519,1,0,3:0:0:0:
137,242,212642,1,2,3:1:0:0:
224,313,212765,2,0,B|276:306|276:306|278:304|278:304|337:298,1,99.0000030212403,10|2,3:1|3:1,0:0:0:0:
512,231,213011,6,0,B|464:226|447:164|447:164|442:164|442:164|424:99|350:108,1,198.000006042481,4|10,1:0|1:0,1:0:0:0:
349,204,213380,2,0,P|427:146|370:117,1,198.000006042481,2|2,1:0|1:0,1:0:0:0:
260,70,213749,2,0,P|231:74|259:31,1,99.0000030212403,10|2,1:0|1:0,0:0:0:0:
252,184,213994,6,0,P|148:193|27:204,1,198.000006042481,2|8,1:0|1:0,1:0:0:0:
60,3,214363,2,0,B|69:-28|36:-25|3:43|31:65|31:65|36:62|36:62|75:81|66:144,1,198.000006042481,2|0,1:0|1:0,1:0:0:0:
20,253,214732,2,0,P|1:231|52:232,1,99.0000030212403,10|0,1:0|0:0,0:0:0:0:
124,318,214978,6,0,B|160:324|160:324|221:274|221:274|257:280,1,148.50000453186,2|0,1:0|2:0,0:0:0:0:
253,279,215224,2,0,B|284:303|287:328|287:328|321:282|315:226|280:191,1,198.000006042481,8|0,1:0|1:0,0:0:0:0:
168,128,215592,1,0,1:0:0:0:
168,128,215715,2,0,B|220:122|220:122|222:123|222:123|292:117,1,99.0000030212403,8|0,1:0|0:0,0:0:0:0:
320,15,215961,5,8,3:0:0:0:
320,15,216084,2,0,B|291:11|291:11|290:12|290:12|252:9,2,49.5000015106202,8|8|8,3:0|3:0|3:0,0:0:0:0:
454,28,216330,2,0,B|474:41|483:63|483:63|486:65|486:65|483:68|483:68|490:90|474:120,1,99.0000030212403,8|8,1:0|1:0,0:0:0:0:
290,202,216576,2,0,B|270:189|261:167|261:167|258:165|258:165|261:162|261:162|254:140|270:110,1,99.0000030212403,8|10,1:0|1:0,0:0:0:0:
454,250,216822,6,0,B|402:239|380:291|380:291|358:363|297:352,1,198.000006042481,4|0,1:0|1:0,0:0:0:0:
228,245,217191,2,0,P|280:242|303:291,1,99.0000030212403,8|0,1:0|1:0,1:0:0:0:
206,364,217437,2,0,B|155:368|155:368|154:369|154:369|95:376,1,99.0000030212403,0|0,1:0|1:0,0:0:0:0:
0,375,217683,2,0,B|51:371|51:371|52:370|52:370|111:363,1,99.0000030212403,8|0,1:0|0:0,0:0:0:0:
228,245,217929,6,0,P|237:198|202:146,1,99.0000030212403,0|0,1:0|1:0,0:0:0:0:
113,134,218174,2,0,P|160:129|208:170,1,99.0000030212403,8|0,1:0|1:0,0:0:0:0:
80,265,218420,2,0,P|75:179|66:56,1,198.000006042481,0|8,1:0|1:0,0:0:0:0:
222,31,218789,6,0,B|231:-4|199:-30|150:-25|129:36|153:93|181:113,1,198.000006042481,4|0,1:0|1:0,1:0:0:0:
315,154,219158,2,0,P|306:115|242:120,1,99.0000030212403,8|0,1:0|1:0,0:0:0:0:
223,246,219404,2,0,B|249:256|273:242|273:242|276:243|276:243|303:227|335:237,1,99.0000030212403,0|0,1:0|1:0,0:0:0:0:
419,259,219650,2,0,B|393:269|369:255|369:255|366:256|366:256|339:240|307:250,1,99.0000030212403,8|0,1:0|1:0,1:0:0:0:
243,341,219896,6,0,P|195:345|147:304,1,99.0000030212403,0|0,1:0|1:0,0:0:0:0:
126,229,220142,2,0,P|117:276|152:328,1,99.0000030212403,8|0,1:0|0:0,0:0:0:0:
328,350,220387,2,0,B|324:253|324:253|316:236|316:236|314:144,1,198.000006042481,0|8,1:0|1:0,0:0:0:0:
437,39,220756,6,0,B|466:21|468:42|428:84|372:70|372:70|353:39|273:52,1,198.000006042481,4|0,1:0|1:0,1:0:0:0:
146,25,221125,2,0,P|196:27|225:67,1,99.0000030212403,8|0,1:0|1:0,0:0:0:0:
247,180,221371,2,0,L|251:292,1,99.0000030212403,0|0,1:0|1:0,0:0:0:0:
264,384,221617,2,0,L|260:272,1,99.0000030212403,8|0,1:0|1:0,1:0:0:0:
128,77,221863,6,0,L|124:189,1,99.0000030212403,0|0,1:0|1:0,0:0:0:0:
110,280,222109,2,0,L|114:168,1,99.0000030212403,8|0,1:0|0:0,0:0:0:0:
226,104,222355,2,0,B|248:91|273:102|273:102|276:106|276:106|309:126|333:107,2,99.0000030212403,0|0|8,1:0|1:0|1:0,0:0:0:0:
113,181,222724,6,0,B|165:170|187:222|187:222|209:294|270:283,1,198.000006042481,4|0,1:0|1:0,1:0:0:0:
367,224,223092,2,0,P|420:232|449:287,1,99.0000030212403,8|0,1:0|0:0,0:0:0:0:
381,302,223338,1,0,1:0:0:0:
381,302,223461,1,0,1:0:0:0:
390,380,223584,2,0,P|337:372|308:317,1,99.0000030212403,8|0,1:0|1:0,0:0:0:0:
264,209,223830,6,0,B|268:188|283:173|283:173|207:195|187:253|186:299,1,198.000006042481,0|8,1:0|1:0,0:0:0:0:
69,326,224199,1,0,1:0:0:0:
69,326,224322,2,0,B|100:302|100:302|86:223,2,99.0000030212403,0|8|8,1:0|1:0|1:0,0:0:0:0:
43,134,224691,6,0,B|6:120|15:176|80:190|119:151|119:151|145:111|196:114,1,198.000006042481,12|0,1:0|1:0,1:0:0:0:
264,209,225060,2,0,P|217:220|185:166,1,99.0000030212403,8|0,1:0|1:0,1:0:0:0:
221,46,225306,2,0,B|268:42|268:42|269:44|269:44|333:39,1,99.0000030212403,0|0,1:0|1:0,0:0:0:0:
425,23,225551,2,0,B|378:27|378:27|377:25|377:25|313:30,1,99.0000030212403,8|0,1:0|1:0,1:0:0:0:
252,118,225797,6,0,P|241:164|274:217,1,99.0000030212403,0|0,1:0|1:0,0:0:0:0:
365,233,226043,2,0,P|317:236|271:193,1,99.0000030212403,8|0,1:0|0:0,0:0:0:0:
403,134,226289,2,0,P|398:220|389:343,1,198.000006042481,0|8,1:0|1:0,0:0:0:0:
275,379,226658,6,0,B|221:375|208:312|208:312|185:249|116:253,1,198.000006042481,4|0,1:0|1:0,1:0:0:0:
57,373,227027,2,0,P|98:376|129:326,1,99.0000030212403,8|0,1:0|1:0,0:0:0:0:
46,230,227273,2,0,P|36:194|78:137,1,99.0000030212403,0|0,1:0|1:0,0:0:0:0:
169,152,227519,2,0,P|137:131|70:153,1,99.0000030212403,8|0,1:0|0:0,0:0:0:0:
245,230,227765,6,0,L|252:111,1,99.0000030212403,0|0,1:0|1:0,0:0:0:0:
268,25,228011,2,0,L|261:144,1,99.0000030212403,8|0,1:0|1:0,0:0:0:0:
452,213,228256,2,0,P|367:184|341:269,1,198.000006042481,0|8,1:0|1:0,0:0:0:0:
484,342,228625,6,0,B|512:354|508:313|469:293|418:314|418:314|395:361|341:361,1,198.000006042481,4|0,1:0|1:0,1:0:0:0:
263,289,228994,2,0,P|216:275|169:299,1,99.0000030212403,8|0,1:0|1:0,0:0:0:0:
53,375,229240,2,0,B|86:336|86:336|81:265,1,99.0000030212403,0|0,1:0|1:0,0:0:0:0:
4,217,229486,2,0,B|51:235|51:235|80:300,1,99.0000030212403,8|0,1:0|1:0,0:0:0:0:
263,289,229732,6,0,B|230:250|230:250|235:179,1,99.0000030212403,0|0,1:0|1:0,0:0:0:0:
312,131,229978,2,0,B|264:149|264:149|235:214,1,99.0000030212403,8|0,1:0|0:0,0:0:0:0:
131,124,230224,2,0,B|119:79|119:79|123:73|123:73|113:26,2,99.0000030212403,2|2|10,1:2|1:2|1:2,0:0:0:0:
71,280,230592,6,0,B|172:283|172:283|175:288|175:288|304:292,1,198.000006042481,4|0,1:0|1:0,1:0:0:0:
386,348,230961,2,0,B|371:376|414:381|427:325|397:274|397:274|380:262|380:262|352:223|379:196,1,215.999993408203,12|0,1:0|3:0,1:0:0:0:
167,289,231330,2,0,B|181:317|138:322|125:266|155:215|155:215|172:203|172:203|200:164|173:137,1,215.999993408203,8|0,1:0|3:0,1:0:0:0:
286,6,231699,6,0,B|305:-5|325:6|325:6|335:16|335:16|342:15|342:15|390:22,1,107.999996704102,12|0,1:0|1:0,0:0:0:0:
176,140,231945,2,0,B|195:129|215:140|215:140|225:150|225:150|232:149|232:149|280:156,1,107.999996704102,12|0,1:0|1:0,0:0:0:0:
66,274,232191,2,0,B|85:263|105:274|105:274|115:284|115:284|122:283|122:283|170:290,2,107.999996704102,8|8|8,1:0|1:0|1:0,0:0:0:0:
2,314,232560,5,12,1:0:0:0:
2,314,233174,1,4,1:0:0:0:
2,314,233666,1,8,1:0:0:0:
97,356,233789,1,8,1:0:0:0:
97,356,233912,2,0,B|94:321|94:321|95:320|95:320|93:287,3,53.9999983520508,0|0|0|0,3:0|3:0|3:0|3:0,0:0:0:0:
208,302,234158,2,0,B|204:347|204:347|205:349|205:349|202:392,2,80.9999975280763,8|0|8,1:0|1:0|1:0,1:0:0:0:
215,179,234527,5,4,3:1:0:0:
256,192,234588,12,0,238953,0:0:0:0:
