osu file format v14

[General]
AudioFilename: audio.mp3
AudioLeadIn: 0
PreviewTime: 58680
Countdown: 0
SampleSet: Soft
StackLeniency: 0.7
Mode: 0
LetterboxInBreaks: 0
WidescreenStoryboard: 0

[Editor]
DistanceSpacing: 1.4
BeatDivisor: 4
GridSize: 32
TimelineZoom: 1

[Metadata]
Title:Dizzy
TitleUnicode:Dizzy
Artist:Eine Kleine
ArtistUnicode:Eine Kleine
Creator:Adinda
Version:Illusion
Source:
Tags:doujin m3-33 rock japanese gothic 少女秘密遊戯 shoujo himitsu yuugi girl secret game くろねこ kuroneko 朔夜 sakuya
BeatmapID:2651075
BeatmapSetID:1275956

[Difficulty]
HPDrainRate:6
CircleSize:4.2
OverallDifficulty:7.5
ApproachRate:9
SliderMultiplier:1.6
SliderTickRate:1

[Events]
//Background and Video events
0,0,"a.jpg",0,0
//Break Periods
//Storyboard Layer 0 (Background)
//Storyboard Layer 1 (Fail)
//Storyboard Layer 2 (Pass)
//Storyboard Layer 3 (Foreground)
//Storyboard Layer 4 (Overlay)
//Storyboard Sound Samples

[TimingPoints]
1180,400,6,2,1,45,1,0
1180,-100,3,2,1,45,0,0
9580,-111.111111111111,3,2,1,70,0,0
10780,-100,3,2,1,75,0,0
11080,-100,3,2,1,5,0,0
11180,-100,3,2,1,75,0,0
12280,-100,3,2,1,5,0,0
12380,-100,3,2,1,75,0,0
13480,-100,3,2,1,5,0,0
13580,-100,3,2,1,75,0,0
15880,-100,3,2,1,5,0,0
15980,-100,3,2,1,75,0,0
17080,-100,3,2,1,5,0,0
17180,-100,3,2,1,75,0,0
20180,-100,3,2,1,50,0,0
20380,-133.333333333333,3,2,11,65,0,0
39080,-133.333333333333,3,2,1,65,0,0
41880,-133.333333333333,3,2,1,5,0,0
41980,-133.333333333333,3,2,1,65,0,0
44280,-133.333333333333,3,2,1,5,0,0
44380,-133.333333333333,3,2,1,65,0,0
46680,-133.333333333333,3,2,1,5,0,0
46780,-133.333333333333,3,2,1,65,0,0
53880,-133.333333333333,3,2,1,5,0,0
53980,-117.647058823529,3,2,1,70,0,0
57480,-117.647058823529,3,2,1,5,0,0
57580,-117.647058823529,3,2,1,75,0,0
58780,-100,3,2,1,80,0,1
63880,-100,3,2,1,5,0,1
63980,-100,3,2,1,80,0,1
73480,-100,3,2,1,5,0,1
73580,-100,3,2,1,80,0,1
75880,-100,3,2,1,5,0,1
75980,-100,3,2,1,80,0,1
80880,-100,3,2,1,5,0,1
80980,-100,3,2,1,80,0,1
82780,-100,3,2,1,75,0,0
83080,-100,3,2,1,5,0,0
83180,-100,3,2,1,75,0,0
85480,-100,3,2,1,5,0,0
85580,-100,3,2,1,75,0,0
89880,-100,3,2,1,5,0,0
89980,-100,3,2,1,75,0,0
92180,-100,3,2,1,50,0,0
92380,-100,3,2,1,75,0,0
92680,-100,3,2,1,5,0,0
92780,-100,3,2,1,75,0,0
95080,-100,3,2,1,5,0,0
95180,-100,3,2,1,75,0,0
99480,-100,3,2,1,5,0,0
99580,-100,3,2,1,75,0,0
101080,-100,3,2,1,5,0,0
101180,-100,3,2,1,75,0,0
101980,-181.818181818181,3,2,1,55,0,0
110980,-181.818181818181,3,2,1,35,0,0
111580,-181.818181818181,3,2,11,55,0,0
119980,-181.818181818181,3,2,1,65,0,0
121180,-133.333333333333,3,2,1,65,0,0
123480,-133.333333333333,3,2,1,5,0,0
123580,-133.333333333333,3,2,1,65,0,0
125880,-133.333333333333,3,2,1,5,0,0
125980,-133.333333333333,3,2,1,65,0,0
128280,-133.333333333333,3,2,1,5,0,0
128380,-133.333333333333,3,2,1,65,0,0
135480,-133.333333333333,3,2,1,5,0,0
135580,-117.647058823529,3,2,1,70,0,0
139080,-117.647058823529,3,2,1,5,0,0
139180,-117.647058823529,3,2,1,75,0,0
140380,-100,3,2,1,80,0,1
145480,-100,3,2,1,5,0,1
145580,-100,3,2,1,80,0,1
155080,-100,3,2,1,5,0,1
155180,-100,3,2,1,80,0,1
157480,-100,3,2,1,5,0,1
157580,-100,3,2,1,80,0,1
162480,-100,3,2,1,5,0,1
162580,-100,3,2,1,80,0,1
164380,-100,3,2,1,75,0,0
164680,-100,3,2,1,5,0,0
164780,-100,3,2,1,75,0,0
167080,-100,3,2,1,5,0,0
167180,-100,3,2,1,75,0,0
169480,-100,3,2,1,5,0,0
169580,-100,3,2,1,75,0,0
171880,-100,3,2,1,5,0,0
171980,-100,3,2,1,75,0,0
174280,-100,3,2,1,5,0,0
174380,-100,3,2,1,75,0,0
183580,-181.818181818181,3,2,1,45,0,0
192580,-181.818181818181,3,2,1,60,0,0
193180,-133.333333333333,3,2,11,65,0,0
195480,-133.333333333333,3,2,11,5,0,0
195580,-133.333333333333,3,2,11,65,0,0
197880,-133.333333333333,3,2,11,5,0,0
197980,-133.333333333333,3,2,11,65,0,0
200280,-133.333333333333,3,2,11,5,0,0
200380,-117.647058823529,3,2,1,70,0,0
201580,-117.647058823529,3,2,1,75,0,0
202780,-90.9090909090909,3,2,1,80,0,1
207880,-90.9090909090909,3,2,1,5,0,1
207980,-90.9090909090909,3,2,1,80,0,1
217480,-90.9090909090909,3,2,1,5,0,1
217580,-90.9090909090909,3,2,1,80,0,1
219880,-90.9090909090909,3,2,1,5,0,1
219980,-90.9090909090909,3,2,1,80,0,1
224880,-90.9090909090909,3,2,1,5,0,1
224980,-90.9090909090909,3,2,1,80,0,1
226780,-100,3,2,1,75,0,0
245080,-100,3,2,1,5,0,0
245180,-100,3,2,1,75,0,0
245980,-100,3,2,1,45,0,0
260780,422.535211267606,6,2,1,45,1,0
261202,461.538461538462,6,2,1,45,1,0
262125,487.80487804878,6,2,1,45,1,0
262612,500,6,2,1,45,1,0
263112,521.739130434783,6,2,1,45,1,0
263633,545.454545454546,6,2,1,45,1,0
264178,666.666666666667,6,2,1,45,1,0
264844,845.070422535211,6,2,1,45,1,0

[Colours]
Combo1 : 255,138,255
Combo2 : 47,151,255
Combo3 : 255,60,60

[HitObjects]
88,101,1180,5,0,0:0:0:0:
212,173,1580,1,2,0:0:0:0:
187,7,1980,1,2,0:0:0:0:
323,62,2380,5,0,0:0:0:0:
460,32,2780,1,2,0:0:0:0:
463,158,3180,1,2,0:0:0:0:
327,189,3580,5,0,0:0:0:0:
402,302,3980,1,2,0:0:0:0:
219,257,4380,1,2,0:0:0:0:
301,364,4780,5,2,0:0:0:0:
209,353,4980,1,0,0:0:0:0:
313,275,5180,5,2,0:0:0:0:
219,257,5380,1,0,0:0:0:0:
327,189,5580,5,2,0:0:0:0:
188,18,5980,5,0,0:0:0:0:
132,154,6380,1,2,0:0:0:0:
46,16,6780,1,2,0:0:0:0:
0,165,7180,5,0,0:0:0:0:
112,69,7580,1,2,0:0:0:0:
118,288,7980,1,2,0:0:0:0:
234,184,8380,5,0,0:0:0:0:
269,373,8780,1,2,0:0:0:0:
432,310,9180,1,2,0:0:0:0:
410,124,9580,5,4,0:3:0:0:
474,194,9780,2,0,P|498:147|461:52,1,143.999995605469,8|0,0:0|0:0,0:0:0:0:
366,46,10280,5,8,0:3:0:0:
352,58,10380,1,4,0:3:0:0:
410,124,10580,1,4,0:3:0:0:
266,191,10780,6,0,B|212:189|212:189|188:196|188:196|122:192,1,120,14|0,0:1|0:0,0:0:0:0:
106,195,11180,5,2,0:0:0:0:
111,109,11380,1,10,0:1:0:0:
156,270,11580,1,10,0:1:0:0:
83,116,11780,1,2,0:0:0:0:
128,277,11980,6,0,P|116:341|170:345,1,120,10|0,0:0|0:0,0:0:0:0:
195,368,12380,2,0,P|234:350|285:343,1,80,2|0,0:0|0:0,0:0:0:0:
403,308,12780,2,0,P|364:290|313:283,1,80,10|0,0:1|0:0,0:0:0:0:
430,131,13180,6,0,B|473:159|473:159|480:187|480:187|511:236,1,120,10|0,0:1|0:0,0:0:0:0:
512,262,13580,5,2,0:0:0:0:
403,308,13780,1,10,0:1:0:0:
357,192,13980,1,10,0:1:0:0:
248,238,14180,1,2,0:0:0:0:
203,121,14380,6,0,B|180:85|197:16|197:16|246:41,1,160,10|2,0:0|0:0,0:0:0:0:
243,39,14980,1,0,0:0:0:0:
101,142,15180,2,0,B|92:106|92:106|107:58,1,80,10|0,0:1|0:0,0:0:0:0:
155,277,15580,6,0,B|123:268|123:268|96:238|37:240,1,120,14|0,0:1|0:0,0:0:0:0:
23,228,15980,2,0,P|33:278|56:312,1,80,2|8,0:0|0:1,0:0:0:0:
234,239,16380,2,0,P|239:199|258:164,1,80,10|0,0:1|0:0,0:0:0:0:
421,371,16780,6,0,B|363:362|375:334|292:338,1,120,10|0,0:0|0:0,0:0:0:0:
285,350,17180,2,0,L|365:373,1,80,2|0,0:0|0:0,0:0:0:0:
234,239,17580,2,0,L|314:216,1,80,10|0,0:1|0:0,0:0:0:0:
460,188,17980,6,0,P|474:225|374:247,1,160,10|0,0:1|0:0,0:0:0:0:
285,350,18580,1,8,0:1:0:0:
234,239,18780,5,10,0:1:0:0:
119,309,18980,1,2,0:0:0:0:
250,204,19180,5,10,0:0:0:0:
226,124,19380,1,2,0:0:0:0:
130,158,19580,1,2,0:0:0:0:
223,9,19780,5,10,0:0:0:0:
250,204,19980,1,10,0:0:0:0:
356,59,20180,1,6,0:0:0:0:
337,141,20380,6,0,P|334:180|371:255,1,120.000004577637,14|0,0:1|0:0,0:0:0:0:
428,188,20980,1,10,0:1:0:0:
428,188,21180,2,0,L|492:177,1,60.0000022888184,2|8,0:0|0:1,0:0:0:0:
377,310,21580,6,0,L|366:250,1,60.0000022888184,10|0,0:0|0:0,0:0:0:0:
456,357,21980,2,0,L|466:297,1,60.0000022888184,2|0,0:0|0:0,0:0:0:0:
370,327,22380,2,0,L|359:267,1,60.0000022888184,2|0,0:0|0:0,0:0:0:0:
263,337,22780,6,0,B|195:334|234:305|139:306,1,120.000004577637,10|0,0:1|0:0,0:0:0:0:
194,176,23380,1,10,0:1:0:0:
194,176,23580,2,0,P|206:149|204:119,1,60.0000022888184,2|8,0:0|0:1,0:0:0:0:
114,19,23980,6,0,B|137:48|137:48|145:93|98:121,1,120.000004577637,10|0,0:0|0:0,0:0:0:0:
20,152,24580,1,0,0:0:0:0:
20,152,24780,2,0,P|19:188|34:212,1,60.0000022888184
6,334,25180,6,8,B|56:327|56:327|74:330|74:330|132:321,1,120.000004577637,10|0,0:1|0:1,0:1:0:0:
262,282,25780,2,8,P|268:332|199:347,1,120.000004577637,10|10,0:1|0:1,0:1:0:0:
319,198,26380,2,0,L|337:140,1,60.0000022888184,10|0,0:0|0:0,0:0:0:0:
255,16,26780,6,0,P|250:55|271:82,1,60.0000022888184,2|0,0:0|0:0,0:0:0:0:
336,140,27180,2,0,P|347:112|340:83,1,60.0000022888184,2|0,0:0|0:0,0:0:0:0:
439,15,27580,6,0,B|487:52|452:72|499:127,1,120.000004577637,10|0,0:1|0:0,0:0:0:0:
492,119,28180,1,8,0:1:0:0:
439,240,28380,5,2,0:0:0:0:
477,306,28580,1,10,0:1:0:0:
413,258,28780,2,0,B|345:245|374:277|283:262,1,120.000004577637,10|0,0:0|0:0,0:0:0:0:
188,82,29580,1,2,0:0:0:0:
37,164,29980,6,0,P|23:211|59:285,1,120.000004577637,14|0,0:1|0:0,0:0:0:0:
117,344,30580,1,10,0:1:0:0:
117,344,30780,2,0,L|54:366,1,60.0000022888184,2|8,0:0|0:1,0:0:0:0:
170,265,31180,6,0,L|148:202,1,60.0000022888184,10|0,0:0|0:0,0:0:0:0:
294,263,31580,2,0,L|316:200,1,60.0000022888184,2|0,0:0|0:0,0:0:0:0:
175,250,31980,2,0,L|153:187,1,60.0000022888184,2|0,0:0|0:0,0:0:0:0:
301,58,32380,6,0,B|339:61|339:61|359:86|359:86|410:109,1,120.000004577637,10|0,0:1|0:0,0:0:0:0:
412,21,32980,1,10,0:1:0:0:
412,21,33180,2,0,B|446:25|446:25|473:11,1,60.0000022888184,2|8,0:0|0:1,0:0:0:0:
297,135,33580,6,0,P|277:173|209:160,1,120.000004577637,10|0,0:0|0:0,0:0:0:0:
157,100,34180,1,0,0:0:0:0:
157,100,34380,2,0,L|145:38,1,60.0000022888184
210,161,34780,6,0,B|199:198|215:219|215:219|221:254|190:279,1,120.000004577637,10|0,0:1|0:0,0:0:0:0:
85,369,35380,2,8,P|58:347|86:277,1,120.000004577637,10|10,0:1|0:1,0:1:0:0:
196,273,35980,2,0,L|218:343,1,60.0000022888184,10|0,0:0|0:0,0:0:0:0:
343,238,36380,6,0,P|328:214|334:182,1,60.0000022888184,2|0,0:0|0:0,0:0:0:0:
440,292,36780,2,0,P|455:268|449:236,1,60.0000022888184,2|0,0:0|0:0,0:0:0:0:
501,84,37180,6,0,B|450:118|450:118|388:100,1,120.000004577637,10|0,0:1|0:0,0:0:0:0:
393,101,37780,1,8,0:1:0:0:
232,37,37980,5,2,0:0:0:0:
278,135,38180,1,10,0:1:0:0:
132,77,38380,2,0,P|104:106|117:183,1,120.000004577637,10|2,0:0|0:0,0:0:0:0:
393,373,39080,5,8,0:0:0:0:
394,349,39180,1,8,0:0:0:0:
492,324,39380,1,2,0:0:0:0:
343,260,39580,6,0,B|338:307|299:333|299:333|265:315,1,120.000004577637,14|0,0:1|0:0,0:0:0:0:
270,318,40180,1,8,0:1:0:0:
174,273,40380,5,2,0:0:0:0:
102,372,40580,1,10,0:1:0:0:
51,179,40780,5,10,0:0:0:0:
57,198,41180,1,2,0:0:0:0:
152,114,41580,2,0,B|128:106|128:106|114:89|114:89|63:68,1,90.0000034332277,2|0,0:0|0:0,0:0:0:0:
92,31,41980,6,0,L|220:20,1,120.000004577637,10|0,0:1|0:0,0:0:0:0:
211,20,42580,1,8,0:1:0:0:
307,100,42780,5,2,0:0:0:0:
362,8,42980,1,10,0:1:0:0:
405,196,43180,1,10,0:0:0:0:
455,94,43380,5,0,3:0:0:0:
455,94,43480,1,0,3:0:0:0:
455,94,43580,1,0,3:0:0:0:
370,206,43780,1,0,3:0:0:0:
489,299,43980,2,0,P|501:331|453:360,1,90.0000034332277,0|0,3:0|0:0,0:0:0:0:
392,339,44380,6,0,B|311:326|350:358|269:340,1,120.000004577637,14|0,0:1|0:0,0:0:0:0:
273,341,44980,1,8,0:1:0:0:
368,208,45180,5,2,0:0:0:0:
270,236,45380,1,10,0:1:0:0:
219,95,45580,5,10,0:0:0:0:
215,117,45980,1,2,0:0:0:0:
92,51,46380,2,0,B|69:80|69:80|68:110|101:132,1,90.0000034332277,2|0,0:0|0:0,0:0:0:0:
93,174,46780,6,0,B|69:213|85:252|85:252|51:286,1,120.000004577637,10|0,0:1|0:0,0:0:0:0:
105,360,47380,2,0,P|143:347|183:345,1,60.0000022888184,10|0,0:1|0:1,0:0:0:0:
162,344,47780,1,8,0:1:0:0:
333,291,47980,6,0,P|295:278|255:276,1,60.0000022888184,8|0,0:0|3:0,0:0:0:0:
270,279,48280,1,0,3:0:0:0:
265,283,48380,1,0,3:0:0:0:
423,190,48580,1,0,3:0:0:0:
239,64,48780,5,8,0:0:0:0:
311,150,48980,1,4,0:3:0:0:
413,0,49180,6,0,P|458:2|445:73,1,120.000004577637,14|2,0:1|0:0,0:0:0:0:
311,150,49780,1,8,0:1:0:0:
311,150,49980,2,0,B|279:156|279:156|245:148,1,60.0000022888184,10|0,0:1|0:0,0:0:0:0:
175,198,50380,5,10,0:0:0:0:
271,269,50580,1,8,0:1:0:0:
217,349,50780,2,0,B|249:355|249:355|283:347,1,60.0000022888184,2|8,0:0|0:1,0:0:0:0:
108,258,51180,2,0,L|97:327,1,60.0000022888184,10|0,0:1|0:0,0:0:0:0:
105,149,51580,6,0,B|31:135|77:115|-5:104,1,120.000004577637,10|2,0:1|0:0,0:0:0:0:
168,54,52180,1,8,0:1:0:0:
168,54,52380,2,0,L|201:-6,1,60.0000022888184,10|0,0:1|0:0,0:0:0:0:
276,106,52780,5,10,0:0:0:0:
220,188,52980,1,8,0:1:0:0:
322,249,53180,2,0,L|350:301,1,60.0000022888184,2|8,0:0|0:1,0:0:0:0:
506,163,53580,2,0,P|506:215|459:211,1,90.0000034332277,10|0,0:0|0:0,0:0:0:0:
444,202,53980,5,10,0:0:0:0:
484,48,54180,2,0,B|440:39|440:39|414:13|414:13|354:-2,1,136.000002593994,8|8,0:1|0:1,0:0:0:0:
190,42,54780,5,8,0:0:0:0:
276,83,54980,1,8,0:1:0:0:
180,205,55180,5,10,0:0:0:0:
275,263,55380,1,8,0:0:0:0:
275,263,55480,1,8,0:0:0:0:
275,263,55580,1,14,0:0:0:0:
203,303,55780,5,10,0:1:0:0:
201,331,55880,1,8,0:1:0:0:
199,357,55980,1,14,0:0:0:0:
180,205,56180,1,10,0:1:0:0:
356,353,56380,5,14,0:0:0:0:
383,333,56480,1,8,0:0:0:0:
416,324,56580,1,4,0:3:0:0:
449,326,56680,1,4,0:3:0:0:
480,339,56780,1,4,0:3:0:0:
512,178,56980,5,8,0:3:0:0:
471,145,57080,1,8,0:3:0:0:
429,113,57180,2,0,B|375:102|403:84|325:78,1,102.000001945496,12|0,0:0|0:0,0:0:0:0:
290,18,57580,5,14,0:1:0:0:
181,48,57780,1,4,0:3:0:0:
181,48,57880,1,4,0:3:0:0:
181,48,57980,5,6,0:3:0:0:
147,55,58080,1,4,0:3:0:0:
114,57,58180,1,4,0:3:0:0:
80,54,58280,1,4,0:3:0:0:
50,46,58380,5,10,0:3:0:0:
22,84,58480,1,8,0:3:0:0:
13,130,58580,1,8,0:3:0:0:
23,177,58680,1,8,0:3:0:0:
50,213,58780,6,0,B|103:206|103:206|143:225|224:211,1,160,14|0,0:1|0:0,0:0:0:0:
292,185,59380,5,10,0:1:0:0:
398,29,59580,1,0,0:0:0:0:
472,268,59780,1,8,0:1:0:0:
366,131,59980,6,0,B|414:142|414:142|451:168|451:168|522:205,1,160,8|0,0:0|0:0,0:0:0:0:
387,240,60580,1,2,0:0:0:0:
387,240,60680,1,2,0:0:0:0:
387,240,60780,1,10,0:1:0:0:
320,371,60980,1,2,0:0:0:0:
292,185,61180,6,0,B|200:171|270:126|146:119,1,160,10|0,0:1|0:0,0:0:0:0:
25,214,61780,2,0,P|36:260|48:380,1,160,10|8,0:0|0:1,0:0:0:0:
156,197,62380,6,0,B|164:163|164:163|152:114,1,80,8|0,0:0|0:0,0:0:0:0:
152,30,62780,5,0,0:0:0:0:
241,265,62980,1,8,0:1:0:0:
295,63,63180,1,8,0:1:0:0:
363,8,63580,6,0,B|398:1|398:1|447:19|423:78,1,120,14|0,0:1|0:0,0:0:0:0:
454,91,63980,2,0,P|465:51|477:14,1,80,2|8,0:0|0:1,0:0:0:0:
317,139,64380,2,0,P|306:99|294:62,1,80,2|8,0:0|0:1,0:0:0:0:
152,30,64780,6,0,B|117:54|117:103|117:103|79:132|43:110,1,160,10|0,0:0|0:0,0:0:0:0:
47,33,65380,1,2,0:0:0:0:
28,202,65580,2,0,P|41:248|45:286,1,80,10|0,0:1|0:0,0:0:0:0:
250,273,65980,6,0,P|257:328|169:332,1,160,10|0,0:1|0:0,0:0:0:0:
212,120,66580,1,8,0:0:0:0:
368,330,66780,5,2,0:0:0:0:
250,273,66980,1,10,0:1:0:0:
361,149,67180,6,0,B|401:162|401:162|421:199|421:199|477:254,1,160,10|0,0:0|0:0,0:0:0:0:
243,27,67880,1,8,0:0:0:0:
246,49,67980,1,8,0:0:0:0:
360,148,68180,1,8,0:1:0:0:
250,273,68380,6,0,B|185:308|185:308|97:285,1,160,14|0,0:1|0:0,0:0:0:0:
132,166,68980,5,10,0:1:0:0:
53,375,69180,1,0,0:0:0:0:
250,273,69380,1,8,0:1:0:0:
328,352,69580,6,0,P|379:354|381:255,1,160,8|0,0:0|0:0,0:0:0:0:
505,20,70180,1,2,0:0:0:0:
505,20,70280,1,2,0:0:0:0:
505,20,70380,1,10,0:1:0:0:
475,198,70580,1,2,0:0:0:0:
308,79,70780,6,0,B|260:68|234:91|234:91|179:77|186:24,1,160,10|0,0:1|0:0,0:0:0:0:
245,187,71380,2,0,P|228:236|211:352,1,160,10|10,0:0|0:1,0:0:0:0:
105,217,71980,6,0,B|97:175|97:175|107:133,1,80,10|0,0:0|0:0,0:0:0:0:
176,89,72380,5,0,0:0:0:0:
0,223,72580,1,8,0:1:0:0:
206,338,72780,1,8,0:1:0:0:
282,375,73180,6,0,B|356:366|326:386|408:373,1,120,14|0,0:1|0:0,0:0:0:0:
432,372,73580,2,0,B|442:337|442:337|429:293,1,80,2|8,0:0|0:1,0:0:0:0:
304,259,73980,2,0,B|294:224|294:224|307:180,1,80,2|8,0:0|0:1,0:0:0:0:
492,227,74380,6,0,P|493:303|426:291,1,160,10|0,0:0|0:0,0:0:0:0:
406,212,74980,1,2,0:0:0:0:
492,70,75180,2,0,P|485:120|483:158,1,80,10|0,0:1|0:0,0:0:0:0:
304,259,75580,6,0,B|267:248|267:248|243:223|243:223|184:208,1,120,10|0,0:1|0:0,0:0:0:0:
177,220,75980,5,2,0:0:0:0:
209,91,76180,2,0,L|289:76,1,80,8|2,0:0|0:0,0:0:0:0:
116,149,76580,5,8,0:1:0:0:
82,20,76780,2,0,L|2:5,1,80,10|0,0:0|0:0,0:0:0:0:
116,149,77180,1,0,0:0:0:0:
209,91,77380,5,8,0:0:0:0:
20,161,77580,1,10,0:0:0:0:
173,217,77780,1,6,0:3:0:0:
98,370,77980,6,0,B|153:378|190:337|190:337|245:371,1,160,14|0,0:1|0:0,0:0:0:0:
173,217,78580,1,8,0:1:0:0:
173,217,78780,2,0,P|143:205|148:160,1,80,8|0,0:1|0:0,0:0:0:0:
346,100,79180,5,8,0:0:0:0:
390,196,79380,2,0,P|420:184|415:139,1,80,8|0,0:1|0:0,0:0:0:0:
416,2,79780,1,8,0:1:0:0:
173,217,79980,5,10,0:1:0:0:
189,29,80180,1,2,0:0:0:0:
390,196,80380,5,10,0:1:0:0:
390,196,80580,2,0,P|386:246|388:329,1,120,8|0,0:1|0:0,0:0:0:0:
375,327,80980,1,8,0:0:0:0:
494,241,81180,2,8,B|501:203|501:203|489:157,1,80,2|8,0:0|0:1,0:0:0:0:
263,98,81580,5,10,0:0:0:0:
263,98,81780,2,0,B|256:136|256:136|268:182,1,80,8|0,0:1|0:0,0:0:0:0:
196,25,82180,1,8,0:0:0:0:
196,25,82280,1,8,0:0:0:0:
196,25,82380,1,8,0:0:0:0:
214,241,82580,1,4,0:3:0:0:
16,96,82780,6,0,B|50:100|50:100|74:128|74:128|128:152,1,120,12|0,0:1|0:0,0:0:0:0:
134,142,83180,5,2,0:0:0:0:
263,98,83380,1,10,0:1:0:0:
214,241,83580,1,10,0:1:0:0:
317,337,83780,1,2,0:0:0:0:
406,154,83980,6,0,B|382:107|414:46|414:46|448:84,2,160,10|0|8,0:0|0:0|0:1,0:0:0:0:
494,312,84980,5,2,0:0:0:0:
494,312,85080,1,2,0:0:0:0:
494,312,85180,2,0,B|428:295|475:277|375:264,1,120,10|0,0:1|0:0,0:0:0:0:
366,242,85580,5,2,0:0:0:0:
315,338,85780,1,10,0:1:0:0:
303,180,85980,1,10,0:1:0:0:
148,162,86180,1,2,0:0:0:0:
237,133,86380,6,0,P|211:95|255:1,2,160,10|0|8,0:0|0:0|0:1,0:0:0:0:
32,293,87580,5,14,0:1:0:0:
106,370,87780,1,2,0:0:0:0:
148,236,87980,2,0,P|137:212|151:156,1,80,2|8,0:0|0:1,0:0:0:0:
263,301,88380,2,0,P|274:338|262:375,1,80,10|0,0:1|0:0,0:0:0:0:
305,168,88780,6,0,B|345:186|345:186|363:230|363:230|417:288,1,160,10|0,0:0|0:0,0:0:0:0:
263,301,89380,1,2,0:0:0:0:
438,187,89580,2,0,P|461:142|429:69,1,120,10|0,0:1|0:0,0:0:0:0:
434,31,89980,6,0,B|369:73|369:73|283:44,1,160,10|0,0:1|0:0,0:0:0:0:
290,46,90580,1,8,0:1:0:0:
144,41,90780,5,10,0:1:0:0:
204,175,90980,1,2,0:0:0:0:
214,91,91180,6,0,B|161:110|161:110|135:142|135:142|83:190,1,160,10|2,0:0|0:0,0:0:0:0:
329,143,91780,5,10,0:0:0:0:
357,373,91980,1,10,0:0:0:0:
461,269,92180,1,6,0:0:0:0:
316,371,92380,6,0,B|279:353|239:371|239:371|259:331,1,120,14|0,0:1|0:0,0:0:0:0:
272,316,92780,5,2,0:0:0:0:
323,142,92980,1,10,0:1:0:0:
229,213,93180,1,10,0:1:0:0:
343,117,93380,1,2,0:0:0:0:
173,116,93580,6,0,B|128:143|120:202|120:202|163:266,2,160,10|0|8,0:0|0:0|0:1,0:0:0:0:
357,18,94580,5,2,0:0:0:0:
357,18,94680,1,2,0:0:0:0:
357,18,94780,2,0,B|393:29|393:29|412:52|412:52|459:95,1,120,10|0,0:1|0:0,0:0:0:0:
482,100,95180,5,2,0:0:0:0:
343,117,95380,1,10,0:1:0:0:
509,264,95580,1,10,0:1:0:0:
361,202,95780,1,2,0:0:0:0:
303,356,95980,6,0,B|354:348|388:369|388:369|427:358|428:317,2,160,10|0|8,0:0|0:0|0:1,0:0:0:0:
169,95,97180,5,14,0:1:0:0:
203,203,97380,1,2,0:0:0:0:
302,75,97580,2,0,L|313:-6,1,80,2|8,0:0|0:1,0:0:0:0:
169,95,97980,2,0,L|158:14,1,80,10|0,0:1|0:0,0:0:0:0:
313,185,98380,6,0,B|326:144|312:108|312:108|328:26,1,160,10|0,0:0|0:0,0:0:0:0:
410,93,98980,1,2,0:0:0:0:
169,95,99180,2,0,B|84:90|125:119|48:109,1,120,10|0,0:1|0:0,0:0:0:0:
16,137,99580,6,0,P|24:180|28:297,1,160,10|0,0:1|0:0,0:0:0:0:
28,295,100180,1,8,0:1:0:0:
200,253,100380,5,10,0:1:0:0:
110,189,100580,1,2,0:0:0:0:
145,368,100780,6,0,B|179:362|179:362|204:370|204:370|265:371,1,120,10|0,0:0|0:0,0:0:0:0:
285,351,101180,1,2,0:0:0:0:
437,138,101380,5,10,0:0:0:0:
448,330,101580,1,10,0:0:0:0:
272,151,101780,1,10,0:1:0:0:
317,71,101980,6,0,P|349:71|408:53,2,88.000002685547,2|0|0,0:0|0:0|0:0,0:0:0:0:
405,39,103180,2,0,P|363:52|319:54,2,88.000002685547,2|0|0,0:0|0:0|0:0,0:0:0:0:
138,31,104380,6,0,L|124:126,1,88.000002685547,2|0,0:0|0:0,0:0:0:0:
107,128,105180,2,0,L|119:40,1,88.000002685547,2|0,0:0|0:0,0:0:0:0:
41,187,105780,5,2,0:0:0:0:
119,211,105980,1,0,0:0:0:0:
59,270,106180,1,2,0:0:0:0:
107,128,106380,1,0,0:0:0:0:
187,146,106780,6,0,B|223:146|223:146|237:150|237:150|286:148,2,88.000002685547,2|0|0,0:0|0:0|0:0,0:0:0:0:
283,129,107980,2,0,B|247:129|247:129|233:133|233:133|184:131,2,88.000002685547,2|0|0,0:0|0:0|0:0,0:0:0:0:
385,293,109180,6,0,P|366:256|389:214,1,88.000002685547,2|0,0:0|0:0,0:0:0:0:
412,220,109980,2,0,P|393:258|412:296,1,88.000002685547,2|0,0:0|0:0,0:0:0:0:
388,83,110780,5,2,0:0:0:0:
299,245,110980,1,4,0:0:0:0:
231,120,111180,1,6,0:0:0:0:
220,142,111580,6,0,B|182:132|178:157|128:142,1,88.000002685547,10|0,0:1|0:0,0:0:0:0:
73,216,112180,2,0,P|82:255|86:308,1,88.000002685547,10|8,0:1|0:1,0:0:0:0:
189,237,112780,5,10,0:0:0:0:
189,237,113180,1,2,0:0:0:0:
189,237,113580,1,2,0:0:0:0:
213,254,113980,6,0,B|245:253|245:253|264:266|264:266|310:271,1,88.000002685547,10|0,0:1|0:0,0:0:0:0:
385,291,114580,2,0,B|381:270|381:270|386:246,1,44.0000013427735,10|0,0:1|0:0,0:0:0:0:
385,247,114980,1,10,0:1:0:0:
469,273,115180,6,0,B|473:294|473:294|468:318,1,44.0000013427735,10|0,0:0|0:0,0:0:0:0:
430,149,115580,5,2,0:0:0:0:
512,176,115780,1,2,0:0:0:0:
385,247,115980,1,2,0:0:0:0:
348,248,116380,6,0,P|336:269|266:264,1,88.000002685547,10|0,0:1|0:0,0:0:0:0:
137,208,116980,2,8,B|196:209|172:217|229:210,1,88.000002685547,10|8,0:1|0:1,0:1:0:0:
177,94,117580,5,10,0:0:0:0:
177,94,117980,1,2,0:0:0:0:
177,94,118380,1,2,0:0:0:0:
159,111,118780,6,0,P|148:75|159:12,1,88.000002685547,10|0,0:1|0:0,0:0:0:0:
231,17,119380,2,0,L|282:0,1,44.0000013427735,10|0,0:1|0:0,0:0:0:0:
272,3,119780,1,10,0:1:0:0:
440,120,119980,6,0,L|491:137,1,44.0000013427735,10|0,0:0|0:0,0:0:0:0:
432,9,120380,5,14,0:1:0:0:
374,373,120780,1,10,0:1:0:0:
70,209,121180,6,0,B|103:206|103:206|133:222|133:222|202:233,1,120.000004577637,14|0,0:1|0:0,0:0:0:0:
185,230,121780,1,8,0:1:0:0:
234,118,121980,5,2,0:0:0:0:
287,293,122180,1,10,0:1:0:0:
336,77,122380,5,10,0:0:0:0:
332,98,122780,1,2,0:0:0:0:
398,154,123180,2,0,P|386:185|391:257,1,90.0000034332277,2|0,0:0|0:0,0:0:0:0:
418,257,123580,6,0,B|474:282|474:282|481:221,1,120.000004577637,10|0,0:1|0:0,0:0:0:0:
480,223,124180,1,8,0:1:0:0:
332,97,124380,5,2,0:0:0:0:
303,218,124580,1,10,0:1:0:0:
290,14,124780,1,10,0:0:0:0:
385,21,124980,5,0,3:0:0:0:
385,21,125080,1,0,3:0:0:0:
385,21,125180,1,0,3:0:0:0:
235,94,125380,1,0,3:0:0:0:
107,163,125580,2,0,B|58:148|85:137|17:124,1,90.0000034332277,0|0,3:0|0:0,0:0:0:0:
12,49,125980,6,0,P|49:48|139:32,1,120.000004577637,14|0,0:1|0:0,0:0:0:0:
130,34,126580,1,8,0:1:0:0:
235,93,126780,5,2,0:0:0:0:
107,163,126980,1,10,0:1:0:0:
271,334,127180,5,10,0:0:0:0:
254,326,127580,1,2,0:0:0:0:
160,313,127980,2,0,B|154:348|154:348|137:379|94:362,1,90.0000034332277,2|0,0:0|0:0,0:0:0:0:
83,360,128380,6,0,B|83:326|54:308|54:308|40:276|79:258,1,120.000004577637,10|0,0:1|0:0,0:0:0:0:
174,204,128980,2,0,P|216:194|234:181,1,60.0000022888184,10|0,0:1|0:1,0:0:0:0:
229,184,129380,1,8,0:1:0:0:
121,104,129580,6,0,P|79:94|61:81,1,60.0000022888184,8|0,0:0|3:0,0:0:0:0:
65,84,129880,1,0,3:0:0:0:
65,84,129980,1,0,3:0:0:0:
271,9,130180,1,0,3:0:0:0:
179,202,130380,5,8,0:0:0:0:
153,15,130580,1,4,0:3:0:0:
290,211,130780,6,0,P|301:253|303:335,1,120.000004577637,14|2,0:1|0:0,0:0:0:0:
424,145,131380,1,8,0:1:0:0:
424,145,131580,2,0,L|482:104,1,60.0000022888184,10|0,0:1|0:0,0:0:0:0:
310,133,131980,5,10,0:0:0:0:
290,211,132180,1,8,0:1:0:0:
179,202,132380,2,0,L|121:161,1,60.0000022888184,2|8,0:0|0:1,0:0:0:0:
182,44,132780,2,0,P|197:18|170:-5,1,60.0000022888184,10|0,0:1|0:0,0:0:0:0:
34,102,133180,6,0,B|70:110|70:110|93:142|93:142|143:176,1,120.000004577637,10|2,0:1|0:0,0:0:0:0:
46,268,133780,1,8,0:1:0:0:
46,268,133980,2,0,L|23:206,1,60.0000022888184,10|0,0:1|0:0,0:0:0:0:
139,261,134380,5,10,0:0:0:0:
82,353,134580,1,8,0:1:0:0:
183,367,134780,2,0,L|206:305,1,60.0000022888184,2|8,0:0|0:1,0:0:0:0:
357,168,135180,2,0,P|350:201|291:208,1,90.0000034332277,10|0,0:0|0:0,0:0:0:0:
282,189,135580,5,10,0:0:0:0:
391,73,135780,2,8,B|435:89|440:130|440:130|463:149|496:126,1,136.000002593994,8|8,0:1|0:1,0:1:0:0:
438,268,136380,5,8,0:0:0:0:
364,168,136580,1,8,0:1:0:0:
208,289,136780,5,10,0:0:0:0:
282,189,136980,1,8,0:0:0:0:
282,189,137080,1,8,0:0:0:0:
282,189,137180,1,14,0:0:0:0:
307,268,137380,5,10,0:1:0:0:
303,301,137480,1,8,0:1:0:0:
298,334,137580,1,14,0:0:0:0:
367,168,137780,1,10,0:1:0:0:
142,242,137980,5,14,0:0:0:0:
114,222,138080,1,8,0:0:0:0:
81,214,138180,1,4,0:3:0:0:
48,220,138280,1,4,0:3:0:0:
18,237,138380,1,4,0:3:0:0:
134,108,138580,5,8,0:3:0:0:
104,66,138680,1,8,0:3:0:0:
72,25,138780,2,0,P|63:63|62:144,1,102.000001945496,12|0,0:0|0:0,0:0:0:0:
81,214,139180,5,14,0:1:0:0:
226,152,139380,1,4,0:3:0:0:
226,152,139480,1,4,0:3:0:0:
226,152,139580,5,6,0:3:0:0:
256,136,139680,1,4,0:3:0:0:
289,129,139780,1,4,0:3:0:0:
323,132,139880,1,4,0:3:0:0:
357,146,139980,5,10,0:3:0:0:
403,149,140080,1,8,0:3:0:0:
440,121,140180,1,8,0:3:0:0:
448,75,140280,1,8,0:3:0:0:
425,34,140380,6,0,B|319:35|394:-1|269:3,1,160,14|0,0:1|0:0,0:0:0:0:
28,44,140980,5,10,0:1:0:0:
216,124,141180,1,0,0:0:0:0:
35,192,141380,1,8,0:1:0:0:
228,280,141580,6,0,B|276:293|276:293|298:340|298:340|358:384,1,160,8|0,0:0|0:0,0:0:0:0:
476,130,142180,1,2,0:0:0:0:
476,130,142280,1,2,0:1:0:0:
476,130,142380,1,10,0:1:0:0:
495,254,142580,1,2,0:0:0:0:
351,147,142780,6,0,B|326:95|362:33|362:33|397:79,1,160,10|0,0:1|0:0,0:0:0:0:
234,171,143380,2,0,B|195:159|157:180|157:180|109:176|95:134,1,160,10|8,0:0|0:1,0:0:0:0:
45,358,143980,6,0,B|34:319|34:319|44:276,1,80,8|0,0:0|0:0,0:0:0:0:
25,205,144380,5,0,0:0:0:0:
144,366,144580,1,8,0:1:0:0:
308,277,144780,1,8,0:1:0:0:
370,344,145180,6,0,B|404:340|404:340|434:353|434:353|512:362,1,120,14|0,0:1|0:0,0:0:0:0:
498,334,145580,2,0,L|417:365,1,80,2|8,0:0|0:1,0:0:0:0:
308,277,145980,2,0,L|227:246,1,80,2|8,0:0|0:1,0:0:0:0:
234,60,146380,6,0,P|223:114|316:131,1,160,10|0,0:0|0:0,0:0:0:0:
352,54,146980,1,2,0:0:0:0:
459,159,147180,2,0,B|466:122|466:122|450:75,1,80,10|0,0:1|0:0,0:0:0:0:
181,186,147580,6,0,B|143:207|145:259|145:259|116:290|76:261,1,160,10|0,0:1|0:0,0:0:0:0:
275,246,148180,1,8,0:0:0:0:
78,262,148380,5,2,0:0:0:0:
297,346,148580,1,10,0:1:0:0:
52,177,148780,6,0,B|25:128|46:66|46:66|61:88|66:114,1,160,10|0,0:0|0:0,0:0:0:0:
388,97,149480,5,8,0:0:0:0:
363,81,149580,1,8,0:0:0:0:
504,223,149780,1,8,0:1:0:0:
297,346,149980,6,0,B|348:335|380:357|380:357|356:287,1,160,14|0,0:1|0:0,0:0:0:0:
216,157,150580,5,10,0:1:0:0:
148,343,150780,1,0,0:0:0:0:
206,108,150980,1,8,0:1:0:0:
142,299,151180,6,0,P|129:343|31:332,1,160,8|0,0:0|0:0,0:0:0:0:
206,108,151780,1,2,0:0:0:0:
206,108,151880,1,2,0:0:0:0:
206,108,151980,1,10,0:1:0:0:
245,254,152180,1,2,0:0:0:0:
366,171,152380,6,0,B|425:154|425:154|461:248,1,160,10|0,0:1|0:0,0:0:0:0:
503,82,152980,2,0,B|431:68|463:29|337:27,1,160,10|10,0:0|0:1,0:0:0:0:
196,31,153580,6,0,B|191:69|191:69|211:121,1,80,10|0,0:0|0:0,0:0:0:0:
114,64,153980,5,0,0:0:0:0:
263,250,154180,1,8,0:1:0:0:
47,357,154380,1,8,0:1:0:0:
125,315,154780,6,0,B|90:296|90:296|75:264|75:264|32:229,1,120,14|0,0:1|0:0,0:0:0:0:
35,195,155180,2,0,L|19:108,1,80,2|8,0:0|0:1,0:0:0:0:
198,91,155580,2,0,L|183:169,1,80,2|8,0:0|0:1,0:0:0:0:
247,11,155980,6,0,B|297:24|315:60|315:60|353:69|372:20,1,160,10|0,0:0|0:0,0:0:0:0:
475,17,156580,1,2,0:0:0:0:
453,178,156780,2,0,B|443:145|443:145|452:88,1,80,10|0,0:1|0:0,0:0:0:0:
345,219,157180,6,0,B|384:235|384:235|400:265|400:265|443:311,1,120,10|0,0:1|0:0,0:0:0:0:
442,314,157580,5,2,0:0:0:0:
313,299,157780,2,0,L|287:376,1,80,8|2,0:0|0:0,0:0:0:0:
66,253,158180,5,8,0:1:0:0:
195,238,158380,2,0,L|221:315,1,80,10|0,0:0|0:0,0:0:0:0:
232,118,158780,1,0,0:0:0:0:
195,238,158980,5,8,0:0:0:0:
379,145,159180,1,10,0:0:0:0:
142,86,159380,1,6,0:3:0:0:
333,2,159580,6,0,B|448:15|377:55|488:73,1,160,14|0,0:1|0:0,0:0:0:0:
382,223,160180,1,8,0:1:0:0:
382,223,160380,2,0,B|387:180|387:180|377:138,1,80,8|0,0:1|0:0,0:0:0:0:
322,338,160780,5,8,0:0:0:0:
273,180,160980,2,0,B|268:223|268:223|278:265,1,80,8|0,0:1|0:0,0:0:0:0:
297,100,161380,1,8,0:1:0:0:
122,285,161580,5,10,0:1:0:0:
322,338,161780,1,2,0:0:0:0:
95,79,161980,5,10,0:1:0:0:
95,79,162180,2,0,B|53:82|53:82|12:115|43:159,1,120,8|0,0:1|0:0,0:0:0:0:
44,177,162580,1,8,0:0:0:0:
104,359,162780,2,0,P|103:319|128:279,1,80,2|8,0:0|0:1,0:0:0:0:
297,100,163180,5,10,0:0:0:0:
297,100,163380,2,0,P|296:140|321:180,1,80,8|0,0:1|0:0,0:0:0:0:
251,17,163780,5,8,0:0:0:0:
251,17,163880,1,8,0:0:0:0:
251,17,163980,1,8,0:0:0:0:
203,183,164180,1,4,0:3:0:0:
398,28,164380,6,0,B|426:51|426:51|439:80|439:80|472:127,1,120,12|0,0:1|0:0,0:0:0:0:
492,132,164780,5,2,0:0:0:0:
327,200,164980,1,10,0:1:0:0:
511,244,165180,1,2,0:0:0:0:
297,100,165380,1,10,0:1:0:0:
203,183,165580,6,0,P|215:226|216:273,1,80,10|0,0:0|0:0,0:0:0:0:
289,361,165980,6,0,L|366:333,1,80,2|0,0:0|0:0,0:0:0:0:
216,261,166380,2,0,L|139:233,1,80,10|0,0:1|0:0,0:0:0:0:
32,57,166780,6,0,B|24:121|24:121|37:179,1,120,10|0,0:1|0:0,0:0:0:0:
43,197,167180,5,2,0:0:0:0:
140,233,167380,1,10,0:1:0:0:
151,136,167580,1,2,0:0:0:0:
248,100,167780,1,10,0:1:0:0:
357,213,167980,6,8,P|369:169|346:56,2,160,10|2|10,0:0|0:0|0:1,0:0:0:0:
73,354,169180,6,0,B|121:352|121:352|140:361|140:361|192:357,1,120,14|0,0:1|0:0,0:0:0:0:
224,359,169580,2,0,P|237:313|223:280,1,80,2|8,0:0|0:1,0:0:0:0:
357,213,169980,1,2,0:0:0:0:
397,327,170180,1,10,0:1:0:0:
512,245,170380,6,0,P|499:199|513:166,1,80,10|0,0:0|0:0,0:0:0:0:
370,46,170780,6,0,L|441:9,1,80,2|0,0:0|0:0,0:0:0:0:
286,176,171180,2,0,L|357:213,1,80,10|0,0:1|0:0,0:0:0:0:
253,78,171580,6,0,B|187:76|225:57|133:58,1,120,10|0,0:1|0:0,0:0:0:0:
121,48,171980,5,2,0:0:0:0:
168,164,172180,1,10,0:1:0:0:
71,162,172380,1,2,0:0:0:0:
24,278,172580,1,10,0:1:0:0:
224,366,172780,6,0,B|178:346|178:346|145:297|145:297|91:272,2,160,10|2|10,0:0|0:0|0:1,0:0:0:0:
479,225,173980,6,0,P|497:274|432:307,1,120,14|0,0:1|0:0,0:0:0:0:
422,331,174380,2,0,P|464:344|497:369,1,80,2|8,0:0|0:1,0:0:0:0:
284,264,174780,2,0,P|326:251|359:226,1,80,2|8,0:0|0:1,0:0:0:0:
153,332,175180,2,0,P|195:345|228:370,1,80,10|0,0:0|0:0,0:0:0:0:
51,197,175580,6,0,L|27:118,1,80,2|0,0:0|0:0,0:0:0:0:
193,38,175980,2,0,L|169:114,1,80,10|0,0:1|0:0,0:0:0:0:
55,169,176380,2,0,L|31:90,1,80,10|0,0:1|0:0,0:0:0:0:
306,93,176780,6,0,B|296:56|296:56|308:15,1,80,2|8,0:0|0:1,0:0:0:0:
382,179,177180,2,0,B|419:188|419:188|448:219,1,80,2|8,0:0|0:1,0:0:0:0:
265,201,177580,2,0,B|237:228|237:228|196:238,1,80,10|0,0:0|0:0,0:0:0:0:
334,346,177980,6,0,P|359:308|346:274,1,80,2|0,0:0|0:0,0:0:0:0:
95,304,178380,2,0,P|70:266|83:232,1,80,10|0,0:1|0:0,0:0:0:0:
291,57,178780,6,0,B|332:76|332:76|342:115|342:115|384:183,1,160,14|0,0:1|0:0,0:0:0:0:
417,91,179380,2,0,L|508:69,1,80,8|0,0:1|0:0,0:0:0:0:
494,72,179780,1,8,0:1:0:0:
260,128,179980,6,0,L|169:106,1,80,8|0,0:0|0:0,0:0:0:0:
158,41,180380,2,0,L|67:19,1,80
80,22,180780,1,8,0:1:0:0:
25,142,180980,5,2,0:0:0:0:
135,213,181180,2,0,B|106:244|117:289|117:289|107:336|59:331,1,160,10|0,0:1|0:0,0:0:0:0:
210,296,181780,2,0,B|203:339|203:339|212:376,1,80,8|0,0:1|0:1,0:0:0:0:
211,374,182180,1,8,0:1:0:0:
433,376,182380,6,0,B|441:340|441:340|434:297,1,80,8|0,0:0|0:0,0:0:0:0:
434,297,182780,1,0,0:0:0:0:
344,50,182980,5,8,0:0:0:0:
331,303,183180,1,8,0:0:0:0:
449,43,183380,1,8,0:0:0:0:
415,120,183580,5,2,0:0:0:0:
415,120,183980,1,2,0:0:0:0:
344,170,184380,5,2,0:0:0:0:
344,50,184580,1,2,0:0:0:0:
272,95,184780,6,0,P|239:95|92:91,1,176.000005371094,2|0,0:0|0:0,0:0:0:0:
85,69,185980,5,2,0:0:0:0:
85,69,186380,1,2,0:0:0:0:
34,138,186780,5,2,0:0:0:0:
128,202,186980,1,2,0:0:0:0:
85,274,187180,6,0,P|65:317|169:348,1,176.000005371094,2|0,0:0|0:0,0:0:0:0:
161,337,188380,6,0,B|215:335|215:335|236:343|236:343|296:341,1,132.00000402832,2|2,0:0|0:0,0:0:0:0:
378,364,189180,1,2,0:0:0:0:
458,205,189580,5,2,0:0:0:0:
302,159,189980,5,2,0:0:0:0:
302,159,190380,1,2,0:0:0:0:
370,126,190780,6,0,P|374:188|265:225,1,176.000005371094,2|0,0:0|0:0,0:0:0:0:
265,10,191980,5,2,0:0:0:0:
302,159,192380,5,2,0:0:0:0:
143,44,192580,1,10,0:3:0:0:
125,234,192780,1,6,0:3:0:0:
202,128,192980,1,2,0:0:0:0:
70,144,193180,6,0,P|50:184|49:265,1,120.000004577637,14|0,0:1|0:0,0:0:0:0:
224,242,193780,2,8,P|224:182|201:127,1,120.000004577637,10|8,0:1|0:1,0:1:0:0:
259,21,194380,5,10,0:0:0:0:
383,106,194780,1,0,0:0:0:0:
224,242,195180,2,0,B|246:260|246:260|255:289|255:289|289:338,1,90.0000034332277,10|0,0:1|0:0,0:0:0:0:
314,297,195580,6,0,L|445:283,1,120.000004577637,10|0,0:1|0:0,0:0:0:0:
502,118,196180,2,0,L|371:104,1,120.000004577637,10|8,0:1|0:1,0:0:0:0:
327,40,196780,5,10,0:0:0:0:
222,243,197180,1,0,0:0:0:0:
349,188,197380,1,8,0:1:0:0:
209,106,197580,2,0,B|161:101|186:85|107:85,1,90.0000034332277,10|0,0:1|0:0,0:0:0:0:
88,112,197980,6,0,P|82:152|79:241,1,120.000004577637,10|0,0:1|0:0,0:0:0:0:
163,255,198580,2,0,L|231:240,1,60.0000022888184,10|0,0:1|0:0,0:0:0:0:
226,246,198980,1,10,0:1:0:0:
247,352,199180,6,0,L|390:380,1,120.000004577637,8|0,0:0|0:0,0:0:0:0:
488,183,199980,2,0,P|499:228|445:240,1,90.0000034332277,10|0,0:1|0:0,0:0:0:0:
451,283,200380,5,10,0:0:0:0:
256,88,200580,2,8,B|335:119|277:141|357:177,1,136.000002593994,8|8,0:1|0:1,0:1:0:0:
356,205,201080,1,8,0:1:0:0:
357,205,201180,1,10,0:0:0:0:
159,212,201380,1,8,0:1:0:0:
347,1,201580,5,14,0:1:0:0:
152,18,201780,1,4,0:3:0:0:
152,18,201880,1,4,0:3:0:0:
152,18,201980,5,6,0:3:0:0:
131,45,202080,1,4,0:3:0:0:
118,76,202180,1,4,0:3:0:0:
113,109,202280,1,8,0:3:0:0:
114,147,202380,5,10,0:3:0:0:
70,164,202480,1,8,0:3:0:0:
26,151,202580,1,8,0:3:0:0:
1,111,202680,1,8,0:3:0:0:
5,66,202780,6,0,B|54:57|90:73|90:73|137:58|139:-2,1,176.000005371094,14|0,0:1|0:0,0:0:0:0:
427,57,203380,5,10,0:1:0:0:
236,151,203580,1,0,0:0:0:0:
298,0,203780,1,8,0:1:0:0:
366,215,203980,6,0,P|392:282|405:394,1,176.000005371094,8|0,0:0|0:0,0:0:0:0:
252,245,204580,1,2,0:0:0:0:
252,245,204680,1,2,0:1:0:0:
252,245,204780,1,10,0:1:0:0:
181,377,204980,1,2,0:0:0:0:
17,220,205180,6,0,B|69:229|69:229|91:265|91:265|163:306,1,176.000005371094,10|0,0:1|0:0,0:0:0:0:
260,71,205780,2,0,B|208:80|208:80|186:116|186:116|114:157,1,176.000005371094,10|8,0:0|0:1,0:0:0:0:
363,120,206380,6,0,B|354:75|354:75|372:28,1,88.000002685547,8|0,0:0|0:0,0:0:0:0:
441,6,206780,5,0,0:0:0:0:
284,150,206980,1,8,0:1:0:0:
484,284,207180,1,8,0:1:0:0:
433,342,207580,6,0,B|351:326|409:305|305:292,1,132.00000402832,14|0,0:1|0:0,0:0:0:0:
318,263,207980,2,0,P|369:260|413:244,1,88.000002685547,2|8,0:0|0:1,0:0:0:0:
284,150,208380,2,0,P|233:147|189:131,1,88.000002685547,2|8,0:0|0:1,0:0:0:0:
58,21,208780,6,0,B|42:103|42:103|57:202,1,176.000005371094,10|0,0:0|0:0,0:0:0:0:
8,265,209380,1,2,0:0:0:0:
177,374,209580,2,0,L|94:337,1,88.000002685547,10|0,0:1|0:0,0:0:0:0:
299,323,209980,6,0,B|361:337|403:293|403:293|454:340,1,176.000005371094,10|0,0:1|0:0,0:0:0:0:
256,85,210580,1,8,0:0:0:0:
491,213,210780,5,2,0:0:0:0:
476,74,210980,1,10,0:1:0:0:
274,221,211180,6,0,P|217:218|103:169,1,176.000005371094,10|0,0:0|0:0,0:0:0:0:
356,46,211880,5,8,0:0:0:0:
373,57,211980,1,8,0:0:0:0:
274,221,212180,1,8,0:1:0:0:
481,364,212380,6,0,B|425:357|425:357|385:318|385:318|312:305,1,176.000005371094,14|0,0:1|0:0,0:0:0:0:
170,71,212980,5,10,0:1:0:0:
274,221,213180,1,0,0:0:0:0:
28,89,213380,1,8,0:1:0:0:
286,191,213580,6,0,B|334:179|374:197|374:197|403:157|366:114,1,176.000005371094,8|0,0:0|0:0,0:0:0:0:
155,199,214180,1,2,0:0:0:0:
155,199,214280,1,2,0:0:0:0:
155,199,214380,1,10,0:1:0:0:
253,317,214580,1,2,0:0:0:0:
57,361,214780,6,0,B|21:312|50:238|50:238|89:292,1,176.000005371094,10|0,0:1|0:0,0:0:0:0:
286,191,215380,2,0,B|308:156|308:156|274:67|274:67|249:103,1,176.000005371094,10|10,0:0|0:1,0:0:0:0:
75,21,215980,6,0,B|66:66|66:66|84:106,1,88.000002685547,10|0,0:0|0:0,0:0:0:0:
177,0,216380,5,0,0:0:0:0:
12,140,216580,1,8,0:1:0:0:
286,191,216780,1,8,0:1:0:0:
215,249,217180,6,0,B|198:295|198:295|200:346|256:351,1,132.00000402832,14|0,0:1|0:0,0:0:0:0:
288,364,217580,2,0,L|317:279,1,88.000002685547,2|8,0:0|0:1,0:0:0:0:
512,301,217980,2,0,L|483:216,1,88.000002685547,2|8,0:0|0:1,0:0:0:0:
368,27,218380,6,0,B|418:37|418:37|439:76|439:76|502:145,1,176.000005371094,10|0,0:0|0:0,0:0:0:0:
501,18,218980,1,2,0:0:0:0:
344,108,219180,2,0,B|339:153|339:153|355:200,1,88.000002685547,10|0,0:1|0:0,0:0:0:0:
276,368,219580,6,0,B|234:356|197:376|197:376|193:352|214:324,1,132.00000402832,10|0,0:1|0:0,0:0:0:0:
246,313,219980,5,2,0:0:0:0:
352,193,220180,2,0,P|345:233|341:291,1,88.000002685547,8|2,0:0|0:0,0:0:0:0:
121,326,220580,5,8,0:1:0:0:
15,206,220780,2,0,P|22:246|26:304,1,88.000002685547,10|0,0:0|0:0,0:0:0:0:
133,98,221180,1,0,0:0:0:0:
23,55,221380,5,8,0:0:0:0:
143,225,221580,1,10,0:0:0:0:
258,4,221780,1,6,0:3:0:0:
352,193,221980,6,0,B|268:220|268:220|225:134,1,176.000005371094,14|0,0:1|0:0,0:0:0:0:
441,100,222580,1,8,0:1:0:0:
441,100,222780,2,0,P|466:76|438:38,1,88.000002685547,8|0,0:1|0:0,0:0:0:0:
468,219,223180,5,8,0:0:0:0:
352,193,223380,2,0,P|325:223|350:254,1,88.000002685547,8|0,0:1|0:0,0:0:0:0:
261,53,223780,1,8,0:1:0:0:
203,351,223980,5,10,0:1:0:0:
79,151,224180,1,2,0:0:0:0:
350,254,224380,5,10,0:1:0:0:
354,258,224580,2,8,B|301:255|301:255|268:265|268:265|207:261,1,132.00000402832,8|0,0:1|0:1,0:1:0:0:
209,244,224980,1,8,0:0:0:0:
384,109,225180,2,0,B|390:67|390:67|378:22,1,88.000002685547,2|8,0:0|0:1,0:0:0:0:
214,117,225580,5,10,0:0:0:0:
214,117,225780,2,0,B|208:75|208:75|220:30,1,88.000002685547,8|0,0:1|0:0,0:0:0:0:
209,244,226180,1,8,0:0:0:0:
209,244,226280,1,8,0:0:0:0:
209,244,226380,1,8,0:0:0:0:
222,33,226580,1,4,0:3:0:0:
19,131,226780,6,0,P|32:182|47:306,1,160,14|0,0:1|0:0,0:0:0:0:
339,325,227380,2,8,B|243:295|327:263|186:239,1,160,8|8,0:1|0:1,0:1:0:0:
373,246,227980,6,0,B|398:205|383:140|383:140|340:134|328:169,2,160,10|0|8,0:0|0:0|0:1,0:0:0:0:
379,24,228980,5,2,0:0:0:0:
379,24,229080,1,2,0:0:0:0:
379,24,229180,2,0,B|430:38|430:38|447:70|447:70|521:137,1,160,10|0,0:1|0:0,0:0:0:0:
336,153,229780,2,0,L|304:71,1,80,8|0,0:0|0:0,0:0:0:0:
306,78,230180,1,8,0:1:0:0:
156,203,230380,6,0,L|190:124,1,80,8|0,0:0|0:0,0:0:0:0:
204,42,230780,5,0,0:0:0:0:
145,314,230980,1,8,0:1:0:0:
14,151,231180,1,8,0:1:0:0:
49,146,231580,6,0,B|104:140|132:167|132:167|172:168|189:123,1,160,14|0,0:1|0:0,0:0:0:0:
365,185,232180,2,8,P|377:241|290:231,1,160,8|8,0:1|0:1,0:1:0:0:
339,34,232780,6,0,B|427:56|378:91|471:137,2,160,10|0|8,0:0|0:0|0:1,0:0:0:0:
151,103,233780,5,2,0:0:0:0:
151,103,233880,1,2,0:0:0:0:
151,103,233980,1,10,0:1:0:0:
220,212,234180,1,2,0:0:0:0:
150,22,234380,1,2,0:0:0:0:
76,213,234580,1,10,0:0:0:0:
255,82,234780,1,2,0:0:0:0:
42,83,234980,1,10,0:1:0:0:
231,237,235180,6,0,B|278:241|278:241|312:283|312:283|394:320,1,160,10|0,0:0|0:0,0:0:0:0:
3,326,235880,1,8,0:0:0:0:
8,345,235980,1,8,0:0:0:0:
231,237,236180,1,8,0:1:0:0:
42,83,236380,6,0,B|26:162|26:162|53:253,1,160,14|0,0:1|0:0,0:0:0:0:
304,156,236980,2,8,B|255:139|255:139|225:99|225:99|157:77,1,160,8|8,0:1|0:1,0:1:0:0:
408,103,237580,6,0,P|446:140|448:261,2,160,10|0|8,0:0|0:0|0:1,0:0:0:0:
244,300,238580,5,2,0:0:0:0:
244,300,238680,1,2,0:0:0:0:
244,300,238780,2,0,B|296:310|296:310|324:343|324:343|394:383,1,160,10|0,0:1|0:0,0:0:0:0:
308,225,239380,2,0,B|319:193|319:193|302:146,1,80,8|0,0:0|0:0,0:0:0:0:
303,150,239780,1,8,0:1:0:0:
111,213,239980,6,0,B|104:177|104:177|122:129,1,80,8|0,0:0|0:0,0:0:0:0:
206,155,240380,5,0,0:0:0:0:
41,318,240580,1,8,0:1:0:0:
14,48,240780,1,8,0:1:0:0:
34,30,241180,6,0,B|156:17|84:54|203:37,1,160,14|0,0:1|0:0,0:0:0:0:
440,50,241780,2,8,P|358:70|278:45,1,160,8|8,0:1|0:1,0:1:0:0:
395,244,242380,6,0,B|376:180|421:137|421:137|460:178,2,160,10|0|8,0:0|0:0|0:1,0:0:0:0:
283,168,243380,5,2,0:0:0:0:
283,168,243480,1,2,0:0:0:0:
283,168,243580,1,10,0:1:0:0:
338,337,243780,1,2,0:0:0:0:
190,135,243980,5,2,0:0:0:0:
245,304,244180,1,10,0:0:0:0:
88,102,244380,5,2,0:0:0:0:
143,271,244580,1,10,0:1:0:0:
278,46,244780,6,0,B|237:35|212:51|212:51|185:49|160:6,1,120,10|0,0:0|0:0,0:0:0:0:
164,7,245180,1,2,0:0:0:0:
143,271,245380,5,10,0:0:0:0:
278,46,245580,1,10,0:0:0:0:
245,304,245780,1,10,0:0:0:0:
180,130,245980,5,0,0:0:0:0:
143,271,246380,1,2,0:0:0:0:
289,154,246780,1,2,0:0:0:0:
245,304,247180,5,0,0:0:0:0:
434,172,247580,1,2,0:0:0:0:
213,213,247980,1,2,0:0:0:0:
468,265,248380,5,0,0:0:0:0:
355,183,248780,1,2,0:0:0:0:
495,96,249180,1,2,0:0:0:0:
377,37,249580,5,2,0:0:0:0:
434,172,249780,1,0,0:0:0:0:
365,10,249980,5,2,0:0:0:0:
422,145,250180,1,0,0:0:0:0:
290,42,250380,5,2,0:0:0:0:
355,183,250780,5,0,0:0:0:0:
233,147,251180,1,2,0:0:0:0:
237,322,251580,1,2,0:0:0:0:
373,369,251980,5,0,0:0:0:0:
312,235,252380,1,2,0:0:0:0:
136,356,252780,1,2,0:0:0:0:
61,230,253180,5,0,0:0:0:0:
190,150,253580,1,2,0:0:0:0:
19,65,253980,1,2,0:0:0:0:
153,3,254380,5,2,0:0:0:0:
56,153,254780,1,2,0:0:0:0:
268,74,255180,1,2,0:0:0:0:
175,231,255580,5,0,0:0:0:0:
278,192,255980,1,2,0:0:0:0:
352,337,256380,1,2,0:0:0:0:
466,295,256780,5,0,0:0:0:0:
278,192,257180,1,2,0:0:0:0:
438,156,257580,1,2,0:0:0:0:
254,86,257980,5,0,0:0:0:0:
373,218,258380,1,2,0:0:0:0:
228,359,258780,1,2,0:0:0:0:
91,213,259180,5,2,0:0:0:0:
193,248,259380,1,0,0:0:0:0:
58,185,259580,1,2,0:0:0:0:
160,150,259780,1,0,0:0:0:0:
19,98,259980,5,2,0:0:0:0:
153,0,260380,5,0,0:0:0:0:
160,150,260780,1,2,0:0:0:0:
301,0,261202,1,2,0:0:0:0:
305,152,261663,5,0,0:0:0:0:
397,82,262125,1,2,0:0:0:0:
392,239,262612,1,2,0:0:0:0:
489,177,263112,5,0,0:0:0:0:
305,152,263633,1,2,0:0:0:0:
469,347,264178,1,2,0:0:0:0:
285,322,264844,5,2,0:0:0:0:
392,239,265689,5,2,0:0:0:0:
