osu file format v14

[General]
AudioFilename: audio.mp3
AudioLeadIn: 0
PreviewTime: 102798
Countdown: 0
SampleSet: Soft
StackLeniency: 0.7
Mode: 0
LetterboxInBreaks: 0
WidescreenStoryboard: 1

[Editor]
Bookmarks: 261798
DistanceSpacing: 0.4
BeatDivisor: 4
GridSize: 32
TimelineZoom: 1.7

[Metadata]
Title:Super scription of data
TitleUnicode:Super scription of data
Artist:Eiko Shimamiya
ArtistUnicode:島みや えい子
Creator:itay
Version:Happy Denouement
Source:Higurashi no Naku Koro ni Rei
Tags:dayno when they cry ひぐらしのなく頃に ryukishi07 07th expansion anime op opening visual novel vn kazuya takase frontier works sentai filmworks japanese j-pop jpop pop j-rock jrock rock electronic
BeatmapID:4156946
BeatmapSetID:1999609

[Difficulty]
HPDrainRate:5
CircleSize:4.4
OverallDifficulty:8
ApproachRate:8
SliderMultiplier:1.7
SliderTickRate:1

[Events]
//Background and Video events
0,0,"bg.png",0,0
//Break Periods
2,98225,101638
//Storyboard Layer 0 (Background)
//Storyboard Layer 1 (Fail)
//Storyboard Layer 2 (Pass)
//Storyboard Layer 3 (Foreground)
//Storyboard Layer 4 (Overlay)
//Storyboard Sound Samples

[TimingPoints]
8570,545.454545454546,4,2,1,45,1,0
13342,-90.9090909090909,4,2,1,45,0,0
15524,-86.9565217391304,4,2,1,45,0,0
16342,-86.9565217391304,4,2,5,45,0,0
16479,-86.9565217391304,4,2,1,45,0,0
17298,-66.6666666666667,4,2,1,45,0,0
18661,-100,4,2,1,45,0,0
21661,-66.6666666666667,4,2,1,45,0,0
23161,-100,4,2,1,45,0,0
23843,-66.6666666666667,4,2,1,45,0,0
24525,-100,4,2,1,45,0,0
26025,-100,4,2,1,50,0,0
28207,-66.6666666666667,4,2,1,50,0,0
28888,-100,4,2,1,50,0,0
30388,-66.6666666666667,4,2,1,60,0,0
33798,-66.6666666666667,4,2,1,40,0,0
33866,-66.6666666666667,4,2,1,5,0,0
33934,-66.6666666666667,4,2,1,40,0,0
34002,-66.6666666666667,4,2,1,5,0,0
34070,-66.6666666666667,4,2,1,40,0,0
34138,-66.6666666666667,4,2,1,5,0,0
34207,-66.6666666666667,4,2,1,40,0,0
34752,-66.6666666666667,4,2,1,60,0,0
35161,-83.3333333333333,4,2,1,60,0,0
41298,-83.3333333333333,4,2,1,50,0,0
43479,-100,4,2,1,60,0,0
47707,-100,4,2,1,65,0,0
47843,-100,4,2,1,60,0,0
56570,-83.3333333333333,4,2,1,60,0,0
60934,-83.3333333333333,4,2,1,60,0,0
62570,-83.3333333333333,4,2,5,60,0,0
62707,-83.3333333333333,4,2,1,60,0,0
66934,-83.3333333333333,4,2,5,60,0,0
67070,-83.3333333333333,4,2,1,60,0,0
69661,-83.3333333333333,4,2,1,54,0,0
70070,-100,4,2,1,54,0,0
71298,-100,4,2,5,54,0,0
71434,-100,4,2,1,54,0,0
74024,-76.9230769230769,4,2,1,55,0,0
75661,-76.9230769230769,4,2,5,55,0,0
75798,-76.9230769230769,4,2,1,55,0,0
78388,-66.6666666666667,4,2,1,65,0,1
79206,-76.9230769230769,4,2,1,65,0,1
81116,-66.6666666666667,4,2,1,65,0,1
82752,-76.9230769230769,4,2,1,65,0,1
89298,-83.3333333333333,4,2,1,65,0,1
89843,-74.0740740740741,4,2,1,65,0,1
91479,-76.9230769230769,4,2,1,65,0,1
92025,-66.6666666666667,4,2,1,65,0,1
92570,-76.9230769230769,4,2,1,65,0,1
92979,-66.6666666666667,4,2,1,65,0,1
93252,-68.9655172413793,4,2,1,65,0,1
95842,-68.9655172413793,4,2,1,65,0,0
102388,-83.3333333333333,4,2,1,55,0,0
104570,-62.5,4,2,1,60,0,0
105525,-100,4,2,1,60,0,0
113298,-100,4,2,1,65,0,0
113434,-100,4,2,1,60,0,0
113570,-90.9090909090909,4,2,1,60,0,0
116025,-76.9230769230769,4,2,1,60,0,0
116570,-90.9090909090909,4,2,1,60,0,0
117661,-76.9230769230769,4,2,1,60,0,0
122024,-76.9230769230769,4,2,1,65,0,1
132934,-83.3333333333333,4,2,1,65,0,1
133479,-74.0740740740741,4,2,1,65,0,1
135116,-64.5161290322581,4,2,1,65,0,1
136070,-76.9230769230769,4,2,1,65,0,1
136479,-66.6666666666667,4,2,1,65,0,1
136752,-60.6060606060606,4,2,1,65,0,1
139479,-76.9230769230769,4,2,1,65,0,0
140025,-83.3333333333333,4,2,1,65,0,0
145479,-71.4285714285714,4,2,1,65,0,0
148752,-83.3333333333333,4,2,1,65,0,0
154207,-71.4285714285714,4,2,1,65,0,0
156934,-71.4285714285714,4,2,1,50,0,0
157207,-100,4,2,1,50,0,0
158570,-100,4,2,5,50,0,0
158707,-100,4,2,1,50,0,0
160752,-133.333333333333,4,2,1,50,0,0
161298,-100,4,2,1,50,0,0
162934,-100,4,2,5,50,0,0
163070,-100,4,2,1,50,0,0
167298,-100,4,2,5,50,0,0
167434,-100,4,2,1,50,0,0
171661,-100,4,2,5,50,0,0
171798,-100,4,2,1,50,0,0
172207,-100,4,2,1,55,0,0
174388,-100,4,2,1,50,0,0
183116,-100,4,2,1,45,0,0
189661,-100,4,2,1,60,0,0
191842,-68.9655172413793,4,2,1,65,0,1
202752,-74.0740740740741,4,2,1,65,0,1
203298,-66.6666666666667,4,2,1,65,0,1
204934,-55.5555555555556,4,2,1,65,0,1
206025,-68.9655172413793,4,2,1,65,0,1
206298,-62.5,4,2,1,65,0,1
206707,-58.8235294117647,4,2,1,65,0,1
209297,-66.6666666666667,4,2,1,65,0,0
214479,-71.4285714285714,4,2,1,65,0,0
215025,-64.5161290322581,4,2,1,65,0,0
215570,-58.8235294117647,4,2,1,65,0,0
218025,-66.6666666666667,4,2,1,65,0,0
223207,-71.4285714285714,4,2,1,65,0,0
223752,-64.5161290322581,4,2,1,65,0,0
224298,-58.8235294117647,4,2,1,65,0,0
224570,-66.6666666666667,4,2,1,65,0,0
226751,-54.054054054054,4,2,1,65,0,1
228388,-66.6666666666667,4,2,1,65,0,0
229479,-68.9655172413793,4,2,1,65,0,0
230025,-64.5161290322581,4,2,1,65,0,0
231116,-66.6666666666667,4,2,1,65,0,0
236025,-68.9655172413793,4,2,1,65,0,0
237116,-64.5161290322581,4,2,1,65,0,0
237661,-66.6666666666667,4,2,1,65,0,0
240388,-68.9655172413793,4,2,1,65,0,0
241479,-64.5161290322581,4,2,1,65,0,0
242025,-66.6666666666667,4,2,1,65,0,0
244207,-66.6666666666667,4,2,1,60,0,0
246934,-71.4285714285714,4,2,1,60,0,0
248570,-71.4285714285714,4,2,1,55,0,0
249661,-74.0740740740741,4,2,1,55,0,0
250207,-68.9655172413793,4,2,1,65,0,0
250752,-68.9655172413793,4,2,1,50,0,0
252934,-76.9230769230769,4,2,1,45,0,0
255116,-76.9230769230769,4,2,1,40,0,0
256752,-76.9230769230769,4,2,1,35,0,0
258116,-76.9230769230769,4,2,1,30,0,0
258934,-83.3333333333333,4,2,1,30,0,0
261798,-83.3333333333333,4,2,1,20,0,0
263843,-83.3333333333333,4,2,1,15,0,0
266025,-83.3333333333333,4,2,1,10,0,0

[Colours]
Combo1 : 147,168,173
Combo2 : 230,191,194
Combo3 : 155,94,101
Combo4 : 201,80,90
Combo5 : 144,123,176
Combo6 : 90,102,132

[HitObjects]
98,238,8570,5,0,0:0:0:0:
98,238,8707,1,2,0:0:0:0:
162,321,8979,1,0,0:0:0:0:
153,336,9116,1,2,0:0:0:0:
37,328,9388,2,0,L|78:307,1,42.5,2|0,0:0|0:0,0:0:0:0:
168,205,9660,5,0,0:0:0:0:
168,205,9797,1,2,0:0:0:0:
118,121,10070,5,2,0:0:0:0:
163,61,10343,5,2,0:0:0:0:
179,65,10479,1,2,0:0:0:0:
195,69,10616,1,2,0:0:0:0:
289,0,11161,6,0,L|302:58,1,42.5,2|0,0:0|0:0,0:0:0:0:
244,142,11570,2,0,L|231:200,1,42.5,2|0,0:0|0:0,0:0:0:0:
211,73,11843,1,0,0:0:0:0:
197,62,11979,1,2,0:0:0:0:
331,117,12252,6,0,L|382:102,1,42.5,2|0,0:0|0:0,0:0:0:0:
448,87,12525,1,2,0:0:0:0:
448,87,12661,1,2,0:0:0:0:
448,87,12797,1,2,0:0:0:0:
399,245,13207,5,0,0:0:0:0:
399,245,13343,2,0,L|279:213,1,93.5000028533936,2|0,0:0|0:0,0:0:0:0:
298,236,13751,2,0,L|314:285,1,46.7500014266968,2|0,0:0|0:0,0:0:0:0:
336,349,14025,1,0,0:0:0:0:
233,327,14297,5,0,0:0:0:0:
233,327,14433,2,0,L|113:359,1,93.5000028533936,2|0,0:0|0:0,0:0:0:0:
130,336,14842,2,0,L|144:267,2,46.7500014266968,2|2|0,0:0|0:0|0:0,0:0:0:0:
26,127,15524,6,0,L|132:82,1,97.7500018644333,2|0,0:0|0:0,0:0:0:0:
127,72,15933,2,0,L|195:87,1,48.8750009322167,2|0,0:0|0:0,0:0:0:0:
221,139,16206,1,0,0:0:0:0:
216,161,16342,1,8,0:0:0:0:
245,252,16615,2,0,L|165:337,1,97.7500018644333,2|0,0:0|0:0,0:0:0:0:
158,345,17024,1,2,0:0:0:0:
65,367,17298,6,0,P|43:275|16:231,2,127.500004863739,6|2|2,0:0|0:0|0:0,0:0:0:0:
121,188,18388,1,0,0:0:0:0:
15,139,18661,6,0,L|100:108,1,85,2|0,0:0|0:0,0:0:0:0:
152,59,19070,2,0,L|167:10,1,42.5,2|0,0:0|0:0,0:0:0:0:
193,1,19343,1,2,0:0:0:0:
193,1,19479,1,2,0:0:0:0:
310,91,19752,6,0,L|240:65,1,42.5,2|0,0:0|0:0,0:0:0:0:
406,0,20161,2,0,L|418:72,1,42.5,2|0,0:0|0:0,0:0:0:0:
437,167,20434,1,2,0:0:0:0:
437,167,20570,1,2,0:0:0:0:
362,229,20843,5,2,0:0:0:0:
420,269,20979,1,2,0:0:0:0:
326,328,21252,2,0,L|286:342,1,42.5,2|0,0:0|0:0,0:0:0:0:
204,237,21525,5,0,0:0:0:0:
144,193,21661,2,0,B|156:172|156:172|114:55,1,127.500004863739,2|2,0:0|0:0,0:0:0:0:
97,7,22343,1,2,0:0:0:0:
36,107,22479,1,2,0:0:0:0:
79,94,22616,1,2,0:0:0:0:
121,82,22752,1,2,0:0:0:0:
163,70,22888,1,2,0:0:0:0:
240,109,23025,5,2,0:0:0:0:
304,69,23161,2,0,L|412:36,1,85,2|0,0:0|0:0,0:0:0:0:
507,237,23707,5,0,0:0:0:0:
435,209,23843,2,0,P|452:160|479:77,2,127.500004863739,2|0|0,0:0|0:0|0:0,0:0:0:0:
356,202,24525,2,0,L|303:215,1,42.5,2|2,0:0|0:0,0:0:0:0:
393,295,24798,1,2,0:0:0:0:
393,295,24934,1,2,0:0:0:0:
393,295,25070,1,2,0:0:0:0:
393,295,25207,1,2,0:0:0:0:
430,237,25343,1,2,0:0:0:0:
292,144,25616,6,0,L|250:133,1,42.5,2|0,0:0|0:0,0:0:0:0:
255,0,25888,1,2,0:0:0:0:
255,0,26025,5,2,3:2:0:0:
246,40,26161,1,0,0:0:0:0:
216,72,26297,1,2,3:2:0:0:
172,78,26434,1,0,0:0:0:0:
135,57,26570,1,10,0:0:0:0:
102,185,26843,5,2,0:0:0:0:
64,120,26979,1,2,3:2:0:0:
7,305,27251,5,2,3:2:0:0:
37,266,27387,1,2,3:2:0:0:
86,273,27524,1,0,0:0:0:0:
139,327,27660,1,8,0:0:0:0:
159,333,27798,1,2,0:0:0:0:
179,339,27934,1,0,0:0:0:0:
241,299,28070,1,0,3:2:0:0:
300,338,28207,6,0,P|349:298|405:266,2,127.500004863739,2|2|10,3:2|3:2|0:0,0:0:0:0:
493,359,28888,2,0,P|469:346|454:317,1,42.5,2|0,0:0|0:0,0:0:0:0:
450,200,29161,1,2,3:2:0:0:
450,200,29434,5,0,3:2:0:0:
475,156,29570,1,2,3:2:0:0:
453,110,29706,1,2,0:0:0:0:
382,83,29843,5,8,3:2:0:0:
361,88,29979,1,0,0:0:0:0:
340,93,30116,1,0,0:0:0:0:
292,151,30252,5,2,3:2:0:0:
230,103,30388,2,0,L|105:81,1,127.500004863739,6|2,3:2|0:0,0:0:0:0:
105,157,30798,1,0,0:0:0:0:
96,229,30934,2,0,L|179:243,1,63.7500024318696,10|0,0:0|0:0,0:0:0:0:
240,253,31207,6,0,P|312:306|300:346,1,127.500004863739,6|2,0:0|0:0,0:0:0:0:
229,368,31616,1,10,0:0:0:0:
217,372,31752,1,10,0:0:0:0:
205,377,31888,1,10,0:0:0:0:
193,382,32025,1,10,0:0:0:0:
156,307,32298,5,10,0:0:0:0:
240,253,32570,6,0,L|307:270,1,63.7500024318696,6|0,0:0|0:0,0:0:0:0:
189,153,32843,2,0,L|166:218,1,63.7500024318696,10|2,0:0|0:0,0:0:0:0:
95,256,33116,5,2,3:2:0:0:
78,259,33252,1,10,0:0:0:0:
61,262,33388,1,2,0:0:0:0:
44,265,33525,1,2,3:2:0:0:
14,96,33798,6,0,P|18:108|34:118,1,31.8750012159348,2|0,0:0|0:0,0:0:0:0:
102,123,33934,2,0,P|87:119|74:129,1,31.8750012159348,2|0,0:0|0:0,0:0:0:0:
36,189,34070,2,0,P|43:175|45:159,1,31.8750012159348,2|0,0:0|0:0,0:0:0:0:
23,73,34207,5,2,0:0:0:0:
117,144,34343,5,2,0:0:0:0:
8,191,34479,5,2,0:0:0:0:
50,138,34616,5,2,0:0:0:0:
50,138,34752,1,2,3:2:0:0:
17,313,35025,5,0,0:0:0:0:
82,264,35161,2,0,L|127:390,1,101.999996887207,2|0,0:0|0:0,0:0:0:0:
218,129,35570,2,0,L|246:208,1,50.9999984436036,2|0,0:0|0:0,0:0:0:0:
283,80,35843,1,0,3:2:0:0:
422,371,36116,5,0,0:0:0:0:
471,306,36252,2,0,L|345:261,1,101.999996887207,2|0,0:0|0:0,0:0:0:0:
309,313,36661,1,2,0:0:0:0:
309,313,36798,1,0,0:0:0:0:
283,241,36934,1,0,3:2:0:0:
451,187,37207,5,0,0:0:0:0:
369,177,37343,2,0,L|422:54,1,101.999996887207,2|0,0:0|0:0,0:0:0:0:
213,49,37752,2,0,L|245:-27,1,50.9999984436036,2|0,0:0|0:0,0:0:0:0:
307,0,38025,1,0,3:2:0:0:
103,38,38298,5,0,0:0:0:0:
152,103,38434,2,0,L|26:148,1,101.999996887207,2|0,0:0|0:0,0:0:0:0:
0,184,38843,1,2,0:0:0:0:
0,184,38979,1,0,3:2:0:0:
168,305,39388,5,0,0:0:0:0:
67,321,39525,2,0,L|162:396,1,101.999996887207,2|0,3:2|0:0,0:0:0:0:
285,255,39934,2,0,L|237:292,1,50.9999984436036,2|0,0:0|0:0,0:0:0:0:
162,307,40207,2,0,L|187:196,1,101.999996887207,0|0,3:2|0:0,0:0:0:0:
243,156,40616,2,0,L|230:100,2,50.9999984436036,2|8|0,0:0|0:0|0:0,0:0:0:0:
210,19,41025,1,2,0:0:0:0:
339,113,41298,5,0,0:0:0:0:
372,100,41434,1,0,0:0:0:0:
382,65,41570,1,0,0:0:0:0:
219,229,41843,5,10,0:0:0:0:
228,250,41979,1,0,0:0:0:0:
254,257,42115,1,0,0:0:0:0:
191,40,42388,5,2,0:0:0:0:
144,43,42524,1,0,0:0:0:0:
119,84,42660,1,0,0:0:0:0:
129,125,42798,1,0,0:0:0:0:
172,147,42934,5,2,0:0:0:0:
181,166,43070,5,2,0:0:0:0:
177,188,43207,5,2,0:0:0:0:
165,198,43343,5,2,0:0:0:0:
124,211,43479,6,0,P|59:196|0:184,1,127.5,6|0,3:2|0:0,0:0:0:0:
158,58,44025,1,8,0:0:0:0:
132,43,44161,2,0,L|120:3,2,42.5,0|2|0,0:0|0:0|0:0,0:0:0:0:
154,132,44570,1,2,3:2:0:0:
224,102,44707,1,2,0:0:0:0:
26,43,44979,5,0,3:2:0:0:
69,107,45116,1,10,0:0:0:0:
59,130,45252,1,2,0:0:0:0:
50,153,45388,1,2,3:2:0:0:
39,176,45525,1,2,0:0:0:0:
88,232,45661,5,0,3:2:0:0:
188,191,45934,1,2,0:0:0:0:
60,322,46207,2,0,L|110:298,1,42.5,8|0,0:0|0:0,0:0:0:0:
203,375,46479,2,0,L|167:351,1,42.5
242,266,46752,5,2,3:2:0:0:
277,348,46888,1,0,0:0:0:0:
301,340,47025,1,2,0:0:0:0:
324,330,47161,1,0,3:2:0:0:
400,349,47298,5,10,0:0:0:0:
317,296,47434,1,2,3:2:0:0:
417,233,47707,6,0,P|431:188|454:127,1,85,6|0,3:2|3:2,0:0:0:0:
411,19,48116,2,0,L|446:65,1,42.5,2|0,0:0|3:2,0:0:0:0:
369,104,48388,2,0,L|323:139,1,42.5,10|0,0:0|0:0,0:0:0:0:
269,74,48661,2,0,L|215:51,1,42.5,2|0,0:0|0:0,0:0:0:0:
173,7,48934,1,2,3:2:0:0:
173,7,49070,1,2,0:0:0:0:
90,66,49343,5,2,3:2:0:0:
147,114,49479,1,10,0:0:0:0:
157,140,49616,1,2,0:0:0:0:
167,166,49752,2,0,L|211:141,1,42.5,2|0,3:2|0:0,0:0:0:0:
75,150,50025,6,0,L|31:253,1,85,2|2,3:2|0:0,0:0:0:0:
111,267,50434,2,0,L|151:240,1,42.5,2|8,0:0|0:0,0:0:0:0:
0,296,50707,1,0,0:0:0:0:
57,343,50843,2,0,L|64:390,1,42.5,2|0,0:0|3:2,0:0:0:0:
197,302,51116,6,0,P|215:301|245:334,1,42.5,2|0,3:2|0:0,0:0:0:0:
312,384,51388,2,0,P|302:368|315:326,1,42.5,2|0,3:2|0:0,0:0:0:0:
355,288,51661,1,10,0:0:0:0:
380,248,51798,1,0,3:2:0:0:
405,209,51934,1,2,3:2:0:0:
431,170,52070,1,0,3:2:0:0:
395,100,52207,6,0,L|319:78,1,42.5,6|0,3:2|0:0,0:0:0:0:
284,126,52479,2,0,L|327:218,1,85,2|8,0:0|0:0,0:0:0:0:
453,61,52888,1,0,0:0:0:0:
453,61,53025,2,0,L|487:-12,1,42.5,2|0,0:0|0:0,0:0:0:0:
381,90,53298,1,2,3:2:0:0:
343,26,53434,1,2,0:0:0:0:
462,141,53707,5,2,3:2:0:0:
403,184,53843,1,10,0:0:0:0:
395,208,53979,1,2,0:0:0:0:
387,232,54116,1,2,3:2:0:0:
379,256,54252,1,2,0:0:0:0:
445,298,54388,5,0,3:2:0:0:
375,384,54661,1,2,0:0:0:0:
297,249,54934,1,10,0:0:0:0:
297,249,55070,1,0,0:0:0:0:
297,249,55207,1,2,0:0:0:0:
372,310,55479,5,2,3:2:0:0:
305,343,55616,2,0,L|290:383,1,42.5,0|2,0:0|0:0,0:0:0:0:
281,232,55888,5,0,3:2:0:0:
315,166,56025,1,10,0:0:0:0:
305,142,56161,1,2,0:0:0:0:
295,117,56298,1,0,3:2:0:0:
285,93,56434,1,0,0:0:0:0:
216,66,56570,6,0,P|182:80|186:153,1,101.999996887207,2|0,3:2|0:0,0:0:0:0:
250,281,56980,1,0,0:0:0:0:
206,344,57116,2,0,L|170:391,1,50.9999984436036,10|0,0:0|0:0,0:0:0:0:
138,219,57388,2,0,L|185:238,1,50.9999984436036,2|0,0:0|0:0,0:0:0:0:
28,140,57661,5,2,3:2:0:0:
0,172,57797,1,2,0:0:0:0:
14,209,57933,1,0,0:0:0:0:
54,216,58070,1,2,3:2:0:0:
117,177,58206,5,10,0:0:0:0:
126,170,58343,1,2,0:0:0:0:
136,164,58479,1,2,3:2:0:0:
148,157,58616,1,0,0:0:0:0:
197,102,58752,5,2,3:2:0:0:
185,86,58888,1,0,3:2:0:0:
176,71,59025,1,2,3:2:0:0:
166,56,59161,1,0,3:2:0:0:
140,47,59298,6,0,L|158:-2,1,50.9999984436036,10|0,0:0|0:0,0:0:0:0:
17,141,59570,2,0,L|-1:92,1,50.9999984436036,2|0,3:2|3:2,0:0:0:0:
106,139,59843,5,10,0:0:0:0:
133,144,59979,1,8,0:0:0:0:
160,148,60116,1,8,0:0:0:0:
188,152,60252,1,0,0:0:0:0:
233,160,60388,5,10,0:0:0:0:
284,169,60525,5,10,0:0:0:0:
339,178,60661,5,10,0:0:0:0:
400,189,60798,5,10,0:0:0:0:
467,201,60934,5,6,3:2:0:0:
355,350,61207,5,0,0:0:0:0:
421,384,61343,2,0,B|437:336|437:336|392:278,1,101.999996887207,2|0,3:2|0:0,0:0:0:0:
364,112,61752,2,0,L|342:170,1,50.9999984436036,2|0,0:0|0:0,0:0:0:0:
441,107,62025,1,0,3:2:0:0:
408,40,62161,1,0,0:0:0:0:
424,184,62434,5,2,3:2:0:0:
512,161,62570,1,8,0:0:0:0:
502,190,62707,1,2,0:0:0:0:
493,219,62843,1,2,3:2:0:0:
483,247,62979,1,2,0:0:0:0:
459,316,63116,5,0,3:2:0:0:
163,94,63388,5,0,0:0:0:0:
112,39,63524,2,0,B|81:80|81:80|97:128,1,101.999996887207,2|0,3:2|0:0,0:0:0:0:
241,69,63934,2,0,L|216:8,1,50.9999984436036,2|0,0:0|0:0,0:0:0:0:
67,227,64207,2,0,L|114:207,1,50.9999984436036,0|0,3:2|0:0,0:0:0:0:
263,160,64616,5,2,3:2:0:0:
189,142,64752,1,8,0:0:0:0:
185,112,64888,1,2,0:0:0:0:
181,82,65025,1,2,3:2:0:0:
177,52,65161,1,2,3:2:0:0:
112,12,65298,5,2,0:0:0:0:
58,307,65570,5,0,0:0:0:0:
0,208,65707,2,0,B|13:197|13:197|87:238,1,101.999996887207,2|0,3:2|0:0,0:0:0:0:
214,346,66116,2,0,L|193:255,1,50.9999984436036,2|0,0:0|0:0,0:0:0:0:
291,322,66388,5,0,3:2:0:0:
300,302,66525,1,2,0:0:0:0:
309,283,66661,1,2,0:0:0:0:
318,264,66798,1,2,3:2:0:0:
367,205,66934,5,8,0:0:0:0:
353,177,67071,1,2,0:0:0:0:
340,149,67207,1,2,3:2:0:0:
327,121,67342,1,2,0:0:0:0:
351,51,67479,5,0,3:2:0:0:
434,294,67751,5,0,0:0:0:0:
502,323,67888,2,0,B|504:340|504:340|432:385,1,101.999996887207,2|0,3:2|0:0,0:0:0:0:
462,201,68297,2,0,L|477:148,1,50.9999984436036,2|0,0:0|3:2,0:0:0:0:
299,314,68570,6,0,L|352:329,1,50.9999984436036,0|0,3:2|0:0,0:0:0:0:
207,187,68842,2,0,L|192:240,1,50.9999984436036,0|2,0:0|0:0,0:0:0:0:
278,161,69115,5,8,0:0:0:0:
257,119,69251,1,2,0:0:0:0:
237,77,69388,1,2,3:2:0:0:
217,35,69524,1,2,3:2:0:0:
142,48,69660,6,0,P|87:34|26:18,1,101.999996887207,6|0,3:2|0:0,0:0:0:0:
0,90,70070,2,0,L|15:132,1,42.5,0|8,0:0|0:0,0:0:0:0:
124,170,70479,2,0,L|109:212,1,42.5
78,298,70751,1,0,3:2:0:0:
212,363,71024,5,0,0:0:0:0:
153,307,71160,2,0,L|216:284,1,42.5,0|8,3:2|0:0,0:0:0:0:
334,349,71570,2,0,L|271:326,1,42.5,0|0,3:2|0:0,0:0:0:0:
176,282,71842,1,0,3:2:0:0:
258,177,72115,5,0,0:0:0:0:
197,134,72251,2,0,L|181:69,1,42.5,0|8,3:2|0:0,0:0:0:0:
364,36,72660,2,0,L|353:77,1,42.5,0|0,3:2|0:0,0:0:0:0:
323,214,72933,1,0,3:2:0:0:
316,222,73206,5,0,0:0:0:0:
325,240,73342,1,0,3:2:0:0:
394,210,73479,5,8,0:0:0:0:
427,204,73615,1,0,0:0:0:0:
460,198,73751,1,0,3:2:0:0:
493,193,73888,1,0,0:0:0:0:
500,282,74024,6,0,B|487:316|487:316|490:325|490:325|461:391,1,110.499994941712,0|0,3:2|0:0,0:0:0:0:
398,356,74434,1,0,3:2:0:0:
433,256,74570,2,0,L|388:173,1,55.2499974708558,8|0,0:0|0:0,0:0:0:0:
313,66,74843,2,0,L|377:-3,1,55.2499974708558
504,129,75116,5,0,3:2:0:0:
484,131,75252,1,0,3:2:0:0:
464,135,75388,1,0,3:2:0:0:
443,139,75525,1,0,3:2:0:0:
368,147,75661,5,8,0:0:0:0:
332,141,75798,1,0,3:2:0:0:
296,135,75934,1,0,3:2:0:0:
260,130,76070,1,0,3:2:0:0:
240,54,76206,5,4,3:2:0:0:
191,24,76342,1,0,3:2:0:0:
137,33,76479,1,0,3:2:0:0:
103,75,76615,1,0,3:2:0:0:
104,131,76751,1,8,0:0:0:0:
142,167,76888,1,0,3:2:0:0:
148,220,77024,1,4,3:2:0:0:
116,267,77160,1,4,3:2:0:0:
63,280,77297,5,0,3:2:0:0:
51,253,77433,1,8,0:0:0:0:
0,238,77570,5,0,3:2:0:0:
12,217,77706,1,0,3:2:0:0:
4,164,77842,5,8,0:0:0:0:
21,164,77979,1,0,3:2:0:0:
70,132,78115,5,8,0:0:0:0:
74,143,78251,1,0,3:2:0:0:
122,175,78388,6,0,L|84:304,2,127.500004863739,6|2|8,3:2|0:0|0:0,0:0:0:0:
160,99,79070,1,0,0:0:0:0:
89,59,79206,2,0,L|69:1,1,55.2499974708558,2|0,0:0|0:0,0:0:0:0:
228,48,79479,1,0,3:2:0:0:
255,42,79615,1,0,0:0:0:0:
282,36,79751,1,2,0:0:0:0:
309,30,79888,1,0,3:2:0:0:
378,63,80024,1,8,0:0:0:0:
468,215,80298,5,2,3:2:0:0:
420,124,80434,1,0,0:0:0:0:
487,148,80570,2,0,L|516:91,1,55.2499974708558,2|0,3:2|0:0,0:0:0:0:
379,256,80843,2,0,L|392:193,1,55.2499974708558,2|0,0:0|0:0,0:0:0:0:
318,0,81116,2,0,L|360:87,1,95.6250036478044,10|0,0:0|0:0,0:0:0:0:
348,105,81388,1,2,0:0:0:0:
312,215,81661,5,2,3:2:0:0:
242,184,81798,1,2,0:0:0:0:
340,367,82070,5,2,3:2:0:0:
340,367,82207,1,10,0:0:0:0:
384,287,82479,1,0,3:2:0:0:
196,364,82752,6,0,L|263:336,1,55.2499974708558,2|0,3:2|0:0,0:0:0:0:
130,295,83025,2,0,L|35:255,1,82.8749962062838,2|0,0:0|0:0,0:0:0:0:
29,250,83298,2,0,P|6:221|53:159,1,110.499994941712,10|2,0:0|0:0,0:0:0:0:
233,170,83707,5,0,0:0:0:0:
137,116,83843,2,0,L|196:100,1,55.2499974708558,2|0,3:2|0:0,0:0:0:0:
210,272,84116,2,0,L|159:220,1,55.2499974708558,2|0,0:0|0:0,0:0:0:0:
290,227,84388,2,0,P|359:200|412:177,1,110.499994941712,10|0,0:0|0:0,0:0:0:0:
460,159,84798,5,0,0:0:0:0:
512,211,84934,2,0,L|483:258,1,55.2499974708558,2|0,3:2|0:0,0:0:0:0:
350,122,85207,2,0,L|317:20,1,82.8749962062838,2|0,0:0|0:0,0:0:0:0:
315,19,85479,1,8,0:0:0:0:
439,134,85752,1,2,0:0:0:0:
460,124,85888,1,0,3:2:0:0:
480,113,86025,1,2,3:2:0:0:
335,195,86298,5,2,0:0:0:0:
304,227,86434,1,0,0:0:0:0:
303,271,86571,1,10,0:0:0:0:
331,305,86707,1,2,0:0:0:0:
373,318,86843,1,2,3:2:0:0:
414,300,86979,1,2,3:2:0:0:
452,229,87116,6,0,L|422:125,1,55.2499974708558,6|0,3:2|0:0,0:0:0:0:
305,132,87388,2,0,B|284:58|284:58|380:-26,1,165.749992412568,2|0,0:0|0:0,0:0:0:0:
198,249,87934,5,2,0:0:0:0:
244,311,88070,2,0,L|228:364,1,55.2499974708558,0|0,0:0|3:2,0:0:0:0:
120,251,88343,5,0,0:0:0:0:
40,211,88479,2,0,B|96:146|96:146|175:167,1,165.749992412568,2|0,0:0|0:0,0:0:0:0:
173,166,89298,6,0,L|90:180,1,50.9999984436036,2|0,3:2|0:0,0:0:0:0:
78,83,89570,2,0,L|-1:53,1,50.9999984436036,2|0,0:0|0:0,0:0:0:0:
227,274,89843,6,0,L|280:209,1,57.3750002188683,10|0,0:0|0:0,0:0:0:0:
266,0,90116,2,0,L|260:84,1,57.3750002188683,2|0,0:0|0:0,0:0:0:0:
285,161,90388,5,2,3:2:0:0:
200,124,90525,1,2,0:0:0:0:
244,282,90798,5,2,0:0:0:0:
244,282,90933,1,10,0:0:0:0:
258,352,91207,1,0,3:2:0:0:
388,242,91479,6,0,L|324:219,1,55.2499974708558,2|0,3:2|0:0,0:0:0:0:
124,139,91752,2,0,L|175:121,1,55.2499974708558
270,126,92025,6,0,P|262:176|249:254,1,127.500004863739,10|0,0:0|0:0,0:0:0:0:
296,25,92434,1,0,0:0:0:0:
229,59,92570,2,0,B|209:37|209:37|222:-8,1,55.2499974708558,2|2,3:2|0:0,0:0:0:0:
252,202,92843,5,0,0:0:0:0:
330,181,92979,2,0,B|347:212|347:212|331:249,1,63.7500024318696,2|8,3:2|0:0,0:0:0:0:
186,140,93251,5,0,0:0:0:0:
186,140,93388,2,0,L|321:112,1,123.250003761292,2|2,0:0|3:2,0:0:0:0:
407,160,93798,1,0,3:2:0:0:
463,177,93934,1,2,0:0:0:0:
500,131,94070,1,0,3:2:0:0:
466,80,94207,1,10,0:0:0:0:
406,98,94343,1,0,0:0:0:0:
407,160,94479,1,2,3:2:0:0:
405,221,94616,1,8,0:0:0:0:
347,241,94752,5,2,3:2:0:0:
316,188,94888,1,8,0:0:0:0:
254,188,95025,1,8,0:0:0:0:
242,127,95161,1,2,0:0:0:0:
294,95,95298,5,0,3:2:0:0:
348,65,95434,1,8,0:0:0:0:
334,4,95570,1,2,3:2:0:0:
273,0,95707,1,8,3:2:0:0:
251,55,95842,5,6,3:2:0:0:
256,192,95979,12,0,98025,0:0:0:0:
201,349,102388,6,0,P|176:276|152:230,1,101.999996887207,8|0,0:0|0:0,0:0:0:0:
308,138,102934,2,0,P|331:64|355:18,1,101.999996887207,10|0,0:0|0:0,0:0:0:0:
222,154,103343,1,8,0:0:0:0:
241,83,103479,1,10,0:0:0:0:
219,42,103616,1,0,0:0:0:0:
180,18,103752,1,0,3:2:0:0:
135,12,103888,1,0,0:0:0:0:
73,57,104025,5,10,0:0:0:0:
67,76,104161,1,0,0:0:0:0:
70,96,104298,1,0,3:2:0:0:
81,111,104434,1,8,0:0:0:0:
121,173,104570,6,0,P|98:226|61:320,2,136,6|2|8,3:2|0:0|0:0,0:0:0:0:
225,355,105525,1,2,0:0:0:0:
289,316,105661,2,0,L|270:260,1,42.5,2|0,3:2|0:0,0:0:0:0:
251,192,106070,5,2,3:2:0:0:
251,192,106207,1,10,0:0:0:0:
364,107,106479,2,0,L|346:154,1,42.5,0|0,3:2|0:0,0:0:0:0:
481,81,106752,6,0,L|403:46,1,85,0|2,3:2|0:0,0:0:0:0:
334,218,107298,2,0,L|364:297,1,85,8|0,0:0|0:0,0:0:0:0:
200,134,107843,6,0,L|161:151,1,42.5,2|0,3:2|0:0,0:0:0:0:
153,285,108116,2,0,L|168:245,1,42.5,2|0,0:0|3:2,0:0:0:0:
99,120,108388,1,2,3:2:0:0:
53,67,108525,2,0,L|37:27,1,42.5,2|0,0:0|0:0,0:0:0:0:
9,266,108798,6,0,P|39:215|118:205,1,127.5,2|2,3:2|0:0,0:0:0:0:
128,367,109479,1,10,0:0:0:0:
287,342,109752,2,0,L|197:308,1,85,2|0,0:0|3:2,0:0:0:0:
175,301,110161,1,2,0:0:0:0:
175,301,110298,1,2,0:0:0:0:
295,94,110570,6,0,L|236:70,1,42.5,8|0,0:0|0:0,0:0:0:0:
208,221,110843,2,0,L|267:197,1,42.5,0|0,3:2|0:0,0:0:0:0:
349,148,111116,1,2,3:2:0:0:
245,10,111388,5,2,0:0:0:0:
245,10,111525,2,0,L|317:-9,1,42.5,2|8,0:0|0:0,0:0:0:0:
219,132,111934,1,2,0:0:0:0:
137,23,112207,6,0,B|130:31|130:31|120:33|120:33|125:24|125:24|137:23,1,42.5,2|0,3:2|0:0,0:0:0:0:
52,0,112479,2,0,B|58:8|58:8|56:18|56:18|50:11|50:11|52:0,1,42.5,2|0,0:0|0:0,0:0:0:0:
60,145,112752,2,0,B|60:134|60:134|67:127|67:127|68:137|68:137|60:145,1,42.5,10|0,0:0|0:0,0:0:0:0:
147,113,113025,2,0,B|136:109|136:109|132:100|132:100|141:102|141:102|147:113,1,42.5,2|8,3:2|0:0,0:0:0:0:
3,77,113298,6,0,B|13:73|13:73|22:78|22:78|13:82|13:82|3:77,1,42.5,6|0,3:2|0:0,0:0:0:0:
137,23,113570,6,0,L|241:42,1,93.5000028533936,2|8,0:0|0:0,0:0:0:0:
307,140,113979,1,0,0:0:0:0:
239,184,114116,2,0,L|221:124,1,46.7500014266968,2|0,0:0|0:0,0:0:0:0:
257,72,114388,1,2,3:2:0:0:
286,6,114525,1,2,0:0:0:0:
429,59,114798,5,0,3:2:0:0:
377,112,114934,1,10,0:0:0:0:
382,139,115070,1,2,0:0:0:0:
388,166,115207,1,2,3:2:0:0:
394,193,115343,1,2,0:0:0:0:
362,263,115479,6,0,L|346:323,1,46.7500014266968,0|0,3:2|0:0,0:0:0:0:
468,235,115752,1,2,0:0:0:0:
292,146,116025,6,0,P|215:156|186:252,1,165.749992412568,10|0,0:0|0:0,0:0:0:0:
75,67,116570,2,0,L|6:54,1,46.7500014266968,2|0,3:2|0:0,0:0:0:0:
109,201,116843,2,0,L|85:134,1,46.7500014266968
215,296,117116,1,10,0:0:0:0:
126,349,117252,2,0,L|149:282,2,46.7500014266968,2|0|0,0:0|3:2|0:0,0:0:0:0:
268,223,117661,6,0,P|307:234|380:254,1,110.499994941712,2|0,3:2|0:0,0:0:0:0:
439,153,118070,1,0,0:0:0:0:
387,103,118207,2,0,B|385:78|385:78|422:58,1,55.2499974708558,10|0,0:0|0:0,0:0:0:0:
459,224,118479,2,0,B|473:244|473:244|451:280,1,55.2499974708558,2|0,0:0|0:0,0:0:0:0:
316,132,118752,5,0,3:2:0:0:
269,126,118888,1,0,0:0:0:0:
243,86,119025,1,0,0:0:0:0:
255,41,119161,1,0,3:2:0:0:
197,0,119298,5,8,0:0:0:0:
183,4,119434,1,0,0:0:0:0:
169,8,119570,1,2,3:2:0:0:
155,12,119707,1,0,0:0:0:0:
88,49,119843,5,2,3:2:0:0:
102,85,119979,1,8,0:0:0:0:
117,121,120116,1,10,0:0:0:0:
134,157,120252,1,0,3:2:0:0:
192,210,120388,6,0,L|257:185,1,55.2499974708558,8|0,0:0|0:0,0:0:0:0:
53,167,120661,2,0,L|28:216,1,55.2499974708558,2|8,3:2|0:0,0:0:0:0:
0,304,120934,5,2,3:2:0:0:
2,350,121070,1,8,0:0:0:0:
42,384,121207,1,8,0:0:0:0:
90,372,121343,1,0,3:2:0:0:
117,330,121479,5,10,3:2:0:0:
102,276,121616,5,10,3:2:0:0:
85,219,121752,5,10,3:2:0:0:
66,156,121889,5,10,3:2:0:0:
47,87,122024,6,0,L|77:22,1,55.2499974708558,6|0,3:2|0:0,0:0:0:0:
242,227,122298,2,0,P|190:201|134:176,1,110.499994941712,2|8,0:0|0:0,0:0:0:0:
289,168,122707,1,0,0:0:0:0:
202,296,122843,2,0,P|226:351|275:361,1,110.499994941712,2|0,0:0|3:2,0:0:0:0:
339,308,123252,1,0,0:0:0:0:
370,298,123388,1,2,0:0:0:0:
401,288,123525,1,0,0:0:0:0:
461,331,123661,1,8,0:0:0:0:
311,383,123934,5,2,0:0:0:0:
329,308,124070,1,0,0:0:0:0:
347,231,124207,2,0,L|289:209,1,55.2499974708558,2|0,3:2|0:0,0:0:0:0:
221,278,124479,2,0,L|169:297,1,55.2499974708558,2|0,0:0|0:0,0:0:0:0:
215,93,124752,2,0,L|267:110,1,55.2499974708558,10|0,0:0|0:0,0:0:0:0:
73,131,125025,2,0,L|48:81,1,55.2499974708558,2|0,0:0|0:0,0:0:0:0:
138,182,125298,5,2,3:2:0:0:
90,247,125434,1,2,0:0:0:0:
127,38,125707,5,2,3:2:0:0:
140,69,125842,1,10,0:0:0:0:
226,163,126116,1,0,3:2:0:0:
54,181,126388,6,0,L|-3:170,1,55.2499974708558,2|0,3:2|0:0,0:0:0:0:
34,384,126661,2,0,L|77:294,1,82.8749962062838,2|0,0:0|0:0,0:0:0:0:
83,288,126934,2,0,P|138:293|137:360,1,110.499994941712,10|0,0:0|0:0,0:0:0:0:
150,172,127343,5,0,0:0:0:0:
212,243,127479,2,0,L|237:186,1,55.2499974708558,2|0,3:2|0:0,0:0:0:0:
255,36,127752,1,2,0:0:0:0:
164,2,127888,2,0,L|187:52,2,55.2499974708558,2|8|2,3:2|0:0|0:0,0:0:0:0:
62,117,128298,2,0,L|144:97,1,55.2499974708558,2|0,3:2|0:0,0:0:0:0:
297,206,128570,6,0,L|164:155,2,110.499994941712,2|2|8,3:2|0:0|0:0,0:0:0:0:
297,206,129388,2,0,L|352:181,1,55.2499974708558,2|0,0:0|3:2,0:0:0:0:
479,99,129661,5,2,3:2:0:0:
451,73,129798,1,0,0:0:0:0:
425,50,129934,1,2,0:0:0:0:
399,28,130070,1,0,0:0:0:0:
354,85,130207,5,10,0:0:0:0:
340,92,130343,1,0,0:0:0:0:
327,101,130479,1,2,3:2:0:0:
314,110,130616,1,8,0:0:0:0:
255,64,130752,6,0,L|157:35,1,55.2499974708558,6|0,3:2|0:0,0:0:0:0:
61,171,131025,2,0,B|13:103|13:103|59:34,1,165.749992412568,2|0,0:0|0:0,0:0:0:0:
58,270,131570,5,2,0:0:0:0:
81,343,131707,2,0,L|133:324,1,55.2499974708558,0|0,0:0|3:2,0:0:0:0:
297,280,131979,5,0,0:0:0:0:
341,353,132116,2,0,B|263:380|263:380|209:316,1,165.749992412568,2|0,0:0|0:0,0:0:0:0:
203,191,132661,1,2,0:0:0:0:
203,191,132934,6,0,L|182:127,1,50.9999984436036,2|0,3:2|0:0,0:0:0:0:
43,75,133207,2,0,L|64:11,1,50.9999984436036,2|0,0:0|0:0,0:0:0:0:
56,211,133479,6,0,L|114:177,1,57.3750002188683,10|0,0:0|0:0,0:0:0:0:
256,109,133752,2,0,L|314:142,1,57.3750002188683,2|0,0:0|0:0,0:0:0:0:
221,24,134025,5,2,3:2:0:0:
131,55,134161,1,2,0:0:0:0:
241,222,134434,5,2,3:2:0:0:
253,197,134570,1,10,0:0:0:0:
172,153,134843,1,0,3:2:0:0:
223,374,135116,6,0,P|254:263|268:215,2,131.750001005173,2|2|10,3:2|0:0|0:0,0:0:0:0:
175,30,136070,1,0,0:0:0:0:
235,83,136207,2,0,B|256:62|256:62|249:16,1,55.2499974708558,2|0,3:2|0:0,0:0:0:0:
258,247,136479,2,0,B|235:268|235:268|241:319,1,63.7500024318696,2|0,0:0|0:0,0:0:0:0:
331,187,136752,5,10,0:0:0:0:
331,187,136888,2,0,L|189:153,1,140.250001337528,2|0,0:0|0:0,0:0:0:0:
125,109,137298,5,0,3:2:0:0:
157,54,137434,1,0,3:2:0:0:
126,2,137570,1,2,0:0:0:0:
66,5,137707,1,0,3:2:0:0:
37,56,137843,1,10,0:0:0:0:
69,107,137979,1,0,0:0:0:0:
125,109,138116,1,2,3:2:0:0:
176,140,138252,1,8,0:0:0:0:
148,194,138388,5,2,3:2:0:0:
206,211,138525,1,8,0:0:0:0:
195,269,138661,1,8,0:0:0:0:
155,312,138798,1,0,0:0:0:0:
168,367,138934,5,10,0:0:0:0:
228,384,139070,1,8,0:0:0:0:
269,341,139207,1,2,3:2:0:0:
255,284,139343,1,8,3:2:0:0:
195,269,139479,5,6,3:2:0:0:
145,83,139752,1,2,0:0:0:0:
238,203,140025,6,0,B|217:198|206:170|206:170|170:162|71:234|131:242|158:280|127:302|85:332|60:357|60:357|57:317|8:250|39:208|127:267|85:135|44:119|44:119|12:132|-2:119,1,611.999981323243,10|0,0:0|3:2,0:0:0:0:
351,97,142207,2,0,B|340:68|322:60|322:60|337:7|337:7|373:47|373:47|361:67|366:97,2,203.999993774414,8|0|8,0:0|3:2|0:0,0:0:0:0:
378,167,143570,1,0,3:2:0:0:
407,307,143843,5,2,3:2:0:0:
339,279,143979,1,2,0:0:0:0:
238,366,144252,5,2,0:0:0:0:
248,348,144388,1,10,0:0:0:0:
144,268,144661,2,0,L|199:297,1,50.9999984436036,0|8,0:0|0:0,0:0:0:0:
58,254,144934,5,2,3:2:0:0:
26,220,145070,1,2,0:0:0:0:
34,174,145207,1,2,0:0:0:0:
76,156,145343,1,2,3:2:0:0:
150,184,145479,6,0,L|127:240,1,59.4999981842042,8|0,0:0|0:0,0:0:0:0:
215,320,145752,2,0,L|271:294,1,59.4999981842042,0|0,3:2|0:0,0:0:0:0:
258,165,146025,5,0,3:2:0:0:
289,124,146161,1,0,0:0:0:0:
294,71,146297,1,2,0:0:0:0:
272,25,146434,1,0,0:0:0:0:
225,1,146570,1,10,0:0:0:0:
194,42,146707,1,0,0:0:0:0:
188,93,146842,1,2,0:0:0:0:
210,138,146980,1,0,3:2:0:0:
258,165,147116,5,2,3:2:0:0:
325,180,147252,1,0,0:0:0:0:
360,238,147388,1,0,3:2:0:0:
345,308,147524,1,0,0:0:0:0:
285,342,147660,5,10,0:0:0:0:
218,327,147797,1,0,0:0:0:0:
183,266,147933,1,2,3:2:0:0:
199,199,148070,1,8,0:0:0:0:
258,165,148207,5,6,3:2:0:0:
303,345,148479,1,2,0:0:0:0:
480,278,148752,6,0,B|453:355|333:332|322:260|350:209|376:196|376:196|419:211|434:188|476:203|476:203|514:188|535:137|524:65|400:41|382:135,1,611.999981323243,10|0,0:0|3:2,0:0:0:0:
198,358,150934,6,0,P|143:344|117:300,1,101.999996887207,8|0,0:0|0:0,0:0:0:0:
268,234,151479,2,0,P|283:288|259:332,1,101.999996887207,0|0,3:2|0:0,0:0:0:0:
127,235,152025,2,0,P|165:194|216:194,1,101.999996887207,8|0,0:0|3:2,0:0:0:0:
47,176,152570,5,2,3:2:0:0:
11,112,152707,1,2,0:0:0:0:
128,3,152979,5,2,0:0:0:0:
124,23,153116,1,10,0:0:0:0:
125,152,153388,5,0,0:0:0:0:
125,152,153525,1,8,0:0:0:0:
125,152,153661,2,0,L|190:131,1,50.9999984436036,2|2,3:2|0:0,0:0:0:0:
209,211,153934,2,0,L|230:276,1,50.9999984436036,2|2,0:0|0:0,0:0:0:0:
222,19,154207,6,0,L|278:0,1,59.4999981842042,8|0,0:0|0:0,0:0:0:0:
384,109,154479,2,0,L|366:167,1,59.4999981842042,0|0,3:2|3:2,0:0:0:0:
373,351,154752,5,0,3:2:0:0:
435,316,154889,1,8,0:0:0:0:
423,247,155025,1,10,0:0:0:0:
354,237,155160,1,8,0:0:0:0:
320,299,155298,1,2,3:2:0:0:
139,351,155570,5,2,3:2:0:0:
77,316,155707,1,8,0:0:0:0:
89,247,155843,1,2,3:2:0:0:
158,237,155980,1,8,0:0:0:0:
192,299,156116,1,8,0:0:0:0:
256,264,156252,5,0,0:0:0:0:
230,201,156388,5,2,3:2:0:0:
283,201,156525,1,8,0:0:0:0:
204,138,156661,5,2,3:2:0:0:
311,138,156798,1,8,0:0:0:0:
256,83,156934,5,6,3:2:0:0:
353,337,157207,2,0,P|338:269|326:231,1,85,2|10,0:0|0:0,0:0:0:0:
407,178,157752,1,2,0:0:0:0:
204,365,158298,2,0,P|272:380|310:392,1,85,2|8,0:0|0:0,0:0:0:0:
146,291,158843,2,0,L|106:280,1,42.5,2|0,0:0|0:0,0:0:0:0:
160,212,159116,6,0,P|154:147|255:62,1,170,0|10,3:2|0:0,0:0:0:0:
318,196,159934,2,0,L|234:185,1,85,0|2,0:0|3:2,0:0:0:0:
130,38,160479,2,0,L|110:0,1,42.5,0|0,0:0|3:2,0:0:0:0:
244,110,160752,1,10,0:0:0:0:
244,110,160888,2,0,L|182:94,1,63.7500024318696
175,105,161298,6,0,L|234:298,1,170,2|10,3:2|0:0,0:0:0:0:
240,277,162388,5,2,3:2:0:0:
223,349,162525,1,2,0:0:0:0:
181,213,162798,5,2,3:2:0:0:
174,197,162934,1,10,0:0:0:0:
228,141,163207,2,0,L|245:90,1,42.5,0|0,3:2|0:0,0:0:0:0:
285,0,163479,6,0,L|321:77,1,85,0|2,3:2|0:0,0:0:0:0:
88,177,164161,1,2,0:0:0:0:
204,371,164434,5,8,0:0:0:0:
204,371,164570,1,10,0:0:0:0:
385,235,164979,1,2,0:0:0:0:
276,46,165252,5,2,0:0:0:0:
276,46,165388,1,2,3:2:0:0:
276,46,165525,1,2,0:0:0:0:
276,46,165661,1,0,3:2:0:0:
339,85,165934,5,2,0:0:0:0:
300,150,166479,5,2,0:0:0:0:
360,197,166752,5,2,3:2:0:0:
388,187,166888,1,2,0:0:0:0:
426,119,167161,5,2,3:2:0:0:
417,104,167298,1,10,0:0:0:0:
362,269,167570,2,0,L|403:279,1,42.5,2|0,3:2|0:0,0:0:0:0:
317,384,167843,6,0,L|268:224,1,127.5,0|0,3:2|0:0,0:0:0:0:
266,251,168388,2,0,B|183:199|169:303|75:203,2,170,10|2|10,0:0|3:2|0:0,0:0:0:0:
146,324,169752,2,0,L|130:374,1,42.5,0|0,3:2|0:0,0:0:0:0:
68,169,170025,6,0,L|16:7,1,170,2|10,3:2|0:0,0:0:0:0:
6,245,171116,5,0,3:2:0:0:
28,253,171661,1,8,0:0:0:0:
95,225,171934,1,0,3:2:0:0:
144,294,172207,5,2,3:2:0:0:
153,334,172343,1,10,0:0:0:0:
165,374,172479,1,8,0:0:0:0:
205,362,172616,1,10,0:0:0:0:
245,353,172752,1,0,3:2:0:0:
368,90,173025,5,0,3:2:0:0:
359,50,173161,1,8,0:0:0:0:
347,10,173297,1,2,3:2:0:0:
307,22,173434,1,8,0:0:0:0:
267,31,173570,1,10,0:0:0:0:
246,283,173843,5,10,0:0:0:0:
226,234,173979,1,10,0:0:0:0:
253,190,174115,1,0,3:2:0:0:
284,147,174252,1,8,0:0:0:0:
265,101,174388,5,6,3:2:0:0:
361,141,174661,1,2,0:0:0:0:
401,45,175207,1,2,0:0:0:0:
306,5,175752,1,2,0:0:0:0:
404,204,176298,5,2,0:0:0:0:
404,204,176433,1,0,0:0:0:0:
404,204,176570,1,2,3:2:0:0:
283,240,176843,1,2,0:0:0:0:
320,361,177115,1,10,0:0:0:0:
440,325,177388,1,2,0:0:0:0:
248,99,178752,5,2,3:2:0:0:
149,125,179025,1,2,0:0:0:0:
101,39,179298,1,10,0:0:0:0:
113,50,179843,6,0,L|103:101,1,42.5,2|0,3:2|0:0,0:0:0:0:
48,136,180116,1,2,0:0:0:0:
102,182,180252,2,0,L|120:275,1,85,2|0,0:0|0:0,0:0:0:0:
125,307,180661,1,2,0:0:0:0:
199,384,180934,6,0,L|291:356,2,85,2|2|8,3:2|0:0|0:0,0:0:0:0:
246,283,181752,1,2,0:0:0:0:
353,314,182025,5,2,3:2:0:0:
373,319,182161,1,0,0:0:0:0:
393,324,182298,1,2,0:0:0:0:
413,329,182434,1,0,0:0:0:0:
428,313,182570,1,10,0:0:0:0:
440,310,182707,1,0,0:0:0:0:
452,307,182843,1,2,0:2:0:0:
464,304,182979,1,0,0:0:0:0:
502,319,183116,5,6,3:2:0:0:
393,341,183388,1,2,0:0:0:0:
307,295,183934,1,2,0:0:0:0:
334,199,184479,1,2,0:0:0:0:
277,152,185025,5,2,0:0:0:0:
205,174,185298,5,2,0:0:0:0:
207,251,185571,1,2,0:0:0:0:
279,272,185843,1,2,0:0:0:0:
323,211,186116,1,2,0:0:0:0:
284,361,187479,5,2,0:0:0:0:
256,192,187752,1,2,0:0:0:0:
227,22,188025,1,2,0:0:0:0:
215,315,188570,5,2,0:0:0:0:
256,192,188843,5,2,0:0:0:0:
256,192,188979,1,2,0:0:0:0:
296,68,189388,5,2,0:0:0:0:
103,199,189661,5,0,3:2:0:0:
34,174,189798,1,8,0:0:0:0:
34,104,189933,1,10,0:0:0:0:
103,81,190071,1,8,0:0:0:0:
144,140,190207,1,2,0:0:0:0:
205,111,190342,1,0,0:0:0:0:
255,159,190478,1,2,3:2:0:0:
303,111,190616,1,8,0:0:0:0:
366,140,190752,5,2,0:0:0:0:
408,199,190889,1,8,0:0:0:0:
476,174,191024,1,8,3:2:0:0:
476,104,191160,1,2,0:0:0:0:
408,81,191297,5,8,3:2:0:0:
340,24,191434,1,8,0:0:0:0:
255,55,191570,1,0,0:0:0:0:
172,24,191707,1,8,0:0:0:0:
103,81,191843,6,0,L|34:67,1,61.6250018806458,6|0,3:2|0:0,0:0:0:0:
211,252,192116,2,0,L|147:90,1,123.250003761292,2|8,0:0|0:0,0:0:0:0:
284,241,192525,1,0,0:0:0:0:
178,319,192661,2,0,L|130:396,1,61.6250018806458,2|0,0:0|0:0,0:0:0:0:
107,270,192934,1,0,3:2:0:0:
89,241,193070,1,2,0:0:0:0:
71,211,193207,1,2,0:0:0:0:
53,181,193343,1,2,0:0:0:0:
15,113,193479,1,8,0:0:0:0:
202,202,193752,5,2,3:2:0:0:
239,130,193888,1,0,0:0:0:0:
151,150,194025,2,0,L|115:79,1,61.6250018806458,2|0,3:2|0:0,0:0:0:0:
305,75,194298,2,0,L|333:21,1,61.6250018806458,2|0,0:0|0:0,0:0:0:0:
237,265,194570,2,0,L|213:354,1,92.4375028209687,10|0,0:0|0:0,0:0:0:0:
203,366,194843,1,2,0:0:0:0:
325,239,195116,5,2,3:2:0:0:
292,170,195252,1,2,0:0:0:0:
174,61,195525,5,2,3:2:0:0:
207,3,195661,1,10,0:0:0:0:
285,154,195934,1,0,3:2:0:0:
127,224,196207,6,0,L|67:200,1,61.6250018806458,2|0,3:2|0:0,0:0:0:0:
220,384,196479,2,0,L|202:285,1,92.4375028209687,2|0,0:0|0:0,0:0:0:0:
214,281,196752,2,0,P|250:239|317:253,1,123.250003761292,10|0,0:0|0:0,0:0:0:0:
388,326,197161,1,0,0:0:0:0:
336,384,197298,1,2,3:2:0:0:
381,223,197570,5,2,0:0:0:0:
386,204,197707,1,2,0:0:0:0:
460,161,197843,5,8,0:0:0:0:
445,130,197979,1,0,0:0:0:0:
432,98,198116,1,2,3:2:0:0:
417,66,198252,1,0,0:0:0:0:
339,92,198388,6,0,L|214:58,2,123.250003761292,2|2|8,3:2|0:0|0:0,0:0:0:0:
339,92,199207,2,0,B|343:61|343:61|319:36,1,61.6250018806458,2|8,0:0|0:0,0:0:0:0:
454,184,199479,2,0,B|479:204|479:204|512:194,1,61.6250018806458,2|0,3:2|0:0,0:0:0:0:
318,238,199752,2,0,B|288:249|288:249|279:283,1,61.6250018806458,2|0,0:0|0:0,0:0:0:0:
371,172,200025,5,10,0:0:0:0:
303,153,200161,1,0,0:0:0:0:
236,135,200298,1,2,3:2:0:0:
169,117,200434,1,8,0:0:0:0:
106,171,200570,6,0,L|131:235,1,61.6250018806458,6|0,3:2|0:0,0:0:0:0:
8,79,200843,2,0,B|65:5|65:5|183:54,1,184.875005641937,2|0,0:0|0:0,0:0:0:0:
277,187,201388,5,2,0:0:0:0:
241,257,201525,2,0,L|216:321,1,61.6250018806458,0|0,0:0|3:2,0:0:0:0:
201,159,201798,5,0,0:0:0:0:
305,142,201934,2,0,B|340:55|340:55|239:-22,1,184.875005641937,2|0,0:0|0:0,0:0:0:0:
128,72,202479,1,2,3:2:0:0:
128,72,202752,6,0,L|50:49,1,57.3750002188683,2|0,3:2|0:0,0:0:0:0:
222,115,203025,2,0,L|281:132,1,57.3750002188683,2|0,0:0|0:0,0:0:0:0:
100,198,203298,6,0,L|44:228,1,63.7500024318696,10|0,0:0|0:0,0:0:0:0:
258,50,203570,2,0,L|316:14,1,63.7500024318696,2|0,0:0|0:0,0:0:0:0:
97,125,203843,5,2,3:2:0:0:
29,95,203979,1,2,0:0:0:0:
171,319,204252,5,2,3:2:0:0:
186,254,204388,1,10,0:0:0:0:
114,369,204661,1,0,3:2:0:0:
283,213,204934,6,0,B|224:178|224:178|204:181|204:181|148:149,2,152.999995330811,2|2|10,3:2|0:0|0:0,0:0:0:0:
472,42,205888,5,0,0:0:0:0:
403,74,206025,2,0,P|377:53|374:2,1,61.6250018806458,2|0,3:2|0:0,0:0:0:0:
494,217,206298,2,0,P|513:244|503:294,1,68,2|0,0:0|0:0,0:0:0:0:
356,145,206570,5,10,0:0:0:0:
466,119,206707,2,0,L|382:265,1,144.500002756119,2|0,0:0|0:0,0:0:0:0:
408,329,207116,5,0,3:2:0:0:
355,384,207252,1,0,3:2:0:0:
285,373,207388,1,2,0:0:0:0:
260,305,207525,1,0,3:2:0:0:
309,250,207661,1,10,0:0:0:0:
379,259,207798,1,0,0:0:0:0:
424,202,207934,1,2,3:2:0:0:
395,136,208070,1,8,0:0:0:0:
322,123,208207,5,2,3:2:0:0:
271,70,208343,1,8,0:0:0:0:
201,83,208479,1,8,0:0:0:0:
177,152,208616,1,2,0:0:0:0:
226,206,208752,5,8,0:0:0:0:
208,277,208888,1,8,0:0:0:0:
136,295,209025,1,2,3:2:0:0:
87,242,209161,1,8,3:2:0:0:
105,170,209298,5,6,3:2:0:0:
204,363,209570,1,2,0:0:0:0:
14,280,209843,2,0,L|145:230,1,127.500004863739,10|0,0:0|0:0,0:0:0:0:
198,201,210252,1,0,0:0:0:0:
250,258,210388,5,2,3:2:0:0:
288,250,210525,1,2,0:0:0:0:
326,243,210661,1,2,0:0:0:0:
364,235,210798,1,2,0:0:0:0:
430,272,210934,1,10,0:0:0:0:
343,372,211207,1,0,3:2:0:0:
376,142,211479,5,0,3:2:0:0:
420,353,211752,2,0,L|374:289,1,63.7500024318696,2|2,0:0|0:0,0:0:0:0:
294,184,212025,1,8,0:0:0:0:
449,259,212298,1,0,3:2:0:0:
278,301,212570,5,2,3:2:0:0:
237,309,212707,1,2,0:0:0:0:
196,318,212843,1,2,0:0:0:0:
157,328,212979,1,2,3:2:0:0:
103,279,213116,1,8,0:0:0:0:
341,344,213388,5,2,0:0:0:0:
379,357,213525,1,2,0:0:0:0:
418,370,213661,1,2,3:2:0:0:
296,191,213934,1,0,0:0:0:0:
250,384,214207,5,10,0:0:0:0:
250,384,214343,1,2,0:0:0:0:
250,384,214479,2,0,L|271:313,1,59.4999981842042,2|0,0:0|0:0,0:0:0:0:
391,239,214752,5,2,3:2:0:0:
380,241,214888,1,2,0:0:0:0:
369,243,215025,2,0,L|404:177,1,65.8750005025864,2|0,0:0|0:0,0:0:0:0:
120,105,215298,5,10,0:0:0:0:
143,120,215434,1,2,0:0:0:0:
165,133,215570,2,0,L|122:25,1,72.2500013780594,2|0,3:2|0:0,0:0:0:0:
410,34,215843,5,2,3:2:0:0:
394,102,215979,1,2,0:0:0:0:
436,159,216116,1,2,0:0:0:0:
417,227,216252,1,2,0:0:0:0:
350,249,216389,1,8,0:0:0:0:
289,217,216525,1,2,0:0:0:0:
256,156,216661,1,2,3:2:0:0:
247,85,216798,1,8,0:0:0:0:
256,16,216934,5,2,3:2:0:0:
265,85,217070,1,2,0:0:0:0:
256,156,217207,1,2,0:0:0:0:
223,217,217343,1,2,0:0:0:0:
162,249,217479,5,2,3:2:0:0:
95,227,217616,1,2,0:0:0:0:
76,159,217752,1,2,3:2:0:0:
118,102,217889,1,10,3:2:0:0:
102,34,218025,6,0,L|30:52,1,63.7500024318696,6|0,3:2|0:0,0:0:0:0:
189,100,218298,1,0,0:0:0:0:
239,199,218434,2,0,P|267:128|295:59,1,127.500004863739,2|0,0:0|0:0,0:0:0:0:
166,283,218843,1,2,0:0:0:0:
148,275,218979,1,0,0:0:0:0:
63,233,219116,5,2,3:2:0:0:
73,270,219252,1,2,0:0:0:0:
85,307,219388,1,2,0:0:0:0:
96,346,219525,1,2,0:0:0:0:
170,374,219661,1,10,0:0:0:0:
0,285,219934,1,0,3:2:0:0:
160,185,220207,5,2,3:2:0:0:
160,185,220343,1,2,0:0:0:0:
160,185,220479,1,2,0:0:0:0:
231,214,220616,1,0,0:0:0:0:
176,266,220752,6,0,L|155:330,1,63.7500024318696,8|0,0:0|0:0,0:0:0:0:
34,223,221025,2,0,L|70:170,1,63.7500024318696
283,281,221298,1,0,3:2:0:0:
127,116,221570,1,2,0:0:0:0:
205,268,221843,1,10,0:0:0:0:
216,304,221979,1,2,0:0:0:0:
226,341,222116,1,2,3:2:0:0:
236,378,222252,1,2,0:0:0:0:
139,348,222388,5,0,3:2:0:0:
229,174,222661,1,2,0:0:0:0:
319,0,222934,5,10,0:0:0:0:
319,0,223070,1,2,0:0:0:0:
319,0,223207,2,0,L|293:74,1,59.4999981842042,2|0,0:0|0:0,0:0:0:0:
158,45,223479,5,2,3:2:0:0:
149,55,223615,1,2,0:0:0:0:
141,65,223752,2,0,L|192:124,1,65.8750005025864,2|0,0:0|0:0,0:0:0:0:
57,238,224025,5,10,0:0:0:0:
75,257,224161,1,2,0:0:0:0:
94,275,224298,2,0,L|171:260,1,72.2500013780594,2|0,3:2|3:2,0:0:0:0:
349,384,224570,5,2,3:2:0:0:
324,343,224707,1,10,0:0:0:0:
300,304,224843,1,0,0:0:0:0:
281,265,224979,1,2,3:2:0:0:
236,210,225116,5,8,0:0:0:0:
240,186,225252,1,0,0:0:0:0:
258,170,225388,1,0,3:2:0:0:
282,170,225525,1,8,0:0:0:0:
348,206,225661,5,2,3:2:0:0:
401,198,225798,1,10,0:0:0:0:
425,149,225934,1,10,0:0:0:0:
408,96,226070,1,0,0:0:0:0:
338,123,226207,5,10,3:2:0:0:
261,124,226343,1,10,3:2:0:0:
194,54,226479,1,10,3:2:0:0:
105,1,226616,1,10,3:2:0:0:
6,17,226752,6,0,B|-30:221|209:121|141:327|105:350|105:350|14:332|-23:247|36:127|109:160|98:78|98:78|54:90|30:56,1,786.249997000694,4|2,3:2|3:2,0:0:0:0:
144,26,228388,5,10,0:0:0:0:
186,36,228525,1,0,0:0:0:0:
227,45,228661,1,2,3:2:0:0:
269,56,228798,1,0,0:0:0:0:
318,0,228934,5,2,3:2:0:0:
241,228,229207,1,2,0:0:0:0:
397,91,229479,2,0,L|326:116,1,61.6250018806458,10|0,0:0|0:0,0:0:0:0:
188,160,229752,2,0,L|127:138,1,61.6250018806458,2|0,0:0|0:0,0:0:0:0:
248,288,230025,6,0,B|232:259|232:259|244:216,1,65.8750005025864,2|0,3:2|0:0,0:0:0:0:
283,64,230298,2,0,B|298:35|298:35|286:-7,1,65.8750005025864,2|0,0:0|3:2,0:0:0:0:
321,212,230570,5,8,0:0:0:0:
365,226,230707,1,0,0:0:0:0:
409,241,230843,1,0,3:2:0:0:
454,257,230979,1,0,0:0:0:0:
512,203,231116,6,0,L|486:134,1,63.7500024318696,2|0,3:2|0:0,0:0:0:0:
355,336,231388,2,0,L|381:267,1,63.7500024318696
418,85,231661,5,10,0:0:0:0:
418,35,231798,1,0,0:0:0:0:
376,7,231934,1,0,0:0:0:0:
328,13,232070,1,8,0:0:0:0:
284,77,232207,5,2,3:2:0:0:
307,92,232343,1,0,0:0:0:0:
318,116,232479,1,0,0:0:0:0:
316,145,232616,1,0,3:2:0:0:
255,191,232752,5,10,0:0:0:0:
232,186,232888,1,0,0:0:0:0:
208,179,233025,1,0,3:2:0:0:
186,173,233161,1,0,0:0:0:0:
124,216,233298,5,2,3:2:0:0:
49,199,233434,1,0,3:2:0:0:
7,137,233570,1,0,0:0:0:0:
22,63,233707,1,0,3:2:0:0:
84,21,233843,1,10,0:0:0:0:
159,37,233979,1,0,0:0:0:0:
200,100,234116,1,2,3:2:0:0:
186,173,234252,1,8,0:0:0:0:
255,191,234388,5,2,3:2:0:0:
325,210,234525,1,8,0:0:0:0:
309,283,234661,1,2,3:2:0:0:
352,346,234798,1,0,0:0:0:0:
426,362,234934,5,10,3:2:0:0:
488,320,235070,1,8,3:2:0:0:
504,246,235207,1,2,3:2:0:0:
462,184,235343,1,8,3:2:0:0:
387,167,235479,5,6,3:2:0:0:
286,382,235752,1,2,0:0:0:0:
198,193,236025,6,0,L|251:245,1,61.6250018806458,10|0,0:0|0:0,0:0:0:0:
347,320,236298,2,0,L|392:364,1,61.6250018806458,2|0,0:0|0:0,0:0:0:0:
170,293,236570,1,2,3:2:0:0:
383,234,236843,1,2,0:0:0:0:
217,384,237116,6,0,B|220:355|220:355|257:323,1,65.8750005025864,10|0,0:0|0:0,0:0:0:0:
325,174,237388,2,0,B|352:148|352:148|355:119,1,65.8750005025864,2|0,0:0|0:0,0:0:0:0:
261,35,237661,5,2,3:2:0:0:
225,2,237798,1,0,0:0:0:0:
178,11,237934,1,2,0:0:0:0:
156,52,238070,1,0,0:0:0:0:
237,103,238207,1,10,0:0:0:0:
40,6,238479,1,2,0:0:0:0:
168,139,238752,5,2,3:2:0:0:
174,161,238888,1,0,0:0:0:0:
182,186,239025,1,2,0:0:0:0:
189,210,239161,1,2,3:2:0:0:
130,258,239298,5,8,0:0:0:0:
113,297,239434,1,0,0:0:0:0:
98,336,239570,1,2,3:2:0:0:
83,375,239707,1,0,0:0:0:0:
171,384,239843,5,2,3:2:0:0:
72,188,240116,1,2,0:0:0:0:
287,320,240388,6,0,P|267:352|223:355,1,61.6250018806458,10|0,0:0|0:0,0:0:0:0:
165,208,240661,2,0,P|147:174|166:135,1,61.6250018806458,2|0,0:0|0:0,0:0:0:0:
213,107,240934,1,2,3:2:0:0:
29,188,241207,1,2,0:0:0:0:
132,9,241479,6,0,P|158:6|180:78,1,65.8750005025864,10|0,0:0|0:0,0:0:0:0:
287,217,241752,2,0,P|276:241|203:224,1,65.8750005025864,2|0,3:2|0:0,0:0:0:0:
80,279,242025,5,2,3:2:0:0:
122,259,242161,1,2,3:2:0:0:
167,273,242298,1,0,0:0:0:0:
193,312,242434,1,2,3:2:0:0:
188,359,242570,1,8,0:0:0:0:
431,104,242843,5,2,3:2:0:0:
389,124,242979,1,0,3:2:0:0:
344,110,243116,1,10,0:0:0:0:
318,71,243252,1,0,3:2:0:0:
323,24,243388,1,2,3:2:0:0:
117,182,243661,5,10,3:2:0:0:
188,159,243797,1,10,3:2:0:0:
256,192,243934,1,0,3:2:0:0:
323,224,244070,1,10,3:2:0:0:
394,201,244207,6,0,L|455:183,1,63.7500024318696,6|0,3:2|0:0,0:0:0:0:
275,323,244479,2,0,L|260:384,1,63.7500024318696,2|0,0:0|0:0,0:0:0:0:
228,158,244752,2,0,L|181:114,1,63.7500024318696,10|0,0:0|0:0,0:0:0:0:
323,224,245025,1,2,0:0:0:0:
346,213,245161,1,0,0:0:0:0:
424,223,245298,5,2,3:2:0:0:
437,180,245434,1,0,0:0:0:0:
449,137,245570,1,2,0:0:0:0:
463,94,245707,1,0,0:0:0:0:
422,27,245843,1,10,0:0:0:0:
512,236,246116,1,2,3:2:0:0:
371,93,246388,5,2,3:2:0:0:
328,75,246525,1,0,0:0:0:0:
287,58,246661,1,2,0:0:0:0:
244,41,246798,1,0,0:0:0:0:
175,79,246934,6,0,L|94:102,1,59.4999981842042,10|0,0:0|0:0,0:0:0:0:
233,266,247207,2,0,L|253:184,1,59.4999981842042,2|0,0:0|0:0,0:0:0:0:
31,138,247479,5,2,3:2:0:0:
51,163,247616,1,0,0:0:0:0:
72,188,247752,1,2,0:0:0:0:
94,212,247888,1,2,3:2:0:0:
155,168,248025,5,10,0:0:0:0:
176,157,248161,1,0,0:0:0:0:
197,147,248298,1,2,3:2:0:0:
218,137,248434,1,0,0:0:0:0:
285,172,248570,6,0,L|384:202,1,59.4999981842042,2|0,3:2|0:0,0:0:0:0:
391,132,248843,2,0,L|451:113,1,59.4999981842042,2|0,0:0|0:0,0:0:0:0:
248,31,249116,1,10,0:0:0:0:
304,257,249388,5,2,0:0:0:0:
304,257,249525,1,0,0:0:0:0:
304,257,249661,2,0,P|312:287|318:326,1,57.3750002188683,2|0,3:2|0:0,0:0:0:0:
410,317,249934,2,0,P|394:343|378:380,1,57.3750002188683,2|0,0:0|0:0,0:0:0:0:
172,244,250207,6,0,B|144:227|144:227|138:164,1,61.6250018806458,10|0,0:0|0:0,0:0:0:0:
237,126,250479,2,0,B|265:143|265:143|271:206,1,61.6250018806458,2|0,3:2|0:0,0:0:0:0:
51,142,250752,5,2,3:2:0:0:
20,110,250888,1,0,0:0:0:0:
23,64,251025,1,0,0:0:0:0:
57,38,251161,1,2,0:0:0:0:
129,57,251298,5,8,0:0:0:0:
152,52,251434,1,0,0:0:0:0:
176,48,251570,1,2,0:0:0:0:
200,45,251707,1,8,0:0:0:0:
268,89,251843,5,2,3:2:0:0:
278,139,251979,1,10,0:0:0:0:
248,180,252116,1,0,3:2:0:0:
199,190,252252,1,2,0:0:0:0:
132,144,252388,5,8,0:0:0:0:
62,148,252524,1,8,0:0:0:0:
21,204,252661,1,2,0:0:0:0:
40,271,252797,1,10,0:0:0:0:
113,301,252934,6,0,B|135:312|135:312|237:253|237:253|265:268,1,165.749992412568,6|2,3:2|0:0,0:0:0:0:
317,314,253479,2,0,L|299:376,1,55.2499974708558,10|0,0:0|0:0,0:0:0:0:
237,175,253752,1,0,0:0:0:0:
378,258,254025,1,2,3:2:0:0:
402,269,254161,1,0,0:0:0:0:
427,280,254298,1,2,0:0:0:0:
451,291,254434,1,0,0:0:0:0:
512,253,254570,1,10,0:0:0:0:
465,372,254843,1,2,3:2:0:0:
396,193,255116,6,0,L|331:25,1,165.749992412568,2|0,3:2|0:0,0:0:0:0:
345,30,255661,2,0,L|364:81,1,55.2499974708558,10|0,0:0|0:0,0:0:0:0:
240,158,255934,2,0,P|146:150|166:43,1,220.999989883423,2|2,0:0|0:0,0:0:0:0:
158,47,256752,1,10,0:0:0:0:
49,99,257025,1,2,3:2:0:0:
121,189,257298,5,0,3:2:0:0:
112,220,257434,1,0,0:0:0:0:
103,251,257570,1,2,0:0:0:0:
94,283,257707,1,0,0:0:0:0:
85,315,257843,1,10,0:0:0:0:
191,304,258116,5,2,0:0:0:0:
219,296,258252,1,0,0:0:0:0:
247,288,258388,1,2,3:2:0:0:
275,281,258525,1,0,0:0:0:0:
415,335,258934,6,0,L|441:390,1,50.9999984436036,10|0,0:0|0:0,0:0:0:0:
345,249,259207,2,0,L|368:199,1,50.9999984436036,2|0,3:2|0:0,0:0:0:0:
399,58,259479,5,2,3:2:0:0:
367,58,259616,1,10,0:0:0:0:
340,75,259752,1,8,0:0:0:0:
327,103,259888,1,10,0:0:0:0:
335,134,260025,1,0,3:2:0:0:
454,237,260298,5,0,3:2:0:0:
465,216,260433,1,8,0:0:0:0:
464,192,260571,1,2,3:2:0:0:
451,173,260707,1,8,0:0:0:0:
428,167,260842,1,10,0:0:0:0:
227,210,261116,5,10,0:0:0:0:
246,243,261251,1,10,0:0:0:0:
280,262,261389,1,0,3:2:0:0:
319,259,261525,1,10,0:0:0:0:
366,202,261660,5,6,3:2:0:0:
256,192,261798,12,0,270388,0:0:0:0:
