osu file format v14

[General]
AudioFilename: audio.mp3
AudioLeadIn: 0
PreviewTime: 83440
Countdown: 0
SampleSet: Normal
StackLeniency: 0.7
Mode: 0
LetterboxInBreaks: 0
WidescreenStoryboard: 1

[Editor]
Bookmarks: 62815,125315
DistanceSpacing: 1.3
BeatDivisor: 2
GridSize: 4
TimelineZoom: 1

[Metadata]
Title:a wonderful days -rebirth-
TitleUnicode:a wonderful days -rebirth-
Artist:EiK feat. Raimu
ArtistUnicode:EiK feat. らいむ(゚ロ゚)。
Creator:ponbot
Version:Normal
Source:素晴らしき日々~不連続存在~
Tags:subahibi subarashiki hibi ~furenzoku sonzai~ japanese rock hinamommy kimikamymommy yoko
BeatmapID:2949833
BeatmapSetID:1430653

[Difficulty]
HPDrainRate:3
CircleSize:3
OverallDifficulty:5
ApproachRate:6
SliderMultiplier:1
SliderTickRate:1

[Events]
//Background and Video events
0,0,"yuki.jpg",0,0
//Break Periods
2,104265,113015
2,123171,124265
//Storyboard Layer 0 (Background)
//Storyboard Layer 1 (Fail)
//Storyboard Layer 2 (Pass)
//Storyboard Layer 3 (Foreground)
//Storyboard Layer 4 (Overlay)
//Storyboard Sound Samples

[TimingPoints]
315,312.5,4,2,1,30,1,0
315,-100,4,2,1,30,0,0
2815,-100,4,1,1,60,0,0
22815,-100,4,1,1,50,0,0
32815,-100,4,1,1,55,0,0
42815,-100,4,1,1,60,0,0
62815,-100,4,1,1,50,0,0
72815,-100,4,1,1,55,0,0
80315,-100,4,1,1,60,0,0
82815,-100,4,1,1,40,0,0
84065,-100,4,1,1,80,0,1
104065,-100,4,1,1,60,0,0
114065,-100,4,1,1,50,0,0
125315,-100,4,1,1,80,0,1
165315,-100,4,1,1,60,0,0
186408,-100,4,1,1,60,0,0

[Colours]
Combo1 : 213,0,0
Combo2 : 184,225,241
Combo3 : 0,143,191
Combo4 : 255,170,170

[HitObjects]
128,56,315,6,0,P|131:105|136:155,1,100,2|2,0:0|0:0,0:0:0:0:
108,196,783,1,2,0:0:0:0:
228,244,1096,1,2,0:0:0:0:
288,132,1408,1,2,0:0:0:0:
288,132,1565,2,0,P|344:104|408:120,1,100,2|2,0:0|0:0,0:0:0:0:
420,76,2033,2,0,L|392:248,1,150,2|2,0:0|0:0,0:0:0:0:
472,332,2815,6,0,P|427:354|377:357,1,100,4|8,0:0|0:0,0:0:0:0:
280,272,3440,2,0,P|208:260|152:260,1,100,0|8,0:0|0:0,0:0:0:0:
132,260,3908,2,0,P|100:300|92:352,1,100
44,364,4377,1,8,0:0:0:0:
0,240,4690,1,0,0:0:0:0:
52,120,5002,1,8,0:0:0:0:
0,0,5315,38,0,P|49:6|98:15,1,100,0|8,0:0|0:0,0:0:0:0:
228,36,5940,2,0,P|248:88|228:136,1,100,0|8,0:0|0:0,0:0:0:0:
196,160,6408,2,0,L|184:260,1,100
216,296,6877,1,8,0:0:0:0:
328,228,7190,1,0,0:0:0:0:
396,336,7502,1,8,0:0:0:0:
507,268,7815,6,0,P|512:216|508:168,1,100,0|8,0:0|0:0,0:0:0:0:
444,54,8440,2,0,P|382:43|329:36,1,100,0|8,0:0|0:0,0:0:0:0:
295,35,8908,1,0,0:0:0:0:
217,140,9221,1,0,0:0:0:0:
217,140,9377,1,8,0:0:0:0:
325,212,9690,2,0,P|315:292|291:329,1,100,0|8,0:0|0:0,0:0:0:0:
192,370,10315,38,0,P|147:362|82:352,1,100,0|8,0:0|0:0,0:0:0:0:
5,257,10940,2,0,P|3:196|24:139,1,100,0|8,0:0|0:0,0:0:0:0:
48,122,11408,1,0,0:0:0:0:
165,177,11721,1,0,0:0:0:0:
165,177,11877,1,8,0:0:0:0:
208,54,12190,2,0,P|274:40|331:35,1,100,0|8,0:0|0:0,0:0:0:0:
436,28,12815,6,0,P|453:74|447:123,1,100,4|8,0:0|0:0,0:0:0:0:
327,173,13440,2,0,P|323:226|319:294,1,100,0|8,0:0|0:0,0:0:0:0:
320,322,13908,2,0,P|376:351|441:332,1,100
456,325,14377,1,8,0:0:0:0:
408,203,14690,1,0,0:0:0:0:
279,187,15002,1,8,0:0:0:0:
207,295,15315,38,0,P|158:322|90:315,1,100,0|8,0:0|0:0,0:0:0:0:
23,229,15940,2,0,P|30:170|62:130,1,100,0|8,0:0|0:0,0:0:0:0:
97,114,16408,2,0,L|215:130,1,100
245,138,16877,1,8,0:0:0:0:
182,252,17190,1,0,0:0:0:0:
280,336,17502,1,8,0:0:0:0:
402,291,17815,6,0,P|416:206|415:167,1,100,0|8,0:0|0:0,0:0:0:0:
495,89,18440,2,0,P|437:59|382:57,1,100,0|8,0:0|0:0,0:0:0:0:
353,60,18908,1,0,0:0:0:0:
270,161,19221,1,0,0:0:0:0:
270,161,19377,1,8,0:0:0:0:
183,63,19690,2,0,L|63:54,1,100,0|8,0:0|0:0,0:0:0:0:
0,155,20315,38,0,P|-4:204|3:253,1,100,0|8,0:0|0:0,0:0:0:0:
95,346,20940,2,0,L|202:331,1,100,0|8,0:0|0:0,0:0:0:0:
243,326,21408,1,0,0:0:0:0:
174,222,21721,1,0,0:0:0:0:
174,222,21877,1,12,0:0:0:0:
276,142,22190,2,0,P|325:148|380:158,1,100,0|4,0:0|0:0,0:0:0:0:
491,215,22815,5,4,0:0:0:0:
441,334,23127,2,0,P|374:356|259:270,1,200,8|8,0:0|0:0,0:0:0:0:
163,227,24065,2,0,L|151:341,1,100,0|8,0:0|0:0,0:0:0:0:
104,338,24533,2,0,L|114:238,1,100
70,214,25002,1,8,0:0:0:0:
138,102,25315,38,0,P|72:67|0:75,2,150,0|0|8,0:0|0:0|0:0,0:0:0:0:
245,28,26565,1,0,0:0:0:0:
298,146,26877,1,8,0:0:0:0:
409,78,27190,2,0,L|517:105,1,100,0|8,0:0|0:0,0:0:0:0:
502,232,27815,5,0,0:0:0:0:
415,328,28127,2,0,P|364:253|419:164,1,200,8|8,0:0|0:0,0:0:0:0:
352,51,29065,2,0,L|239:33,1,100,0|8,0:0|0:0,0:0:0:0:
230,79,29533,2,0,L|117:61,1,100
108,107,30002,1,8,0:0:0:0:
195,203,30315,2,0,P|279:200|334:156,2,150,0|0|8,0:0|0:0|0:0,0:0:0:0:
68,233,31565,38,0,P|49:284|82:344,1,100,0|8,0:0|0:0,0:0:0:0:
184,371,32190,2,0,L|244:363,1,50
283,359,32502,1,12,0:0:0:0:
214,248,32815,5,4,0:0:0:0:
318,171,33127,2,0,P|369:221|374:348,1,200,8|8,0:0|0:0,0:0:0:0:
501,307,34065,2,0,L|487:194,1,100,0|8,0:0|0:0,0:0:0:0:
447,179,34533,2,0,L|433:66,1,100
393,51,35002,1,8,0:0:0:0:
286,125,35315,38,0,P|278:191|337:276,2,150,0|0|8,0:0|0:0|0:0,0:0:0:0:
206,22,36565,1,0,0:0:0:0:
134,130,36877,1,8,0:0:0:0:
12,84,37190,2,0,P|-1:168|4:218,1,100,0|8,0:0|0:0,0:0:0:0:
24,310,37815,5,0,0:0:0:0:
146,353,38127,2,0,P|232:306|223:197,1,200,8|8,0:0|0:0,0:0:0:0:
134,130,39065,2,0,L|124:21,1,100,0|8,0:0|0:0,0:0:0:0:
171,12,39533,2,0,L|180:111,1,100
229,121,40002,1,8,0:0:0:0:
323,31,40315,38,0,P|382:22|453:54,1,100,4|8,0:0|0:0,0:0:0:0:
454,68,40783,1,0,0:0:0:0:
472,114,40940,2,0,P|463:164|452:230,1,100,0|8,0:0|0:0,0:0:0:0:
398,330,41565,2,0,P|341:347|284:329,1,100,0|8,0:0|0:0,0:0:0:0:
262,309,42033,1,0,0:0:0:0:
224,275,42190,2,0,P|157:265|100:289,1,100,0|4,0:0|0:3,0:0:0:0:
38,368,42815,5,4,0:0:0:0:
1,243,43127,2,0,P|36:146|139:130,1,200,8|8,0:0|0:0,0:0:0:0:
231,196,44065,1,0,0:0:0:0:
336,119,44377,1,8,0:0:0:0:
336,119,44533,2,0,P|342:56|335:-6,1,100
389,13,45002,1,8,0:0:0:0:
489,96,45315,37,0,0:0:0:0:
394,185,45627,2,0,P|387:285|391:384,1,200,8|8,0:0|0:0,0:0:0:0:
260,383,46565,2,0,P|241:329|257:253,1,100,0|8,0:0|0:0,0:0:0:0:
268,243,47033,2,0,P|266:177|255:117,1,100
245,95,47502,1,8,0:0:0:0:
148,7,47815,5,0,0:0:0:0:
35,73,48127,2,0,P|5:167|42:264,1,200,8|8,0:0|0:0,0:0:0:0:
0,384,49065,2,0,L|120:364,1,100,0|8,0:0|0:0,0:0:0:0:
134,333,49533,2,0,L|254:353,1,100
279,332,50002,1,8,0:0:0:0:
400,381,50315,37,0,0:0:0:0:
508,310,50627,2,0,P|533:230|511:116,1,200,8|8,0:0|0:0,0:0:0:0:
433,14,51565,1,0,0:0:0:0:
375,130,51877,1,8,0:0:0:0:
293,28,52190,1,0,0:0:0:0:
238,145,52502,1,8,0:0:0:0:
150,48,52815,5,4,0:0:0:0:
90,163,53127,2,0,B|62:273|143:245|96:380,1,200,8|8,0:0|0:0,0:0:0:0:
230,383,54065,2,0,P|232:310|234:221,2,150,0|0|8,0:0|0:0|0:0,0:0:0:0:
358,361,55315,37,0,0:0:0:0:
417,245,55627,2,0,P|471:224|531:222,1,100,8|0,0:0|0:0,0:0:0:0:
479,94,56252,1,8,0:0:0:0:
349,106,56565,2,0,P|301:74|287:19,1,100,0|8,0:0|0:0,0:0:0:0:
243,10,57033,2,0,L|225:117,1,100
179,124,57502,1,8,0:0:0:0:
262,223,57815,5,0,0:0:0:0:
363,141,58127,2,0,P|473:185|489:274,1,200,8|8,0:0|0:0,0:0:0:0:
409,356,59065,2,0,P|349:342|291:342,1,100,0|8,0:0|0:0,0:0:0:0:
261,349,59533,1,0,0:0:0:0:
171,262,59846,1,0,0:0:0:0:
171,262,60002,1,8,0:0:0:0:
272,180,60315,38,0,P|279:109|264:54,1,100,0|8,0:0|0:0,0:0:0:0:
158,20,60940,2,0,P|150:69|156:118,1,100,0|8,0:0|0:0,0:0:0:0:
37,171,61565,1,0,0:0:0:0:
26,304,61877,1,12,0:0:0:0:
26,304,62033,2,0,P|93:288|138:288,1,100,8|8,0:0|0:0,0:0:0:0:
173,295,62502,1,0,0:0:0:0:
287,357,62815,5,4,0:0:0:0:
409,318,63127,2,0,P|435:246|394:127,1,200,8|8,0:0|0:0,0:0:0:0:
283,70,64065,2,0,P|275:133|288:203,1,100,0|8,0:0|0:0,0:0:0:0:
246,206,64533,1,0,0:0:0:0:
151,294,64846,1,0,0:0:0:0:
151,294,65002,1,8,0:0:0:0:
33,237,65315,38,0,P|22:180|27:131,1,100,0|8,0:0|0:0,0:0:0:0:
60,103,65783,2,0,L|193:88,1,100
202,117,66252,1,8,0:0:0:0:
284,16,66565,5,0,0:0:0:0:
404,78,66877,1,8,0:0:0:0:
404,78,67033,2,0,P|414:145|421:203,1,100
425,226,67502,1,8,0:0:0:0:
353,334,67815,37,0,0:0:0:0:
247,258,68127,2,0,L|48:242,1,200,8|8,0:0|0:0,0:0:0:0:
2,119,69065,1,0,0:0:0:0:
92,26,69377,1,8,0:0:0:0:
92,26,69533,2,0,P|145:19|195:35,1,100
226,64,70002,1,8,0:0:0:0:
262,188,70315,6,0,L|239:301,1,100,0|8,0:0|0:0,0:0:0:0:
213,326,70783,2,0,P|244:367|311:368,1,100
336,358,71252,1,8,0:0:0:0:
413,229,71721,2,0,L|540:214,2,100
368,207,72502,1,8,0:0:0:0:
443,100,72815,37,4,0:0:0:0:
355,4,73127,2,0,P|313:41|308:145,1,150,8|0,0:0|0:0,0:0:0:0:
272,171,73752,1,8,0:0:0:0:
177,260,74065,1,0,0:0:0:0:
177,260,74221,2,0,L|48:242,1,100
6,144,74846,1,0,0:0:0:0:
6,144,75002,1,8,0:0:0:0:
81,37,75315,6,0,P|130:28|179:23,1,100,0|8,0:0|0:0,0:0:0:0:
213,60,75783,2,0,P|262:51|311:46,1,100
349,79,76252,1,8,0:0:0:0:
440,197,76721,2,0,L|513:182,2,50,0|8|0,0:0|0:0|0:0,0:0:0:0:
408,236,77190,1,0,0:0:0:0:
408,236,77346,2,0,L|281:216,1,100
259,211,77815,37,0,0:0:0:0:
191,322,78127,2,0,B|293:361|283:287|386:332,1,200,8|8,0:0|0:0,0:0:0:0:
494,260,79065,1,0,0:0:0:0:
494,260,79221,2,0,L|473:152,1,100
389,71,79846,1,0,0:0:0:0:
389,71,80002,1,8,0:0:0:0:
267,117,80315,6,0,L|148:103,1,100,4|8,0:0|0:0,0:0:0:0:
134,68,80783,2,0,P|69:76|41:115,1,100
36,148,81252,1,8,0:0:0:0:
109,255,81565,2,0,P|153:272|217:240,1,100,0|8,0:0|0:0,0:0:0:0:
248,271,82033,2,0,P|277:234|267:163,1,100,8|8,0:0|0:0,0:0:0:0:
304,140,82502,2,0,L|275:88,2,50,8|4|4,0:3|0:3|0:2,0:0:0:0:
56,56,83596,1,2,2:0:0:0:
56,56,83752,2,0,L|68:127,1,50,2|2,2:0|2:0,0:0:0:0:
48,152,84065,38,0,P|91:127|142:128,1,100,6|10,0:0|0:0,0:0:0:0:
181,159,84533,1,2,0:0:0:0:
277,254,84846,1,2,0:0:0:0:
277,254,85002,2,0,L|264:328,1,50,10|2,0:0|0:2,0:0:0:0:
279,352,85315,2,0,P|335:372|403:348,1,100,2|10,0:0|0:0,0:0:0:0:
413,335,85783,1,2,0:0:0:0:
511,249,86096,1,2,0:0:0:0:
511,249,86252,2,0,L|494:177,1,50,10|2,0:0|0:2,0:0:0:0:
461,167,86565,6,0,L|477:11,2,150,2|2|10,0:0|0:0|0:0,0:0:0:0:
362,251,87815,2,0,P|307:238|282:194,1,100,2|10,0:0|0:0,0:0:0:0:
276,154,88283,1,2,0:0:0:0:
348,47,88596,1,2,0:0:0:0:
348,47,88752,2,0,L|277:37,1,50,10|2,0:0|0:2,0:0:0:0:
248,32,89065,38,0,P|197:41|149:52,1,100,6|10,0:0|0:0,0:0:0:0:
102,68,89533,1,2,0:0:0:0:
27,175,89846,1,2,0:0:0:0:
27,175,90002,2,0,L|88:190,1,50,10|2,0:0|0:2,0:0:0:0:
102,229,90315,2,0,P|154:241|216:263,1,100,2|10,0:0|0:0,0:0:0:0:
244,275,90783,1,2,0:0:0:0:
310,163,91096,2,0,L|284:104,2,50,2|10|2,0:0|0:0|0:2,0:0:0:0:
360,166,91565,6,0,P|406:142|454:154,1,100,2|10,0:0|0:0,0:0:0:0:
486,186,92033,1,2,0:0:0:0:
462,314,92346,1,2,0:0:0:0:
337,348,92658,1,10,0:0:0:0:
337,348,92815,2,0,P|283:355|173:343,2,150,6|6|6,0:0|0:0|0:0,0:0:0:0:
261,241,94065,38,0,L|143:234,1,100,6|10,0:0|0:0,0:0:0:0:
114,252,94533,1,2,0:0:0:0:
17,172,94846,1,2,0:0:0:0:
17,172,95002,2,0,L|31:115,1,50,10|2,0:0|0:2,0:0:0:0:
40,74,95315,2,0,P|101:53|156:68,1,100,2|10,0:0|0:0,0:0:0:0:
175,86,95783,1,2,0:0:0:0:
283,11,96096,1,2,0:0:0:0:
283,11,96252,1,10,0:0:0:0:
364,112,96565,6,0,P|434:107|495:39,2,150,2|2|10,0:0|0:0|0:0,0:0:0:0:
329,148,97658,1,2,0:2:0:0:
329,148,97815,2,0,P|319:210|367:256,1,100,2|8,0:0|0:0,0:0:0:0:
382,261,98283,1,2,0:0:0:0:
323,379,98596,1,2,0:0:0:0:
323,379,98752,2,0,L|256:366,1,50,10|8,0:0|0:0,0:0:0:0:
224,379,99065,38,0,P|167:367|103:355,1,100,6|8,0:0|0:0,0:0:0:0:
108,312,99533,2,0,P|68:258|84:208,1,100,2|0,0:0|0:0,0:0:0:0:
102,189,100002,1,10,0:0:0:0:
230,200,100315,2,0,P|270:171|273:120,1,100,2|10,0:0|0:0,0:0:0:0:
311,89,100783,2,0,P|296:42|247:24,1,100,2|2,0:0|0:0,0:0:0:0:
207,0,101252,1,8,0:0:0:0:
85,47,101565,5,2,0:0:0:0:
151,164,101877,1,10,0:0:0:0:
151,164,102033,2,0,P|87:183|19:168,2,100,2|2|2,0:0|0:0|0:0,0:0:0:0:
255,86,102971,2,0,L|323:70,2,50,8|8|8,0:0|0:0|0:0,0:0:0:0:
257,136,103440,2,0,P|282:184|277:255,1,100,4|0,0:0|0:0,0:0:0:0:
213,338,104065,1,4,0:0:0:0:
256,104,114065,6,0,L|256:36,2,50,4|4|4,0:0|0:0|0:0,0:0:0:0:
320,256,115158,1,4,0:0:0:0:
192,256,115471,1,4,0:0:0:0:
47,79,116565,2,0,L|-17:99,2,50,4|4|4,0:0|0:0|0:0,0:0:0:0:
188,0,117658,1,4,0:0:0:0:
171,129,117971,1,4,0:0:0:0:
465,79,119065,2,0,L|529:99,2,50,4|4|4,0:0|0:0|0:0,0:0:0:0:
341,129,120158,1,4,0:0:0:0:
324,0,120471,1,4,0:0:0:0:
256,252,121565,2,0,L|256:316,2,50,4|4|4,0:0|0:0|0:0,0:0:0:0:
320,120,122658,1,4,0:0:0:0:
192,120,122971,1,4,0:0:0:0:
256,192,125315,5,6,0:0:0:0:
333,88,125627,1,10,0:0:0:0:
333,88,125783,2,0,P|394:93|460:99,1,100,2|2,0:0|0:0,0:0:0:0:
482,105,126252,1,10,0:0:0:0:
512,232,126565,2,0,P|489:302|482:345,1,100,2|10,0:0|0:0,0:0:0:0:
444,358,127033,2,0,P|395:347|348:330,1,100,2|2,0:0|0:0,0:0:0:0:
322,287,127502,1,10,0:0:0:0:
207,348,127815,38,0,P|131:365|64:341,2,150,2|2|10,0:0|0:0|0:0,0:0:0:0:
211,217,129065,2,0,P|234:167|221:118,1,100,2|10,0:0|0:0,0:0:0:0:
241,77,129533,2,0,P|200:39|149:36,1,100,2|2,0:0|0:0,0:0:0:0:
110,53,130002,1,10,0:0:0:0:
9,135,130315,5,6,0:0:0:0:
44,265,130627,1,10,0:0:0:0:
44,265,130783,2,2,P|96:269|157:278,1,100,0|2,0:0|0:0,0:0:0:0:
192,288,131252,1,10,0:0:0:0:
283,380,131565,2,0,P|342:372|385:366,1,100,2|10,0:0|0:0,0:0:0:0:
420,335,132033,2,0,P|428:276|434:233,1,100,2|2,0:0|0:0,0:0:0:0:
407,193,132502,1,10,0:0:0:0:
286,143,132815,38,0,P|254:75|288:7,2,150,2|2|8,0:0|0:0|0:0,0:0:0:0:
272,272,134065,2,0,P|222:281|174:295,1,100,6|10,0:0|0:0,0:0:0:0:
129,314,134533,1,6,0:0:0:0:
48,211,134846,2,0,L|-34:195,2,50,10|6|8,0:0|0:0|0:0,0:0:0:0:
91,185,135315,5,6,0:0:0:0:
153,73,135627,1,10,0:0:0:0:
153,73,135783,2,0,L|275:55,1,100,2|2,0:0|0:0,0:0:0:0:
301,50,136252,1,10,0:0:0:0:
391,143,136565,2,0,L|506:161,1,100,2|10,0:0|0:0,0:0:0:0:
512,202,137033,2,0,L|494:317,1,100,2|2,0:0|0:0,0:0:0:0:
456,330,137502,1,10,0:0:0:0:
326,314,137815,38,0,P|317:233|347:165,2,150,2|2|10,0:0|0:0|0:0,0:0:0:0:
215,382,139065,1,2,0:0:0:0:
149,276,139377,1,8,0:0:0:0:
149,276,139533,2,0,P|92:267|37:260,1,100,2|2,0:0|0:0,0:0:0:0:
0,253,140002,1,10,0:0:0:0:
31,126,140315,6,0,P|66:91|120:100,1,100,6|8,0:0|0:0,0:0:0:0:
159,75,140783,2,0,P|203:97|211:151,1,100,2|0,0:0|0:0,0:0:0:0:
199,192,141252,1,10,0:0:0:0:
246,313,141565,2,0,P|281:348|335:339,1,100,2|10,0:0|0:0,0:0:0:0:
374,364,142033,2,0,P|418:341|426:287,1,100,2|2,0:0|0:0,0:0:0:0:
414,247,142502,1,8,0:0:0:0:
486,138,142815,38,0,P|435:128|384:119,1,100,6|10,0:0|0:0,0:0:0:0:
358,79,143283,1,2,0:0:0:0:
242,139,143596,1,2,0:0:0:0:
166,33,143908,1,2,0:0:0:0:
53,95,144221,1,8,0:0:0:0:
53,95,144377,2,0,L|66:164,1,50,10|0,0:0|0:0,0:0:0:0:
103,173,144690,2,0,L|90:242,1,50,12|10,0:0|0:0,0:0:0:0:
64,262,145002,1,8,0:3:0:0:
162,347,145315,5,6,0:0:0:0:
262,265,145627,1,10,0:0:0:0:
262,265,145783,2,8,P|254:189|247:150,1,100,2|2,0:0|0:0,0:0:0:0:
236,117,146252,1,10,0:0:0:0:
320,17,146565,2,0,P|390:25|444:38,1,100,2|10,0:0|0:0,0:0:0:0:
451,69,147033,2,0,P|443:139|430:193,1,100,2|2,0:0|0:0,0:0:0:0:
392,190,147502,1,10,0:0:0:0:
379,319,147815,38,0,P|441:276|513:294,2,150,2|2|10,0:0|0:0|0:0,0:0:0:0:
265,383,149065,2,0,P|256:319|247:278,1,100,2|10,0:0|0:0,0:0:0:0:
230,237,149533,1,2,0:0:0:0:
292,122,149846,2,0,L|341:112,2,50,2|8|0,0:0|0:0|0:0,0:0:0:0:
245,102,150315,5,6,0:0:0:0:
129,56,150627,1,10,0:0:0:0:
129,56,150783,2,0,P|62:72|24:86,1,100,2|2,0:0|0:0,0:0:0:0:
0,121,151252,1,10,0:0:0:0:
88,216,151565,2,0,P|76:283|68:331,1,100,2|10,0:0|0:0,0:0:0:0:
94,358,152033,2,0,P|161:370|209:378,1,100,2|2,0:0|0:0,0:0:0:0:
231,343,152502,1,10,0:0:0:0:
280,222,152815,38,0,P|347:195|423:209,2,150,6|2|8,0:0|0:0|0:0,0:0:0:0:
172,149,154065,1,6,0:0:0:0:
247,44,154377,1,8,0:0:0:0:
247,44,154533,2,0,P|305:52|367:67,1,100,6|10,0:0|0:0,0:0:0:0:
391,80,155002,1,10,0:0:0:0:
472,181,155315,5,6,0:0:0:0:
354,231,155627,1,10,0:0:0:0:
354,231,155783,2,0,P|339:289|331:343,1,100,2|2,0:0|0:0,0:0:0:0:
326,378,156252,1,10,0:0:0:0:
200,344,156565,2,0,P|146:370|95:342,1,100,2|10,0:0|0:0,0:0:0:0:
61,365,157033,2,0,P|78:274|87:232,1,100,2|2,0:0|0:0,0:0:0:0:
54,223,157502,1,10,0:0:0:0:
158,144,157815,38,0,P|145:84|117:-16,2,150,2|2|2,0:0|0:0|0:0,0:0:0:0:
285,169,159065,2,0,P|267:245|259:297,1,100,2|8,0:0|0:0,0:0:0:0:
257,316,159533,1,2,0:0:0:0:
385,335,159846,2,0,L|398:389,2,50,2|10|8,0:0|0:0|0:0,0:0:0:0:
417,296,160315,6,0,P|483:278|501:249,1,100,6|8,0:0|0:0,0:0:0:0:
483,206,160783,2,0,P|486:137|464:111,1,100,2|0,0:0|0:0,0:0:0:0:
421,98,161252,1,10,0:0:0:0:
335,0,161565,2,0,P|269:18|251:47,1,100,2|10,0:0|0:0,0:0:0:0:
269,90,162033,2,0,P|265:158|287:184,1,100,2|2,0:0|0:0,0:0:0:0:
331,198,162502,1,8,0:0:0:0:
268,311,162815,38,0,P|195:322|141:339,1,100,6|10,0:0|0:0,0:0:0:0:
124,350,163283,1,2,0:0:0:0:
17,275,163596,1,2,0:0:0:0:
108,182,163908,1,2,0:0:0:0:
3,104,164221,2,0,L|-15:47,2,50,8|8|0,0:0|0:0|0:0,0:0:0:0:
52,110,164690,2,0,P|89:69|149:77,1,100,12|8,0:0|0:0,0:0:0:0:
231,150,165315,37,4,0:0:0:0:
298,38,165627,2,0,P|382:27|500:14,1,200,8|8,0:0|0:0,0:0:0:0:
446,134,166565,1,0,0:0:0:0:
510,252,166877,1,8,0:0:0:0:
510,252,167033,2,0,P|502:308|487:376,1,100
454,382,167502,1,8,0:0:0:0:
353,299,167815,37,0,0:0:0:0:
235,353,168127,2,0,P|154:336|13:315,1,200,8|8,0:0|0:0,0:0:0:0:
99,203,169065,1,0,0:0:0:0:
7,119,169377,1,8,0:0:0:0:
7,119,169533,2,0,P|22:46|41:-15,1,100
78,11,170002,1,8,0:0:0:0:
204,40,170315,5,0,0:0:0:0:
269,152,170627,2,0,B|292:268|210:220|242:348,1,200,8|8,0:0|0:0,0:0:0:0:
364,383,171565,2,0,P|416:370|466:356,1,100,0|8,0:0|0:0,0:0:0:0:
507,339,172033,1,0,0:0:0:0:
431,240,172346,1,0,0:0:0:0:
431,240,172502,1,8,0:0:0:0:
511,137,172815,37,0,0:0:0:0:
420,43,173127,2,0,B|321:28|321:28|264:57|277:120,1,200,8|8,0:0|0:0,0:0:0:0:
344,218,174065,2,0,P|329:278|314:340,1,100,0|8,0:0|0:0,0:0:0:0:
277,340,174533,1,0,0:0:0:0:
176,266,174846,1,0,0:0:0:0:
176,266,175002,1,8,0:0:0:0:
75,348,175315,5,4,0:0:0:0:
0,241,175627,2,0,B|5:158|28:91|28:91|75:68,1,200,8|8,0:0|0:0,0:0:0:0:
173,149,176565,2,0,P|230:160|255:205,1,100,0|8,0:0|0:0,0:0:0:0:
296,214,177033,2,0,P|285:267|276:323,1,100
299,357,177502,1,8,0:0:0:0:
428,371,177815,37,0,0:0:0:0:
492,258,178127,2,0,P|454:155|374:147,1,200,8|8,0:0|0:0,0:0:0:0:
260,208,179065,2,0,P|253:152|238:83,1,100,0|8,0:0|0:0,0:0:0:0:
224,63,179533,2,0,L|96:47,1,100
74,45,180002,1,8,0:0:0:0:
9,158,180315,5,0,0:0:0:0:
109,239,180627,2,0,B|124:304|84:346|84:346|110:391|178:378,1,200,8|8,0:0|0:0,0:0:0:0:
274,325,181565,1,0,0:0:0:0:
230,208,181877,1,8,0:0:0:0:
230,208,182033,2,0,L|249:98,1,100
257,60,182502,1,8,0:0:0:0:
375,6,182815,37,0,0:0:0:0:
489,67,183127,2,0,B|468:126|407:144|407:144|449:171|461:241,1,200,8|8,0:0|0:0,0:0:0:0:
328,248,184065,1,0,0:0:0:0:
382,371,184377,1,12,0:0:0:0:
381,371,184533,2,0,P|333:379|284:369,1,100,8|8,0:0|0:0,0:0:0:0:
241,343,185002,1,8,0:3:0:0:
111,329,185315,6,0,L|125:242,1,50,12|12,0:0|0:0,0:0:0:0:
128,230,185627,1,12,0:0:0:0:
324,120,186408,37,12,0:0:0:0:
235,24,186721,1,12,0:0:0:0:
