osu file format v14

[General]
AudioFilename: audio.mp3
AudioLeadIn: 0
PreviewTime: 83440
Countdown: 0
SampleSet: Normal
StackLeniency: 0.7
Mode: 0
LetterboxInBreaks: 0
WidescreenStoryboard: 1

[Editor]
DistanceSpacing: 0.5
BeatDivisor: 4
GridSize: 4
TimelineZoom: 1

[Metadata]
Title:a wonderful days -rebirth-
TitleUnicode:a wonderful days -rebirth-
Artist:EiK feat. Raimu
ArtistUnicode:EiK feat. らいむ(゚ロ゚)。
Creator:ponbot
Version:Jabberwocky
Source:素晴らしき日々~不連続存在~
Tags:subahibi subarashiki hibi ~furenzoku sonzai~ japanese rock hinamommy kimikamymommy yoko
BeatmapID:2945039
BeatmapSetID:1430653

[Difficulty]
HPDrainRate:5.5
CircleSize:4
OverallDifficulty:8.5
ApproachRate:9.6
SliderMultiplier:1.8
SliderTickRate:1

[Events]
//Background and Video events
0,0,"yuki.jpg",0,0
//Break Periods
2,104265,113556
//Storyboard Layer 0 (Background)
//Storyboard Layer 1 (Fail)
//Storyboard Layer 2 (Pass)
//Storyboard Layer 3 (Foreground)
//Storyboard Layer 4 (Overlay)
//Storyboard Sound Samples

[TimingPoints]
315,312.5,4,2,1,30,1,0
315,-125,4,2,1,30,0,0
2815,-83.3333333333333,4,1,1,60,0,0
22815,-100,4,1,1,50,0,0
32815,-90.9090909090909,4,1,1,55,0,0
42815,-83.3333333333333,4,1,1,60,0,0
62815,-100,4,1,1,50,0,0
72815,-90.9090909090909,4,1,1,55,0,0
80315,-83.3333333333333,4,1,1,60,0,0
82815,-111.111111111111,4,1,1,40,0,0
84065,-71.4285714285714,4,1,1,80,0,1
104065,-83.3333333333333,4,1,1,60,0,0
114065,-66.6666666666667,4,1,1,50,0,0
125315,-71.4285714285714,4,1,1,80,0,1
128283,-55.5555555555556,4,1,1,80,0,1
128752,-71.4285714285714,4,1,1,80,0,1
130315,-50,4,1,1,80,0,1
140315,-66.6666666666667,4,1,1,80,0,1
165315,-83.3333333333333,4,1,1,60,0,0
186408,-125,4,1,1,60,0,0

[Colours]
Combo1 : 213,0,0
Combo2 : 184,225,241
Combo3 : 0,143,191
Combo4 : 255,170,170

[HitObjects]
44,131,315,21,2,0:0:0:0:
116,104,471,1,2,0:0:0:0:
164,164,627,1,2,0:0:0:0:
152,176,783,2,0,L|168:24,2,144,2|2|2,0:0|0:0|0:0,0:0:0:0:
256,248,1565,37,2,0:0:0:0:
228,240,1721,1,2,0:0:0:0:
188,252,1877,1,2,0:0:0:0:
160,296,2033,1,2,0:0:0:0:
176,360,2190,5,2,0:0:0:0:
252,376,2346,37,2,0:0:0:0:
368,236,2502,5,2,0:0:0:0:
332,336,2658,37,2,0:0:0:0:
352,120,2815,6,0,B|284:96|216:84|216:84|152:128,2,215.999993408203,4|8|0,0:0|0:0|0:0,0:0:0:0:
160,296,3596,1,0,0:0:0:0:
236,176,3752,1,8,0:0:0:0:
172,324,3908,38,0,P|118:316|65:306,1,107.999996704102
0,108,4221,1,0,0:0:0:0:
40,219,4377,2,0,P|35:116|120:56,1,215.999993408203,8|0,0:0|0:0,0:0:0:0:
188,0,4846,1,0,0:0:0:0:
342,193,5002,2,0,L|222:173,1,107.999996704102,8|0,0:0|0:0,0:0:0:0:
65,306,5236,5,8,0:0:0:0:
65,306,5315,2,0,B|209:298|125:362|273:354,1,215.999993408203,0|8,0:0|0:0,0:0:0:0:
224,372,5783,1,0,0:0:0:0:
408,312,5940,2,0,L|421:204,1,107.999996704102
268,108,6252,1,8,0:0:0:0:
325,282,6408,2,0,P|343:175|352:68,1,215.999993408203
188,0,6877,38,0,B|128:124|240:188,1,215.999993408203,8|0,0:0|0:0,0:0:0:0:
352,68,7346,1,0,0:0:0:0:
153,127,7502,2,0,B|175:184|235:185,1,107.999996704102,8|0,0:0|0:0,0:0:0:0:
408,312,7736,5,8,0:0:0:0:
408,312,7815,2,0,P|264:276|188:304,2,215.999993408203,0|8|0,0:0|0:0|0:0,0:0:0:0:
256,364,8596,1,0,0:0:0:0:
464,248,8752,1,8,0:0:0:0:
352,68,8908,38,0,P|337:119|336:173,1,107.999996704102
203,295,9221,1,0,0:0:0:0:
203,295,9377,2,0,P|202:241|187:189,1,107.999996704102,8|0,0:0|0:0,0:0:0:0:
43,143,9690,1,0,0:0:0:0:
102,297,9846,1,0,0:0:0:0:
208,161,10002,1,8,0:0:0:0:
16,128,10158,2,0,L|75:138,1,53.9999983520508,0|8,0:0|0:0,0:0:0:0:
239,146,10315,6,0,B|294:95|258:16|258:16|313:127,1,215.999993408203,0|8,0:0|0:0,0:0:0:0:
336,173,10783,1,0,0:0:0:0:
175,71,10940,2,0,P|155:130|152:202,1,107.999996704102
222,243,11252,1,8,0:0:0:0:
430,132,11408,38,0,P|332:96|239:145,1,215.999993408203
80,316,11877,2,0,P|177:351|271:303,1,215.999993408203,8|0,0:0|0:0,0:0:0:0:
238,145,12346,1,0,0:0:0:0:
392,88,12502,1,8,0:0:0:0:
508,232,12658,5,8,0:0:0:0:
508,232,12736,1,8,0:0:0:0:
508,232,12815,2,0,P|403:243|290:197,2,215.999993408203,4|8|0,0:0|0:0|0:0,0:0:0:0:
324,49,13596,1,0,0:0:0:0:
412,211,13752,1,8,0:0:0:0:
178,323,13908,2,0,P|182:268|192:173,1,107.999996704102
264,152,14221,37,0,0:0:0:0:
76,12,14377,2,0,P|30:64|67:194,1,215.999993408203,8|0,0:0|0:0,0:0:0:0:
24,272,14846,1,0,0:0:0:0:
264,152,15002,2,0,P|268:98|271:44,1,107.999996704102,8|0,0:0|0:0,0:0:0:0:
141,110,15236,5,8,0:0:0:0:
141,110,15315,2,0,P|158:217|177:323,1,215.999993408203,0|8,0:0|0:0,0:0:0:0:
124,384,15783,1,0,0:0:0:0:
368,312,15940,2,0,P|298:235|259:235,1,107.999996704102
196,244,16252,1,8,0:0:0:0:
368,311,16408,38,0,P|417:219|383:120,1,215.999993408203
256,8,16877,1,8,0:0:0:0:
196,244,17033,2,0,L|425:217,1,215.999993408203
104,152,17502,2,0,L|211:139,1,107.999996704102,8|0,0:0|0:0,0:0:0:0:
410,217,17736,5,8,0:0:0:0:
410,217,17815,2,0,P|440:116|400:18,2,215.999993408203,0|8|0,0:0|0:0|0:0,0:0:0:0:
368,311,18596,1,0,0:0:0:0:
324,120,18752,1,8,0:0:0:0:
468,308,18908,38,0,L|255:271,1,215.999993408203
68,240,19377,1,8,0:0:0:0:
228,376,19533,2,0,P|255:274|220:173,1,215.999993408203
68,240,20002,2,0,L|81:349,1,107.999996704102,8|0,0:0|0:0,0:0:0:0:
356,196,20236,5,8,0:0:0:0:
356,196,20315,2,0,L|143:159,2,215.999993408203,0|8|0,0:0|0:0|0:0,0:0:0:0:
160,252,21096,37,0,0:0:0:0:
339,103,21252,1,8,0:0:0:0:
264,256,21408,1,0,0:0:0:0:
235,99,21565,1,4,0:0:0:0:
356,292,21721,1,0,0:0:0:0:
356,292,21799,1,0,0:0:0:0:
356,292,21877,1,12,0:0:0:0:
143,63,22034,1,8,0:0:0:0:
143,63,22112,1,8,0:0:0:0:
143,63,22190,1,0,0:0:0:0:
408,205,22346,1,8,0:0:0:0:
354,195,22424,1,8,0:0:0:0:
301,186,22502,1,4,0:0:0:0:
248,177,22580,1,8,0:0:0:0:
195,168,22658,1,8,0:0:0:0:
141,159,22736,1,8,0:0:0:0:
88,150,22814,1,4,0:0:0:0:
413,115,23127,6,0,P|407:204|386:292,1,180,8|0,0:0|0:0,0:0:0:0:
335,367,23596,1,0,0:0:0:0:
335,367,23752,2,0,L|225:350,1,90,8|0,0:0|0:0,0:0:0:0:
472,324,24065,1,0,0:0:0:0:
300,185,24221,2,0,P|301:141|307:94,1,90,0|8,0:0|0:0,0:0:0:0:
463,70,24533,2,0,P|390:118|305:96,1,180
272,20,25002,1,8,0:0:0:0:
428,140,25158,1,0,0:0:0:0:
224,276,25315,38,0,P|215:186|223:96,1,180,0|8,0:0|0:0,0:0:0:0:
360,44,25783,2,0,P|368:133|360:223,1,180
292,164,26252,1,8,0:0:0:0:
445,90,26408,2,0,P|448:137|442:202,1,90
312,296,26721,1,0,0:0:0:0:
222,97,26877,1,8,0:0:0:0:
445,179,27033,2,0,P|420:216|376:256,1,90
222,97,27346,1,0,0:0:0:0:
387,247,27502,2,0,P|346:266|302:275,1,90,8|0,0:0|0:0,0:0:0:0:
56,92,27815,6,0,P|145:100|234:110,2,180,0|8|0,0:0|0:0|0:0,0:0:0:0:
256,192,28596,1,0,0:0:0:0:
152,68,28752,1,8,0:0:0:0:
24,168,28908,1,0,0:0:0:0:
128,292,29065,1,0,0:0:0:0:
104,212,29221,2,0,P|59:216|14:221,1,90,0|8,0:0|0:0,0:0:0:0:
256,192,29533,2,0,P|300:187|345:182,1,90
268,112,29846,1,0,0:0:0:0:
244,272,30002,1,8,0:0:0:0:
404,296,30158,1,0,0:0:0:0:
255,192,30315,38,0,P|207:265|228:352,1,180,0|8,0:0|0:0,0:0:0:0:
436,212,30783,2,0,L|328:148,1,90
268,112,31096,1,0,0:0:0:0:
407,339,31252,2,0,L|351:139,1,180,8|0,0:0|0:0,0:0:0:0:
197,62,31721,6,0,P|239:77|268:112,1,90,0|8,0:0|0:0,0:0:0:0:
247,277,32033,2,0,P|239:233|255:192,1,90
408,126,32346,1,0,0:0:0:0:
408,126,32502,2,0,P|373:155|330:162,1,90,12|0,0:0|0:0,0:0:0:0:
88,208,32815,38,0,L|118:12,2,198.000006042481,4|8|0,0:0|0:0|0:0,0:0:0:0:
20,268,33596,1,0,0:0:0:0:
180,168,33752,1,8,0:0:0:0:
4,184,33908,1,0,0:0:0:0:
68,336,34065,1,0,0:0:0:0:
204,144,34221,2,0,P|268:132|328:124,1,99.0000030212403,0|8,0:0|0:0,0:0:0:0:
156,332,34533,2,0,P|144:268|136:208,1,99.0000030212403
392,192,34846,2,0,P|404:256|412:316,1,99.0000030212403,0|8,0:0|0:0,0:0:0:0:
344,380,35158,1,0,0:0:0:0:
204,144,35315,6,0,P|256:244|232:328,1,198.000006042481,0|8,0:0|0:0,0:0:0:0:
64,304,35783,2,0,L|172:292,1,99.0000030212403
288,280,36096,1,0,0:0:0:0:
0,222,36252,2,0,L|196:200,1,198.000006042481,8|0,0:0|0:0,0:0:0:0:
364,104,36721,37,0,0:0:0:0:
188,180,36877,1,8,0:0:0:0:
264,356,37033,1,0,0:0:0:0:
440,280,37190,1,0,0:0:0:0:
284,148,37346,5,0,0:0:0:0:
238,265,37502,1,8,0:0:0:0:
352,311,37658,1,0,0:0:0:0:
397,196,37815,1,0,0:0:0:0:
352,311,37971,1,0,0:0:0:0:
238,265,38127,2,0,B|180:252|180:252|128:320|44:312,1,198.000006042481,8|0,0:0|0:0,0:0:0:0:
212,164,38596,37,0,0:0:0:0:
204,352,38752,1,8,0:0:0:0:
84,208,38908,1,0,0:0:0:0:
280,116,39065,1,0,0:0:0:0:
164,236,39221,1,0,0:0:0:0:
208,52,39377,1,8,0:0:0:0:
368,152,39533,1,0,0:0:0:0:
132,136,39690,1,0,0:0:0:0:
238,265,39846,1,0,0:0:0:0:
352,68,40002,1,8,0:0:0:0:
212,164,40158,1,0,0:0:0:0:
428,296,40315,6,0,P|434:246|440:156,1,99.0000030212403,4|0,0:0|0:0,0:0:0:0:
212,164,40627,1,8,0:0:0:0:
316,248,40783,1,0,0:0:0:0:
336,244,40861,1,8,0:0:0:0:
356,240,40940,1,0,0:0:0:0:
208,52,41096,1,0,0:0:0:0:
84,208,41252,1,8,0:0:0:0:
224,256,41408,1,4,0:0:0:0:
212,164,41565,37,0,0:0:0:0:
264,356,41721,1,0,0:0:0:0:
264,356,41799,1,0,0:0:0:0:
264,356,41877,1,8,0:0:0:0:
28,280,42033,1,0,0:0:0:0:
172,64,42190,1,0,0:0:0:0:
389,208,42346,1,8,0:0:0:0:
374,238,42424,1,8,0:0:0:0:
349,260,42502,1,4,0:3:0:0:
318,272,42580,1,4,0:3:0:0:
285,277,42658,1,8,0:3:0:0:
253,272,42736,1,8,0:3:0:0:
224,256,42814,1,4,0:0:0:0:
224,256,43127,6,0,P|328:248|444:244,1,215.999993408203,8|0,0:0|0:0,0:0:0:0:
284,156,43596,1,0,0:0:0:0:
400,328,43752,1,8,0:0:0:0:
216,248,43908,38,0,P|108:239|0:236,1,215.999993408203
252,332,44377,2,0,P|180:324|92:319,1,107.999996704102,8|0,0:0|0:0,0:0:0:0:
391,165,44690,2,0,P|319:157|236:155,1,107.999996704102
460,300,45002,2,0,P|406:293|324:292,1,107.999996704102,8|0,0:0|0:0,0:0:0:0:
220,88,45236,5,8,0:0:0:0:
220,88,45315,1,0,0:0:0:0:
292,232,45471,1,0,0:0:0:0:
112,208,45627,1,8,0:0:0:0:
240,64,45783,1,0,0:0:0:0:
120,24,45940,1,0,0:0:0:0:
200,176,46096,1,0,0:0:0:0:
320,52,46252,1,8,0:0:0:0:
87,16,46408,38,0,P|58:117|111:207,1,215.999993408203
308,159,46877,2,0,L|319:51,1,107.999996704102,8|0,0:0|0:0,0:0:0:0:
220,8,47190,2,0,L|208:115,1,107.999996704102
60,296,47502,2,0,L|168:284,1,107.999996704102,8|0,0:0|0:0,0:0:0:0:
303,299,47736,5,8,0:0:0:0:
303,299,47815,2,0,P|198:299|136:383,2,215.999993408203,0|8|0,0:0|0:0|0:0,0:0:0:0:
340,384,48596,1,0,0:0:0:0:
512,268,48752,1,8,0:0:0:0:
292,191,48908,38,0,P|297:244|302:298,1,107.999996704102
392,312,49221,1,0,0:0:0:0:
212,212,49377,1,8,0:0:0:0:
432,123,49533,2,0,P|427:176|422:230,1,107.999996704102
303,299,49846,1,0,0:0:0:0:
324,72,50002,1,8,0:0:0:0:
303,299,50158,1,0,0:0:0:0:
303,299,50236,1,8,0:0:0:0:
303,299,50315,6,0,P|232:288|168:280,1,107.999996704102
0,192,50627,2,0,P|53:184|106:176,1,107.999996704102,8|0,0:0|0:0,0:0:0:0:
304,40,50940,1,0,0:0:0:0:
264,184,51096,1,0,0:0:0:0:
120,148,51252,1,8,0:0:0:0:
160,4,51408,1,0,0:0:0:0:
120,148,51565,37,0,0:0:0:0:
208,104,51721,1,0,0:0:0:0:
156,20,51877,1,8,0:0:0:0:
68,64,52033,1,0,0:0:0:0:
156,20,52190,5,0,0:0:0:0:
192,224,52346,1,0,0:0:0:0:
376,184,52502,1,8,0:0:0:0:
192,224,52658,1,0,0:0:0:0:
192,224,52737,1,0,0:0:0:0:
192,224,52815,38,0,B|219:304|148:376|60:344,2,215.999993408203,4|8|0,0:0|0:0|0:0,0:0:0:0:
76,268,53596,1,0,0:0:0:0:
232,300,53752,1,8,0:0:0:0:
388,332,53908,2,0,P|408:272|424:208,1,107.999996704102
232,300,54221,1,0,0:0:0:0:
452,384,54377,2,0,P|486:331|518:273,1,107.999996704102,8|0,0:0|0:0,0:0:0:0:
304,120,54690,5,0,0:0:0:0:
232,300,54846,1,0,0:0:0:0:
304,120,55002,1,8,0:0:0:0:
76,268,55158,2,0,L|132:232,1,53.9999983520508,0|8,0:0|0:0,0:0:0:0:
304,120,55315,2,0,B|304:40|224:-8|144:48,1,215.999993408203,0|8,0:0|0:0,0:0:0:0:
188,124,55783,1,0,0:0:0:0:
416,12,55940,2,0,L|392:132,1,107.999996704102
372,208,56252,1,8,0:0:0:0:
91,159,56408,38,0,L|303:119,1,215.999993408203
48,260,56877,2,0,L|180:236,1,107.999996704102,8|0,0:0|0:0,0:0:0:0:
232,52,57190,1,0,0:0:0:0:
91,159,57346,1,0,0:0:0:0:
336,309,57502,2,0,P|358:260|371:207,1,107.999996704102,8|0,0:0|0:0,0:0:0:0:
232,52,57736,5,8,0:0:0:0:
232,52,57815,2,0,L|252:268,1,215.999993408203,0|8,0:0|0:0,0:0:0:0:
212,356,58283,1,0,0:0:0:0:
442,326,58440,2,0,P|388:316|335:308,1,107.999996704102
208,168,58752,1,8,0:0:0:0:
442,326,58908,2,0,P|491:237|429:156,1,215.999993408203
208,168,59377,2,0,P|224:216|288:228,1,107.999996704102,8|0,0:0|0:0,0:0:0:0:
360,16,59690,2,0,P|310:5|268:55,1,107.999996704102
429,156,60002,1,8,0:0:0:0:
152,64,60158,1,0,0:0:0:0:
152,64,60236,1,8,0:0:0:0:
152,64,60315,37,0,0:0:0:0:
76,276,60471,1,0,0:0:0:0:
296,224,60627,1,8,0:0:0:0:
216,180,60783,5,0,0:0:0:0:
302,363,60939,1,0,0:0:0:0:
409,190,61095,1,0,0:0:0:0:
330,213,61252,37,8,0:0:0:0:
501,274,61408,1,0,0:0:0:0:
459,96,61565,1,0,0:0:0:0:
216,180,61721,5,0,0:0:0:0:
302,363,61877,1,12,0:0:0:0:
409,190,62033,1,8,0:0:0:0:
409,190,62111,1,8,0:0:0:0:
409,190,62190,1,0,0:0:0:0:
152,64,62346,37,8,0:0:0:0:
139,97,62424,1,8,0:0:0:0:
127,131,62502,1,0,0:0:0:0:
115,165,62580,1,8,0:0:0:0:
103,199,62658,1,8,0:0:0:0:
91,233,62736,1,8,0:0:0:0:
79,267,62814,1,4,0:0:0:0:
84,272,63127,6,0,P|171:251|301:229,1,180,8|0,0:0|0:0,0:0:0:0:
184,332,63596,1,0,0:0:0:0:
115,165,63752,1,8,0:0:0:0:
272,240,63908,1,0,0:0:0:0:
164,352,64065,1,0,0:0:0:0:
300,160,64221,2,0,P|336:188|356:236,1,90,0|8,0:0|0:0,0:0:0:0:
184,332,64533,2,0,L|196:232,1,90
56,96,64846,2,0,P|100:90|145:85,1,90,0|8,0:0|0:0,0:0:0:0:
256,0,65158,1,0,0:0:0:0:
456,139,65315,38,0,B|384:192|384:192|288:155,1,180,0|8,0:0|0:0,0:0:0:0:
456,32,65783,2,0,P|464:76|464:128,1,90
312,252,66096,1,0,0:0:0:0:
436,317,66252,2,0,P|449:227|455:138,1,180,8|0,0:0|0:0,0:0:0:0:
368,112,66721,1,0,0:0:0:0:
284,84,66877,1,8,0:0:0:0:
200,56,67033,1,0,0:0:0:0:
312,252,67190,1,0,0:0:0:0:
200,56,67346,1,0,0:0:0:0:
88,216,67502,2,0,P|136:211|180:207,1,90,8|0,0:0|0:0,0:0:0:0:
284,84,67815,6,0,B|168:76|232:132|112:120,2,180,0|8|0,0:0|0:0|0:0,0:0:0:0:
88,216,68596,1,0,0:0:0:0:
308,64,68752,2,0,P|380:48|436:40,1,90,8|0,0:0|0:0,0:0:0:0:
224,0,69065,1,0,0:0:0:0:
420,40,69221,1,0,0:0:0:0:
380,236,69377,1,8,0:0:0:0:
184,196,69533,1,0,0:0:0:0:
320,24,69690,1,0,0:0:0:0:
397,140,69846,1,0,0:0:0:0:
280,218,70002,1,8,0:0:0:0:
203,101,70158,1,0,0:0:0:0:
420,40,70315,38,0,B|512:104|472:224,1,180,0|8,0:0|0:0,0:0:0:0:
262,306,70783,2,0,P|278:226|286:186,1,90
397,140,71096,1,0,0:0:0:0:
232,36,71252,2,0,L|192:236,1,180,8|0,0:0|0:0,0:0:0:0:
73,217,71721,5,0,0:0:0:0:
258,195,71877,1,8,0:0:0:0:
236,10,72033,37,0,0:0:0:0:
258,195,72189,1,0,0:0:0:0:
442,173,72346,5,0,0:0:0:0:
258,195,72502,1,8,0:0:0:0:
280,380,72658,37,0,0:0:0:0:
258,195,72815,2,0,B|255:111|148:80|92:160,2,198.000006042481,4|8|0,0:0|0:0|0:0,0:0:0:0:
196,252,73596,1,0,0:0:0:0:
136,84,73752,1,8,0:0:0:0:
312,112,73908,1,0,0:0:0:0:
180,276,74065,1,0,0:0:0:0:
395,151,74221,2,0,P|392:102|385:53,1,99.0000030212403,0|8,0:0|0:0,0:0:0:0:
136,84,74533,2,0,L|16:104,1,99.0000030212403
256,24,74846,1,0,0:0:0:0:
404,172,75002,2,0,L|306:155,1,99.0000030212403,8|0,0:0|0:0,0:0:0:0:
180,276,75315,6,0,B|316:268|232:320|372:312,1,198.000006042481,0|8,0:0|0:0,0:0:0:0:
104,120,75783,2,0,L|92:236,1,99.0000030212403
48,312,76096,1,0,0:0:0:0:
200,79,76252,2,0,L|180:276,1,198.000006042481,8|0,0:0|0:0,0:0:0:0:
104,120,76721,1,0,0:0:0:0:
308,72,76877,1,8,0:0:0:0:
216,244,77033,1,0,0:0:0:0:
256,16,77190,1,0,0:0:0:0:
459,119,77346,1,0,0:0:0:0:
291,169,77502,2,0,P|303:101|311:49,1,99.0000030212403,8|0,0:0|0:0,0:0:0:0:
56,24,77815,38,0,P|27:119|60:211,1,198.000006042481,0|8,0:0|0:0,0:0:0:0:
148,192,78283,1,0,0:0:0:0:
14,291,78440,1,0,0:0:0:0:
150,279,78596,1,0,0:0:0:0:
286,267,78752,2,0,P|290:191|290:127,1,99.0000030212403,8|0,0:0|0:0,0:0:0:0:
192,56,79065,5,0,0:0:0:0:
148,192,79221,1,0,0:0:0:0:
290,168,79377,1,8,0:0:0:0:
142,69,79533,37,0,0:0:0:0:
133,240,79689,1,0,0:0:0:0:
290,168,79845,1,0,0:0:0:0:
88,100,80002,5,8,0:0:0:0:
130,301,80158,1,0,0:0:0:0:
290,168,80315,2,0,P|368:160|432:156,1,107.999996704102,4|0,0:0|0:0,0:0:0:0:
248,240,80627,37,8,0:0:0:0:
76,0,80783,2,0,P|20:80|52:204,1,215.999993408203
272,44,81252,1,8,0:0:0:0:
416,248,81408,1,4,0:0:0:0:
196,340,81565,6,0,B|200:236|248:232|240:108,1,215.999993408203,0|8,0:0|0:0,0:0:0:0:
365,17,82033,1,8,0:0:0:0:
368,20,82111,1,8,0:0:0:0:
372,24,82190,1,0,0:0:0:0:
88,100,82346,37,8,0:0:0:0:
145,139,82424,1,8,0:0:0:0:
200,160,82502,1,8,0:3:0:0:
246,172,82580,1,8,0:3:0:0:
283,178,82658,1,4,0:3:0:0:
309,179,82736,1,4,0:3:0:0:
321,178,82815,1,4,0:2:0:0:
116,296,83596,5,2,2:0:0:0:
80,284,83752,1,2,2:0:0:0:
44,284,83908,1,2,2:0:0:0:
272,88,84065,37,6,0:0:0:0:
184,244,84221,2,0,P|188:164|200:84,1,125.999996154785,0|10,0:0|0:0,0:0:0:0:
336,4,84533,2,0,P|376:76|328:176,1,188.999994232178,2|8,0:0|0:0,0:0:0:0:
324,176,84846,2,0,L|412:180,1,62.9999980773926,2|0,0:0|2:0,0:0:0:0:
488,192,85002,1,10,0:0:0:0:
276,296,85158,1,2,0:2:0:0:
484,304,85315,6,0,B|360:284|428:348|300:328,1,188.999994232178,2|0,0:0|0:0,0:0:0:0:
328,360,85627,1,10,0:0:0:0:
144,172,85783,1,2,0:0:0:0:
17,305,85940,1,0,0:0:0:0:
20,308,86018,1,8,0:0:0:0:
24,312,86096,1,2,0:0:0:0:
204,288,86252,1,10,0:0:0:0:
172,76,86408,1,2,0:2:0:0:
68,108,86565,37,2,0:0:0:0:
244,144,86721,1,0,0:0:0:0:
420,180,86877,1,8,0:0:0:0:
196,224,87033,6,0,P|168:144|252:40,1,188.999994232178,2|8,0:0|0:0,0:0:0:0:
256,40,87346,1,0,0:0:0:0:
368,104,87502,1,10,0:0:0:0:
180,308,87658,1,2,0:2:0:0:
180,308,87736,1,8,0:0:0:0:
180,308,87815,38,0,L|312:324,1,125.999996154785,2|2,0:0|0:2,0:0:0:0:
244,144,88127,1,10,0:0:0:0:
40,204,88283,6,0,L|272:232,1,188.999994232178,2|8,0:0|0:0,0:0:0:0:
276,232,88596,1,2,0:0:0:0:
112,244,88752,1,10,0:0:0:0:
180,60,88908,1,2,0:2:0:0:
244,304,89065,38,0,B|324:364|412:316|412:316|436:240,1,251.999992309571,6|10,0:0|0:0,0:0:0:0:
449,153,89533,1,2,0:0:0:0:
452,156,89611,1,8,0:0:0:0:
456,160,89690,1,0,0:0:0:0:
276,232,89846,1,2,0:0:0:0:
96,304,90002,1,10,0:0:0:0:
300,248,90158,1,2,0:2:0:0:
144,132,90315,6,0,B|19:108|19:108|-32:44|43:4,1,251.999992309571,2|10,0:0|0:0,0:0:0:0:
160,152,90783,1,2,0:0:0:0:
292,36,90940,1,0,0:0:0:0:
328,24,91018,1,8,0:0:0:0:
366,24,91096,1,2,0:0:0:0:
204,0,91252,1,10,0:0:0:0:
454,60,91408,1,2,0:2:0:0:
292,232,91565,38,0,B|243:194|243:194|224:128|260:72,1,188.999994232178,2|0,0:0|0:0,0:0:0:0:
292,36,91877,1,10,0:0:0:0:
492,144,92033,2,0,L|416:164,1,62.9999980773926,2|8,0:0|0:0,0:0:0:0:
268,312,92190,1,0,0:0:0:0:
268,312,92268,1,8,0:0:0:0:
268,312,92346,1,2,0:0:0:0:
332,136,92502,1,8,0:0:0:0:
488,356,92658,2,0,L|504:295,1,62.9999980773926,10|8,0:0|0:0,0:0:0:0:
344,296,92815,5,6,0:0:0:0:
490,171,92971,37,8,0:0:0:0:
449,173,93049,1,8,0:0:0:0:
411,154,93127,1,8,0:0:0:0:
373,135,93205,1,8,0:0:0:0:
332,136,93283,1,6,0:0:0:0:
172,332,93440,6,0,P|152:292|160:240,1,62.9999980773926,8|8,0:0|0:0,0:0:0:0:
108,256,93596,2,0,P|122:213|164:182,1,62.9999980773926,10|8,0:0|0:0,0:0:0:0:
232,168,93752,1,6,0:0:0:0:
44,24,93908,37,8,0:0:0:0:
44,24,93986,1,8,0:0:0:0:
44,24,94065,1,6,0:0:0:0:
16,240,94221,2,0,P|28:176|48:88,1,125.999996154785,0|10,0:0|0:0,0:0:0:0:
304,184,94533,6,0,B|192:160|240:220|116:196,1,188.999994232178,2|8,0:0|0:0,0:0:0:0:
72,180,94846,1,2,0:0:0:0:
288,96,95002,2,0,P|216:84|196:80,1,62.9999980773926,10|0,0:0|0:0,0:0:0:0:
132,24,95158,2,0,L|144:96,1,62.9999980773926,2|0,0:2|0:0,0:0:0:0:
268,280,95315,38,0,P|364:268|412:184,1,188.999994232178,2|0,0:0|0:0,0:0:0:0:
412,152,95627,1,10,0:0:0:0:
142,86,95783,1,2,0:0:0:0:
232,352,95940,1,0,0:0:0:0:
232,352,96018,1,8,0:0:0:0:
232,352,96096,1,2,0:0:0:0:
304,184,96252,1,10,0:0:0:0:
123,206,96408,1,2,0:2:0:0:
123,206,96486,1,0,0:0:0:0:
122,206,96565,6,0,P|184:219|244:237,1,125.999996154785,2|0,0:0|0:0,0:0:0:0:
424,144,96877,1,8,0:0:0:0:
310,67,97033,1,2,0:0:0:0:
310,67,97111,2,0,P|286:131|310:191,1,125.999996154785,8|8,0:0|0:0,0:0:0:0:
340,212,97346,2,0,L|420:232,1,62.9999980773926
504,184,97502,37,10,0:0:0:0:
256,0,97658,1,2,0:2:0:0:
108,198,97815,1,2,0:0:0:0:
266,316,97971,1,2,0:0:0:0:
108,198,98127,1,8,0:0:0:0:
181,98,98283,1,2,0:0:0:0:
281,171,98440,1,0,0:0:0:0:
281,171,98518,1,8,0:0:0:0:
281,171,98596,1,2,0:0:0:0:
52,360,98752,5,10,0:0:0:0:
44,310,98830,1,8,0:0:0:0:
37,260,98908,1,8,0:0:0:0:
30,210,98986,1,8,0:0:0:0:
23,160,99065,38,0,B|104:104|104:104|204:128|184:228,1,251.999992309571,6|8,0:0|0:0,0:0:0:0:
52,360,99533,1,2,0:0:0:0:
52,360,99611,1,8,0:0:0:0:
108,198,99768,1,8,0:0:0:0:
108,198,99846,1,0,0:0:0:0:
164,36,100002,1,10,0:0:0:0:
23,160,100158,2,0,L|108:196,1,62.9999980773926,0|8,0:0|0:0,0:0:0:0:
256,256,100315,6,0,P|284:199|291:137,1,125.999996154785,2|0,0:0|0:0,0:0:0:0:
164,36,100627,1,10,0:0:0:0:
172,272,100783,1,2,0:0:0:0:
172,272,100861,1,8,0:0:0:0:
384,264,101018,1,8,0:0:0:0:
384,264,101096,1,2,0:0:0:0:
376,73,101252,1,8,0:0:0:0:
204,80,101408,1,2,0:0:0:0:
376,73,101565,37,2,0:0:0:0:
384,264,101721,1,0,0:0:0:0:
257,269,101877,1,10,0:0:0:0:
256,168,102033,1,2,0:0:0:0:
256,168,102111,2,0,P|340:160|408:164,1,125.999996154785,8|8,0:0|0:0,0:0:0:0:
432,164,102346,5,2,0:0:0:0:
256,364,102502,1,8,0:0:0:0:
88,232,102658,1,2,0:0:0:0:
256,364,102815,1,0,0:0:0:0:
320,164,102971,1,8,0:0:0:0:
256,364,103127,1,8,0:0:0:0:
200,84,103283,1,8,0:0:0:0:
256,364,103440,1,4,0:0:0:0:
0,208,103596,37,8,0:0:0:0:
20,171,103674,1,8,0:0:0:0:
54,147,103752,1,0,0:0:0:0:
94,136,103830,1,8,0:0:0:0:
136,138,103908,1,8,0:0:0:0:
174,154,103986,1,8,0:0:0:0:
202,185,104065,1,4,0:0:0:0:
172,90,114065,22,0,P|151:116|151:149,1,67.5000025749208,4|0,0:0|2:0,0:0:0:0:
340,294,114221,2,0,P|360:267|360:234,1,67.5000025749208,4|0,0:0|2:0,0:0:0:0:
256,48,114377,1,4,0:0:0:0:
176,324,115158,22,0,B|153:212|244:250|226:127,1,202.500007724762,4|0,0:0|2:0,0:0:0:0:
256,48,115471,1,4,0:0:0:0:
40,160,116565,22,0,P|66:153|127:165,1,67.5000025749208,4|0,0:0|2:0,0:0:0:0:
224,100,116721,2,0,P|247:113|281:165,1,67.5000025749208,4|0,0:0|2:0,0:0:0:0:
396,187,116877,1,4,0:0:0:0:
81,99,117658,22,0,B|184:162|173:74|287:153,1,202.500007724762,4|0,0:0|2:0,0:0:0:0:
396,187,117971,1,4,0:0:0:0:
124,366,119065,22,0,P|148:344|153:294,1,67.5000025749208,4|0,0:0|2:0,0:0:0:0:
329,356,119221,2,0,P|330:323|298:284,1,67.5000025749208,4|0,0:0|2:0,0:0:0:0:
467,203,119377,1,4,0:0:0:0:
117,313,120158,22,0,B|224:262|209:341|313:293,1,202.500007724762,4|0,0:0|2:0,0:0:0:0:
467,203,120471,1,4,0:0:0:0:
462,294,121565,22,0,P|425:283|398:264,1,67.5000025749208,4|0,0:0|2:0,0:0:0:0:
254,278,121721,2,0,P|235:244|229:211,1,67.5000025749208,4|0,0:0|2:0,0:0:0:0:
118,119,121877,1,4,0:0:0:0:
424,238,122658,22,0,B|306:181|341:265|223:213,1,202.500007724762,4|0,0:0|2:0,0:0:0:0:
118,119,122971,1,4,0:0:0:0:
256,192,123127,12,0,124690,2:0:0:0:
368,72,124846,21,2,2:0:0:0:
411,86,125002,1,2,2:0:0:0:
454,86,125158,1,2,2:0:0:0:
212,284,125315,5,6,0:0:0:0:
272,96,125471,2,0,P|279:152|282:179,1,62.9999980773926,0|0,0:0|2:0,0:0:0:0:
424,220,125627,1,10,0:0:0:0:
204,296,125783,2,0,B|160:254|104:262|104:262|72:299|8:288,1,188.999994232178,2|8,0:0|0:0,0:0:0:0:
40,208,126096,2,0,P|73:174|131:161,1,62.9999980773926,2|0,0:0|2:0,0:0:0:0:
128,80,126252,2,0,P|175:79|225:111,1,62.9999980773926,10|0,0:0|2:0,0:0:0:0:
280,51,126408,2,0,P|314:84|327:142,1,62.9999980773926,2|8,0:2|0:0,0:0:0:0:
424,220,126565,37,2,0:0:0:0:
423,220,126643,1,0,0:0:0:0:
424,220,126721,1,0,0:0:0:0:
204,296,126877,2,0,L|222:194,1,62.9999980773926,10|0,0:0|2:0,0:0:0:0:
128,80,127033,1,2,0:0:0:0:
115,76,127111,1,0,0:0:0:0:
102,72,127190,1,0,0:0:0:0:
40,208,127346,2,0,P|78:194|127:182,1,62.9999980773926,2|0,0:0|2:0,0:0:0:0:
204,296,127502,2,0,P|233:307|263:316,1,62.9999980773926,10|0,0:0|2:0,0:0:0:0:
320,97,127658,2,0,P|349:85|379:76,1,62.9999980773926,2|0,0:2|2:0,0:0:0:0:
512,252,127815,6,0,L|316:232,1,188.999994232178,2|0,0:0|2:0,0:0:0:0:
276,228,128127,2,0,P|248:204|248:140,1,62.9999980773926,8|0,0:0|2:0,0:0:0:0:
356,16,128283,2,0,B|442:-3|442:-3|470:-10|508:18|488:64|461:71|461:71|414:80,1,242.999992584229,2|8,0:0|0:0,0:0:0:0:
404,84,128596,1,0,0:0:0:0:
172,0,128752,2,0,B|136:16|136:16|108:56|120:104,1,125.999996154785,10|0,0:0|2:0,0:0:0:0:
239,180,128986,1,0,0:0:0:0:
239,180,129065,38,0,L|247:108,1,62.9999980773926,2|0,0:0|2:0,0:0:0:0:
56,224,129221,2,0,L|10:167,1,62.9999980773926,2|0,0:2|2:0,0:0:0:0:
278,229,129377,2,0,L|232:172,1,62.9999980773926,10|0,0:0|2:0,0:0:0:0:
49,286,129533,2,0,L|57:214,1,62.9999980773926,2|8,0:0|0:0,0:0:0:0:
188,368,129690,5,0,0:0:0:0:
300,198,129846,1,2,0:0:0:0:
300,198,129924,1,0,0:0:0:0:
300,198,130002,1,10,0:0:0:0:
326,248,130080,1,0,0:0:0:0:
381,261,130158,1,8,0:0:0:0:
434,241,130236,1,8,0:0:0:0:
468,196,130315,38,0,B|516:144|476:28|368:44|368:44|376:104,1,270,6|0,0:0|2:0,0:0:0:0:
376,96,130627,1,10,0:0:0:0:
480,204,130783,2,2,P|435:209|391:218,1,90,0|8,0:0|0:0,0:0:0:0:
208,284,130940,1,0,0:0:0:0:
348,364,131096,6,0,P|360:332|328:268,1,90,2|0,0:0|2:0,0:0:0:0:
324,156,131252,2,0,P|309:124|241:102,1,90,10|0,0:0|2:0,0:0:0:0:
159,25,131408,2,0,P|127:13|63:45,1,90,2|0,0:2|2:0,0:0:0:0:
48,256,131565,38,0,B|1:228|1:228|16:128|121:144|121:144|129:200,1,270,2|0,0:0|2:0,0:0:0:0:
204,232,131877,2,0,P|184:268|120:276,1,90,10|0,0:0|2:0,0:0:0:0:
0,360,132033,2,0,P|40:336|88:340,1,90,2|8,0:0|0:0,0:0:0:0:
148,384,132190,1,0,0:0:0:0:
316,152,132346,6,0,P|289:186|287:231,1,90,2|0,0:0|2:0,0:0:0:0:
456,376,132502,2,0,P|482:341|484:296,1,90,10|0,0:0|2:0,0:0:0:0:
304,144,132658,2,0,P|277:178|275:223,1,90,2|0,0:2|2:0,0:0:0:0:
440,368,132815,38,0,B|270:389|357:284|186:314,1,270,2|0,0:0|2:0,0:0:0:0:
140,332,133127,1,10,0:0:0:0:
392,124,133283,1,2,0:0:0:0:
400,144,133362,1,8,0:0:0:0:
396,164,133440,1,0,0:0:0:0:
155,51,133596,2,0,L|271:31,1,90,2|0,0:0|2:0,0:0:0:0:
333,21,133752,2,0,L|244:36,1,90,8|0,0:0|2:0,0:0:0:0:
148,208,133908,1,10,0:0:0:0:
148,208,133986,1,8,0:0:0:0:
148,208,134065,1,6,0:0:0:0:
435,29,134221,5,8,0:0:0:0:
454,77,134299,1,8,0:0:0:0:
425,120,134377,1,10,0:0:0:0:
396,164,134455,1,8,0:0:0:0:
415,212,134533,1,6,0:0:0:0:
155,51,134690,38,0,P|220:80|244:132,1,90,8|8,0:0|0:0,0:0:0:0:
372,80,134846,2,0,P|397:146|377:200,1,90,10|8,0:0|0:0,0:0:0:0:
320,342,135002,1,6,0:0:0:0:
88,128,135158,5,8,0:0:0:0:
88,128,135236,1,8,0:0:0:0:
88,128,135315,1,6,0:0:0:0:
0,288,135471,2,0,P|40:239|96:219,1,90,0|0,0:0|2:0,0:0:0:0:
148,208,135627,1,10,0:0:0:0:
4,124,135783,2,0,P|100:160|284:156,1,270,2|8,0:0|0:0,0:0:0:0:
300,148,136096,2,0,P|324:136|296:144,1,90,2|0,0:0|2:0,0:0:0:0:
432,0,136252,2,0,P|392:28|360:64,1,90,10|0,0:0|2:0,0:0:0:0:
308,236,136408,1,0,0:0:0:0:
512,112,136565,38,0,B|484:112|468:132|468:132|480:248|404:288|404:288|396:256|356:240,1,270,2|0,0:0|2:0,0:0:0:0:
308,236,136877,2,0,P|304:280|336:316,1,90,10|0,0:0|2:0,0:0:0:0:
484,344,137033,2,0,B|504:320|504:320|504:232|396:164|396:164|356:168|304:120,1,270,2|8,0:0|0:0,0:0:0:0:
324,132,137346,1,2,0:0:0:0:
512,112,137502,2,0,P|504:144|448:176,1,90,10|0,0:0|2:0,0:0:0:0:
413,306,137658,2,0,P|384:322|322:306,1,90,2|0,0:2|2:0,0:0:0:0:
96,140,137815,6,0,B|132:100|196:124|196:124|108:124|56:216|84:260,1,270,2|0,0:0|2:0,0:0:0:0:
20,276,138127,2,0,P|32:308|112:312,1,90,8|0,0:0|2:0,0:0:0:0:
248,256,138283,2,0,B|292:204|180:160|104:208|140:364|236:348,1,270,2|8,0:0|0:0,0:0:0:0:
232,352,138596,1,0,0:0:0:0:
424,180,138752,2,0,P|336:198|292:212,1,90,10|0,0:0|2:0,0:0:0:0:
248,256,138908,37,2,0:2:0:0:
248,256,138986,1,0,0:0:0:0:
248,256,139065,1,2,0:0:0:0:
462,284,139221,1,2,0:0:0:0:
490,70,139377,1,8,0:0:0:0:
276,42,139533,1,2,0:0:0:0:
261,148,139690,1,0,0:0:0:0:
368,162,139846,1,2,0:0:0:0:
382,56,140002,1,10,0:0:0:0:
276,42,140158,1,8,0:0:0:0:
268,94,140236,1,8,0:0:0:0:
261,148,140315,6,0,P|144:140|52:136,1,202.500007724762,6|0,0:0|2:0,0:0:0:0:
8,212,140627,2,0,P|64:216|112:220,1,67.5000025749208,8|0,0:0|2:0,0:0:0:0:
180,56,140783,1,2,0:0:0:0:
180,56,140861,1,8,0:0:0:0:
180,56,140940,2,0,L|171:130,1,67.5000025749208,0|8,0:0|0:0,0:0:0:0:
152,304,141096,1,0,0:0:0:0:
336,296,141252,2,0,P|340:236|344:196,1,67.5000025749208,10|0,0:0|2:0,0:0:0:0:
261,148,141408,37,0,0:0:0:0:
261,148,141486,1,0,0:0:0:0:
261,148,141565,1,2,0:0:0:0:
244,368,141721,1,0,0:0:0:0:
68,304,141877,1,10,0:0:0:0:
340,228,142033,1,2,0:0:0:0:
340,228,142111,1,8,0:0:0:0:
340,228,142190,2,0,L|267:205,1,67.5000025749208,0|8,0:0|0:0,0:0:0:0:
58,136,142346,1,2,0:0:0:0:
152,304,142502,1,8,0:0:0:0:
261,148,142658,5,2,0:0:0:0:
261,148,142736,1,8,0:0:0:0:
261,148,142815,2,0,P|353:124|461:132,1,202.500007724762,6|0,0:0|2:0,0:0:0:0:
496,144,143127,2,0,P|496:180|484:252,1,67.5000025749208,10|0,0:0|2:0,0:0:0:0:
350,287,143283,2,0,P|258:311|150:303,1,202.500007724762,2|8,0:0|0:0,0:0:0:0:
115,291,143595,2,0,P|115:255|127:183,1,67.5000025749208,2|0,0:0|2:0,0:0:0:0:
244,64,143752,37,8,0:0:0:0:
350,287,143908,1,2,0:0:0:0:
224,52,144065,1,0,0:0:0:0:
115,291,144221,1,8,0:0:0:0:
375,298,144377,1,10,0:0:0:0:
207,45,144533,1,0,0:0:0:0:
207,45,144611,1,0,0:0:0:0:
207,45,144690,1,12,0:0:0:0:
96,312,144846,5,10,0:0:0:0:
151,303,144924,1,8,0:0:0:0:
207,295,145002,1,8,0:3:0:0:
262,287,145080,1,0,0:0:0:0:
318,279,145158,1,8,0:3:0:0:
374,271,145236,1,8,0:0:0:0:
429,262,145314,1,6,0:0:0:0:
207,45,145471,38,0,P|185:80|195:143,1,67.5000025749208,0|0,0:0|2:0,0:0:0:0:
93,163,145627,2,0,P|102:203|153:240,1,67.5000025749208,10|0,0:0|2:0,0:0:0:0:
318,279,145783,2,8,B|401:233|336:144|336:144|310:183,1,202.500007724762,2|8,0:0|0:0,0:0:0:0:
300,200,146096,1,2,0:0:0:0:
480,320,146252,2,0,P|443:310|398:300,1,67.5000025749208,10|0,0:0|2:0,0:0:0:0:
300,200,146408,2,0,P|263:190|218:180,1,67.5000025749208,2|0,0:2|2:0,0:0:0:0:
37,342,146565,6,0,B|90:366|90:366|178:364|213:280,1,202.500007724762,2|0,0:0|2:0,0:0:0:0:
218,261,146877,1,10,0:0:0:0:
4,81,147033,2,0,L|14:175,1,67.5000025749208,2|8,0:0|0:0,0:0:0:0:
104,288,147190,1,0,0:0:0:0:
104,288,147268,1,8,0:0:0:0:
104,288,147346,1,2,0:0:0:0:
352,130,147502,2,0,L|266:108,1,67.5000025749208,10|0,0:0|2:0,0:0:0:0:
116,176,147658,2,0,P|191:169|208:132,1,67.5000025749208,2|0,0:2|2:0,0:0:0:0:
308,12,147815,38,0,P|265:97|286:232,1,202.500007724762,2|0,0:0|2:0,0:0:0:0:
298,236,148127,2,0,P|332:234|359:192,1,67.5000025749208,8|0,0:0|2:0,0:0:0:0:
242,53,148283,2,0,B|199:18|199:18|109:6|34:47,1,202.500007724762,2|8,0:0|0:0,0:0:0:0:
18,64,148596,1,0,0:0:0:0:
179,177,148752,1,10,0:0:0:0:
359,24,148908,5,2,0:2:0:0:
376,18,148986,1,0,0:0:0:0:
393,13,149065,1,2,0:0:0:0:
191,29,149221,1,2,0:2:0:0:
179,177,149377,1,10,0:0:0:0:
375,224,149533,1,2,0:0:0:0:
375,224,149611,2,0,P|320:183|230:169,1,135.000005149842,8|8,0:0|0:0,0:0:0:0:
179,177,149846,2,0,L|90:188,1,67.5000025749208,2|0,0:0|2:0,0:0:0:0:
36,196,150002,1,8,0:0:0:0:
209,345,150158,37,0,0:0:0:0:
209,345,150236,1,8,0:0:0:0:
209,345,150315,2,0,B|271:362|309:302|309:302|366:284|408:349,1,202.500007724762,6|0,0:0|2:0,0:0:0:0:
408,345,150627,2,0,P|434:362|502:345,1,67.5000025749208,10|0,0:0|2:0,0:0:0:0:
512,136,150783,2,0,B|427:153|427:153|407:180|407:180|305:200,1,202.500007724762,2|8,0:0|0:0,0:0:0:0:
282,203,151096,2,0,P|243:194|190:158,1,67.5000025749208,2|2,0:0|2:0,0:0:0:0:
132,168,151252,2,0,P|110:134|98:71,1,67.5000025749208,10|0,0:0|2:0,0:0:0:0:
168,0,151408,1,2,0:2:0:0:
397,52,151565,6,0,B|423:105|423:105|424:186|369:240,1,202.500007724762,2|0,0:0|2:0,0:0:0:0:
356,275,151877,2,0,P|369:312|438:306,1,67.5000025749208,10|0,0:0|2:0,0:0:0:0:
512,136,152033,2,0,P|367:161|275:180,1,202.500007724762,2|8,0:0|0:0,0:0:0:0:
267,186,152346,1,2,0:0:0:0:
166,334,152502,1,10,0:0:0:0:
9,156,152658,1,2,0:2:0:0:
9,156,152736,1,8,0:0:0:0:
9,156,152815,38,0,B|49:227|133:186|133:186|157:108,1,202.500007724762,6|0,0:0|2:0,0:0:0:0:
161,89,153127,2,0,L|183:9,1,67.5000025749208,10|0,0:0|2:0,0:0:0:0:
345,271,153283,2,0,B|285:334|191:298|180:222,1,202.500007724762,2|8,0:0|0:0,0:0:0:0:
168,195,153595,2,0,L|146:115,1,67.5000025749208,2|0,0:0|2:0,0:0:0:0:
28,28,153752,1,8,0:0:0:0:
256,124,153908,5,10,0:0:0:0:
269,121,153986,1,8,0:0:0:0:
283,119,154065,1,6,0:0:0:0:
166,334,154221,37,8,0:0:0:0:
119,341,154299,1,8,0:0:0:0:
75,322,154377,1,8,0:0:0:0:
60,277,154455,1,8,0:0:0:0:
78,233,154533,1,6,0:0:0:0:
283,119,154690,6,0,L|194:104,1,67.5000025749208,8|8,0:0|0:0,0:0:0:0:
28,28,154846,2,0,L|94:39,1,67.5000025749208,10|8,0:0|0:0,0:0:0:0:
233,15,155002,1,10,0:0:0:0:
320,262,155158,37,8,0:0:0:0:
320,262,155236,1,8,0:0:0:0:
320,262,155315,2,0,B|249:326|155:274|169:180,1,202.500007724762,6|0,0:0|2:0,0:0:0:0:
171,166,155627,1,10,0:0:0:0:
469,29,155783,2,0,B|430:59|441:120|441:120|424:60|374:51,1,202.500007724762,2|8,0:0|0:0,0:0:0:0:
359,135,156096,2,0,P|374:176|424:201,1,67.5000025749208,2|0,0:0|2:0,0:0:0:0:
512,240,156252,2,0,L|412:266,1,67.5000025749208,10|0,0:0|2:0,0:0:0:0:
283,119,156408,1,2,0:2:0:0:
201,310,156565,6,0,B|118:325|118:325|93:300|93:300|11:314,1,202.500007724762,2|0,0:0|2:0,0:0:0:0:
60,327,156877,2,0,P|113:309|136:267,1,67.5000025749208,10|0,0:0|2:0,0:0:0:0:
256,208,157033,2,0,P|225:108|135:79,1,202.500007724762,2|8,0:0|0:0,0:0:0:0:
95,85,157346,2,0,L|115:170,1,67.5000025749208,2|0,0:0|2:0,0:0:0:0:
53,291,157502,2,0,P|88:300|140:298,1,67.5000025749208,10|0,0:0|2:0,0:0:0:0:
300,296,157658,1,2,0:2:0:0:
16,202,157815,38,0,B|128:204|220:169,1,202.500007724762,2|0,0:0|2:0,0:0:0:0:
255,148,158127,1,8,0:0:0:0:
484,334,158283,2,0,B|428:349|428:349|378:288|289:296,1,202.500007724762,2|8,0:0|0:0,0:0:0:0:
253,304,158596,2,0,P|231:275|259:230,1,67.5000025749208,0|0,0:0|2:0,0:0:0:0:
214,170,158752,2,0,P|234:140|286:152,1,67.5000025749208,2|0,0:0|2:0,0:0:0:0:
329,91,158908,2,0,P|363:101|367:154,1,67.5000025749208,2|0,0:2|2:0,0:0:0:0:
452,252,159065,5,2,0:0:0:0:
254,53,159221,1,2,0:0:0:0:
136,236,159377,1,8,0:0:0:0:
464,168,159533,2,0,P|470:93|475:16,1,135.000005149842,2|0,0:0|0:0,0:0:0:0:
254,53,159846,1,2,0:0:0:0:
136,236,160002,37,10,0:0:0:0:
184,212,160080,1,8,0:0:0:0:
205,162,160158,1,8,0:0:0:0:
196,108,160236,1,8,0:0:0:0:
154,72,160315,2,0,B|86:56|86:56|1:95|3:175,1,202.500007724762,6|0,0:0|2:0,0:0:0:0:
6,206,160627,2,0,L|51:260,1,67.5000025749208,8|0,0:0|2:0,0:0:0:0:
114,324,160783,5,2,0:0:0:0:
114,324,160861,1,8,0:0:0:0:
114,324,160940,1,0,0:0:0:0:
216,114,161096,1,0,0:0:0:0:
281,338,161252,1,10,0:0:0:0:
198,104,161408,1,0,0:0:0:0:
481,44,161565,38,0,P|490:99|464:244,1,202.500007724762,2|0,0:0|2:0,0:0:0:0:
439,282,161877,2,0,L|349:248,1,67.5000025749208,10|0,0:0|2:0,0:0:0:0:
178,94,162033,2,0,P|281:53|357:112,1,202.500007724762,2|8,0:0|0:0,0:0:0:0:
370,142,162346,1,2,0:0:0:0:
114,324,162502,1,8,0:0:0:0:
439,282,162658,5,2,0:0:0:0:
439,282,162737,1,8,0:0:0:0:
439,282,162815,1,6,0:0:0:0:
178,94,162971,1,0,0:0:0:0:
278,327,163127,1,10,0:0:0:0:
190,70,163283,1,2,0:0:0:0:
114,324,163440,37,0,0:0:0:0:
355,126,163596,1,2,0:0:0:0:
64,106,163752,1,8,0:0:0:0:
370,142,163908,1,2,0:0:0:0:
196,352,164065,5,0,0:0:0:0:
106,21,164221,1,8,0:0:0:0:
460,112,164377,1,8,0:0:0:0:
278,327,164533,1,0,0:0:0:0:
460,112,164690,1,12,0:0:0:0:
106,21,164846,37,8,0:0:0:0:
78,69,164924,1,8,0:0:0:0:
72,124,165002,1,8,0:0:0:0:
91,177,165080,1,8,0:0:0:0:
129,218,165158,1,8,0:0:0:0:
179,240,165236,1,8,0:0:0:0:
235,240,165314,1,4,0:0:0:0:
309,175,165471,37,0,0:0:0:0:
106,21,165627,2,0,L|91:130,1,107.999996704102,8|0,0:0|0:0,0:0:0:0:
12,190,165940,1,0,0:0:0:0:
176,144,166096,1,0,0:0:0:0:
340,98,166252,1,8,0:0:0:0:
228,360,166408,38,0,P|231:266|237:173,1,161.999995056153,0|0,0:0|2:0,0:0:0:0:
289,198,166721,1,0,0:0:0:0:
484,300,166877,2,0,P|428:297|373:293,1,107.999996704102,8|0,0:0|0:0,0:0:0:0:
349,291,167111,1,0,0:0:0:0:
321,288,167190,1,0,0:0:0:0:
192,276,167346,1,0,0:0:0:0:
340,98,167502,1,8,0:0:0:0:
192,276,167658,1,0,0:0:0:0:
66,80,167815,6,0,P|80:150|100:231,1,107.999996704102
321,288,168127,2,0,P|307:218|287:137,1,107.999996704102,8|0,0:0|0:0,0:0:0:0:
44,181,168440,1,0,0:0:0:0:
343,187,168596,1,0,0:0:0:0:
44,181,168752,1,8,0:0:0:0:
343,187,168908,38,0,P|356:129|365:62,1,107.999996704102
243,28,169221,1,0,0:0:0:0:
137,102,169377,1,8,0:0:0:0:
177,234,169533,1,0,0:0:0:0:
177,234,169611,1,0,0:0:0:0:
177,234,169690,1,0,0:0:0:0:
127,101,169846,1,0,0:0:0:0:
245,19,170002,1,8,0:0:0:0:
374,76,170158,1,0,0:0:0:0:
345,218,170315,6,0,P|382:297|507:298,2,215.999993408203,0|8|0,0:0|0:0|0:0,0:0:0:0:
427,192,171096,1,0,0:0:0:0:
260,372,171252,1,8,0:0:0:0:
178,346,171408,2,0,P|189:241|200:161,1,161.999995056153,0|0,0:0|2:0,0:0:0:0:
131,177,171721,1,0,0:0:0:0:
2,160,171877,2,0,P|-5:200|-15:276,1,107.999996704102,8|0,0:0|0:0,0:0:0:0:
12,270,172111,1,0,0:0:0:0:
39,273,172190,1,0,0:0:0:0:
196,185,172346,1,0,0:0:0:0:
147,70,172502,2,0,P|140:110|130:186,1,107.999996704102,8|0,0:0|0:0,0:0:0:0:
264,292,172736,37,8,0:0:0:0:
264,292,172815,2,0,B|320:324|320:324|404:323|446:244,1,215.999993408203,0|8,0:0|0:0,0:0:0:0:
463,165,173283,1,0,0:0:0:0:
344,112,173440,2,0,P|335:175|329:242,1,107.999996704102
324,352,173752,1,8,0:0:0:0:
144,334,173908,2,0,P|149:280|157:226,1,107.999996704102
172,94,174221,5,0,0:0:0:0:
344,112,174377,1,8,0:0:0:0:
324,352,174533,1,0,0:0:0:0:
144,334,174690,1,0,0:0:0:0:
324,352,174846,1,0,0:0:0:0:
334,233,175002,1,8,0:0:0:0:
215,223,175158,37,8,0:0:0:0:
209,276,175236,1,8,0:0:0:0:
205,330,175315,2,0,P|311:343|426:351,1,215.999993408203,4|8,0:0|0:0,0:0:0:0:
432,164,175783,1,0,0:0:0:0:
223,140,175940,2,0,P|170:133|112:129,1,107.999996704102
304,232,176252,1,8,0:0:0:0:
432,60,176408,6,0,P|326:47|211:39,1,215.999993408203
116,32,176877,1,8,0:0:0:0:
304,232,177033,1,0,0:0:0:0:
304,232,177111,1,0,0:0:0:0:
304,232,177190,1,0,0:0:0:0:
320,76,177346,1,0,0:0:0:0:
116,32,177502,1,8,0:0:0:0:
100,188,177658,1,0,0:0:0:0:
304,232,177815,38,0,P|389:220|460:212,1,107.999996704102
116,32,178127,2,0,P|31:44|-40:52,1,107.999996704102,8|0,0:0|0:0,0:0:0:0:
100,188,178440,1,0,0:0:0:0:
320,76,178596,1,0,0:0:0:0:
100,188,178752,1,8,0:0:0:0:
300,334,178908,6,0,P|193:313|86:299,1,215.999993408203
133,335,179377,1,8,0:0:0:0:
304,232,179533,1,0,0:0:0:0:
304,232,179611,1,0,0:0:0:0:
304,232,179690,1,0,0:0:0:0:
100,188,179846,1,0,0:0:0:0:
260,132,180002,37,8,0:0:0:0:
54,276,180158,1,0,0:0:0:0:
300,334,180315,2,0,B|370:345|370:345|457:305|448:209,2,215.999993408203,0|8|0,0:0|0:0|0:0,0:0:0:0:
475,210,181096,1,0,0:0:0:0:
260,132,181252,1,8,0:0:0:0:
221,207,181408,6,0,P|338:199|348:76,1,215.999993408203
132,20,181877,2,0,L|147:148,1,107.999996704102,8|0,0:0|0:0,0:0:0:0:
292,248,182190,1,0,0:0:0:0:
80,200,182346,1,0,0:0:0:0:
243,45,182502,2,0,P|302:37|367:31,1,107.999996704102,8|0,0:0|0:0,0:0:0:0:
480,224,182736,37,8,0:0:0:0:
480,224,182815,2,0,P|405:121|314:140,1,215.999993408203,0|8,0:0|0:0,0:0:0:0:
228,48,183283,1,0,0:0:0:0:
80,200,183440,2,0,P|86:294|92:340,1,107.999996704102
168,336,183752,1,8,0:0:0:0:
372,236,183908,2,0,P|280:215|155:190,1,215.999993408203
12,161,184377,5,12,0:0:0:0:
244,12,184533,37,8,0:0:0:0:
244,12,184611,1,8,0:0:0:0:
244,12,184690,1,0,0:0:0:0:
470,172,184846,5,8,0:0:0:0:
393,139,184924,1,8,0:0:0:0:
321,131,185002,1,8,0:3:0:0:
260,135,185080,1,8,0:3:0:0:
211,149,185158,1,4,0:3:0:0:
179,169,185236,1,4,0:3:0:0:
160,191,185315,37,12,0:0:0:0:
364,356,185471,1,12,0:0:0:0:
244,12,185627,1,12,0:0:0:0:
54,212,186408,6,0,P|107:200|179:188,1,108,12|0,0:0|2:0,0:0:0:0:
430,163,186721,1,12,0:0:0:0:
