osu file format v14

[General]
AudioFilename: audio.mp3
AudioLeadIn: 0
PreviewTime: 46843
Countdown: 0
SampleSet: Normal
StackLeniency: 0.7
Mode: 0
LetterboxInBreaks: 0
WidescreenStoryboard: 1

[Editor]
DistanceSpacing: 1
BeatDivisor: 4
GridSize: 8
TimelineZoom: 1.7

[Metadata]
Title:Dance With Me
TitleUnicode:Dance With Me
Artist:Ehrling
ArtistUnicode:Ehrling
Creator:Zairous
Version:Hard
Source:
Tags:Saxohouse tropical electronic instrumental
BeatmapID:1650036
BeatmapSetID:777107

[Difficulty]
HPDrainRate:6
CircleSize:4
OverallDifficulty:6
ApproachRate:6
SliderMultiplier:1.4
SliderTickRate:2

[Events]
//Background and Video events
0,0,"b.jpg",0,0
//Break Periods
2,16334,31275
2,64906,78894
//Storyboard Layer 0 (Background)
//Storyboard Layer 1 (Fail)
//Storyboard Layer 2 (Pass)
//Storyboard Layer 3 (Foreground)
Sprite,Foreground,Centre,"a.jpg",320,240 F,0,1600,3700,0.5,0 S,0,1600,3700,0.5,1.2 F,0,3700,4800,0.7,0 S,0,3700,4800,0.5,1.2 F,0,5600,6600,0.9,0 S,0,5600,6600,0.5,1.2 F,0,7500,8000,1,0 S,0,7500,8000,0.5,1.2 F,0,8000,8500,1,0 S,0,8000,8500,0.5,1.2 F,0,8500,9000,1,0 S,0,8500,9000,0.5,1.2 F,0,10400,11400,0.5,0 S,0,10400,11400,0.5,1.2 F,0,12700,13700,0.5,0 S,0,12700,13700,0.5,1.2 F,2,16500,18000,1,0 S,2,16500,18000,0.5,1.2 F,0,49500,53000,0.8,0 S,0,49500,53000,0.5,1.2 F,0,54700,58200,0.8,0 S,0,54700,58200,0.5,1.2 F,0,58500,60200,0.8,0 S,0,58500,60200,0.5,1.2 F,0,62300,64000,0.8,0 S,0,62300,64000,0.5,1.2 F,0,112200,113700,0.8,0 S,0,112200,113700,0.5,1.2 F,0,117500,119200,0.8,0 S,0,117500,119200,0.5,1.2 F,0,121300,123000,0.8,0 S,0,121300,123000,0.5,1.2 F,0,125100,126800,0.8,0 S,0,125100,126800,0.5,1.2
//Storyboard Sound Samples

[TimingPoints]
1849,476.190476190476,4,1,0,70,1,0
46610,-66.6666666666667,4,1,0,70,0,0
49462,-100,4,1,0,70,0,1
64700,-100,4,1,0,70,0,0
112081,-100,4,1,0,70,0,1
142319,-100,4,1,0,70,0,0

[Colours]
Combo1 : 232,123,199
Combo2 : 115,208,113
Combo3 : 71,183,220
Combo4 : 183,219,100

[HitObjects]
64,160,1849,5,0,0:0:0:0:
120,32,2325,2,0,P|167:17|216:32,1,70
208,88,2801,2,0,P|248:96|288:72,1,70
304,40,3277,1,0,0:0:0:0:
408,72,3753,6,0,P|408:144|344:216,1,140
336,240,4468,2,0,P|304:256|248:248,1,70
256,200,4944,2,0,P|219:187|176:200,1,70
128,288,5658,6,0,P|72:208|64:136,1,140
64,104,6372,2,0,P|90:60|136:56,1,70
144,96,6848,2,0,P|184:88|224:56,1,70
312,112,7563,6,0,P|297:142|248:176,1,70
240,176,7920,6,0,L|192:192,1,35
176,232,8277,6,0,P|200:264|256:272,1,70
336,264,8991,5,0,0:0:0:0:
392,248,9229,2,0,P|432:232|448:184,1,70
376,128,9944,6,0,P|336:113|288:128,1,70
272,160,10420,2,0,P|237:175|192:160,1,70
176,120,10896,1,0,0:0:0:0:
104,200,11372,6,0,P|188:224|264:224,1,140
288,248,12087,2,0,P|336:256|376:240,1,70
360,192,12563,2,0,P|408:176|448:184,1,70
400,72,13277,6,0,P|344:48|240:48,1,140
240,96,13991,2,0,P|228:129|176:136,1,70
144,136,14468,2,0,P|112:160|120:216,1,70
128,296,15182,6,0,P|167:298|208:272,1,70
216,264,15539,5,0,0:0:0:0:
208,240,15658,1,0,0:0:0:0:
248,200,15896,6,0,P|291:195|328:160,1,70
200,144,32325,5,0,0:0:0:0:
184,88,32563,2,0,L|248:72,1,35
272,56,32801,2,0,L|352:40,1,70
376,112,33277,1,0,0:0:0:0:
424,136,33753,2,0,L|432:208,1,70
376,240,34229,1,0,0:0:0:0:
304,288,34706,2,0,L|232:272,1,70
224,248,35182,2,0,L|152:216,1,70
112,192,35658,1,0,0:0:0:0:
88,176,35777,1,0,0:0:0:0:
136,104,36134,1,0,0:0:0:0:
192,96,36372,2,0,L|248:80,1,35
256,88,36610,2,0,L|328:96,1,70
376,96,37087,1,0,0:0:0:0:
392,152,37563,1,0,0:0:0:0:
456,184,37801,2,0,P|432:240|408:248,1,70
264,296,38515,2,0,L|176:296,1,70
200,240,38991,2,0,L|112:240,1,70
88,200,39468,1,0,0:0:0:0:
88,176,39587,1,0,0:0:0:0:
152,104,39944,1,0,0:0:0:0:
288,120,40420,1,0,0:0:0:0:
128,168,40896,1,0,0:0:0:0:
320,200,41372,1,0,0:0:0:0:
128,168,41848,1,0,0:0:0:0:
288,128,42325,1,0,0:0:0:0:
152,96,42801,1,0,0:0:0:0:
288,96,43277,1,0,0:0:0:0:
424,72,43753,1,0,0:0:0:0:
376,120,43991,1,0,0:0:0:0:
440,136,44229,1,0,0:0:0:0:
392,184,44468,1,0,0:0:0:0:
456,208,44706,1,0,0:0:0:0:
400,248,44944,1,0,0:0:0:0:
464,280,45182,1,0,0:0:0:0:
408,320,45420,1,0,0:0:0:0:
336,280,45658,1,0,0:0:0:0:
304,248,45777,1,0,0:0:0:0:
280,216,45896,1,0,0:0:0:0:
248,184,46015,1,0,0:0:0:0:
208,168,46134,1,0,0:0:0:0:
168,168,46253,1,0,0:0:0:0:
128,184,46372,1,0,0:0:0:0:
88,208,46491,1,0,0:0:0:0:
48,208,46610,1,0,0:0:0:0:
56,184,46729,2,0,L|80:144,11,26.2500010013581
152,128,49468,5,0,0:0:0:0:
184,104,49587,2,0,L|264:96,1,70
296,80,49944,1,0,0:0:0:0:
376,104,50182,2,0,B|368:200|368:192,1,70
368,256,50658,1,0,0:0:0:0:
304,312,50896,2,0,P|252:324|208:320,1,70
152,320,51372,1,0,0:0:0:0:
112,320,51491,2,0,P|88:288|104:248,1,70
112,224,51848,1,0,0:0:0:0:
104,136,52087,1,0,0:0:0:0:
192,112,52325,1,0,0:0:0:0:
232,184,52563,1,0,0:0:0:0:
192,112,52801,1,0,0:0:0:0:
120,160,53039,1,0,0:0:0:0:
216,64,53277,1,0,0:0:0:0:
256,48,53396,2,0,L|352:64,1,70
352,80,53753,1,0,0:0:0:0:
408,64,53991,1,0,0:0:0:0:
424,144,54229,1,0,0:0:0:0:
408,64,54468,1,0,0:0:0:0:
352,112,54706,2,0,L|424:160,1,70
448,208,55182,1,0,0:0:0:0:
416,224,55301,2,0,B|328:240,1,70
304,240,55658,1,0,0:0:0:0:
224,240,55896,1,0,0:0:0:0:
152,192,56134,1,0,0:0:0:0:
224,152,56372,1,0,0:0:0:0:
152,112,56610,1,0,0:0:0:0:
224,64,56848,1,0,0:0:0:0:
312,64,57087,1,0,0:0:0:0:
344,88,57206,2,0,L|344:176,1,70
360,200,57563,2,0,L|416:248,1,70
400,288,58039,1,0,0:0:0:0:
288,328,58277,1,0,0:0:0:0:
216,248,58515,1,0,0:0:0:0:
136,216,58753,2,0,L|64:152,1,70
72,128,59110,1,0,0:0:0:0:
152,112,59348,1,0,0:0:0:0:
176,72,59468,2,0,L|248:72,1,70
328,88,59944,1,0,0:0:0:0:
256,128,60182,1,0,0:0:0:0:
328,168,60420,1,0,0:0:0:0:
256,208,60658,1,0,0:0:0:0:
336,240,60896,1,0,0:0:0:0:
336,280,61015,2,0,P|313:306|280:312,1,70
224,312,61372,1,0,0:0:0:0:
136,272,61610,1,0,0:0:0:0:
104,192,61848,2,0,L|112:120,1,70
144,80,62325,2,0,L|240:48,1,70
320,56,62920,1,0,0:0:0:0:
352,80,63158,2,0,B|376:128,1,35
384,208,63515,1,0,0:0:0:0:
312,216,63753,1,0,0:0:0:0:
256,176,63991,1,0,0:0:0:0:
256,104,64229,1,0,0:0:0:0:
320,72,64468,1,0,0:0:0:0:
376,112,64706,1,0,0:0:0:0:
120,96,79944,5,0,0:0:0:0:
192,96,80182,2,0,L|304:88,1,105
360,136,80896,1,0,0:0:0:0:
424,264,81372,1,0,0:0:0:0:
384,208,81610,1,0,0:0:0:0:
320,232,81848,1,0,0:0:0:0:
288,240,82087,2,0,L|208:240,1,70
152,232,82563,1,0,0:0:0:0:
88,200,82801,2,0,L|120:88,1,105
184,112,83396,1,0,0:0:0:0:
248,144,83515,1,0,0:0:0:0:
320,152,83753,2,0,B|392:256,1,105
304,312,84468,1,0,0:0:0:0:
232,304,84706,2,0,L|112:272,1,105
80,232,85301,1,0,0:0:0:0:
56,208,85420,1,0,0:0:0:0:
72,136,85658,2,0,B|152:120,1,70
208,112,86134,2,0,L|288:112,1,70
312,112,86610,2,0,L|424:120,1,105
448,184,87206,1,0,0:0:0:0:
448,216,87325,1,0,0:0:0:0:
432,280,87563,2,0,B|320:304,1,105
264,312,88277,1,0,0:0:0:0:
200,288,88515,2,0,L|112:216,1,105
112,152,89110,1,0,0:0:0:0:
136,128,89229,1,0,0:0:0:0:
192,112,89468,2,0,L|288:112,1,70
296,112,89944,1,0,0:0:0:0:
368,104,90182,1,0,0:0:0:0:
432,144,90420,2,0,L|464:256,1,105
392,280,91015,1,0,0:0:0:0:
360,296,91134,1,0,0:0:0:0:
288,288,91372,2,0,L|160:256,1,105
88,232,92087,1,0,0:0:0:0:
32,184,92325,2,0,L|104:80,1,105
152,64,92920,1,0,0:0:0:0:
184,48,93039,1,0,0:0:0:0:
160,128,93277,2,0,L|256:104,1,70
304,88,93753,1,0,0:0:0:0:
376,96,93991,2,0,L|400:176,1,70
376,304,94587,1,0,0:0:0:0:
304,320,94825,2,0,L|256:296,1,35
192,264,95182,1,0,0:0:0:0:
176,248,95420,2,0,L|136:184,1,70
168,120,95896,1,0,0:0:0:0:
232,88,96134,1,0,0:0:0:0:
264,88,96610,2,0,L|328:128,1,70
352,144,97087,1,0,0:0:0:0:
400,272,97563,2,0,L|336:344,1,70
288,312,98039,2,0,L|216:264,1,70
200,256,98515,1,0,0:0:0:0:
176,232,98634,1,0,0:0:0:0:
176,136,98991,1,0,0:0:0:0:
208,120,99229,2,0,L|304:112,1,70
272,80,99706,2,0,L|360:80,1,70
472,128,100420,1,0,0:0:0:0:
416,168,100658,2,0,L|456:256,1,70
344,280,101372,1,0,0:0:0:0:
280,248,101610,1,0,0:0:0:0:
216,280,101848,1,0,0:0:0:0:
160,240,102087,1,0,0:0:0:0:
96,208,102325,2,0,L|64:152,1,35
