osu file format v14

[General]
AudioFilename: audio.mp3
AudioLeadIn: 0
PreviewTime: 35621
Countdown: 1
SampleSet: Soft
StackLeniency: 0.3
Mode: 0
LetterboxInBreaks: 0
WidescreenStoryboard: 1

[Editor]
Bookmarks: 40531,78153,84064,96073,147862,159120,182951
DistanceSpacing: 1.2
BeatDivisor: 4
GridSize: 32
TimelineZoom: 0.5999997

[Metadata]
Title:Ya zhenyus' na devochke iz anime
TitleUnicode:Я женюсь на девочке из аниме
Artist:Egor Nats
ArtistUnicode:Егор Натс
Creator:XenjeS
Version:TmacBoris's Hard
Source:
Tags:dima21 TmacBoris edgar456
BeatmapID:1583377
BeatmapSetID:745388

[Difficulty]
HPDrainRate:4
CircleSize:4
OverallDifficulty:5.5
ApproachRate:7.5
SliderMultiplier:1.4
SliderTickRate:1

[Events]
//Background and Video events
0,0,"maxresdefault (2).jpg",0,0
//Break Periods
2,84076,95173
//Storyboard Layer 0 (Background)
//Storyboard Layer 1 (Fail)
//Storyboard Layer 2 (Pass)
//Storyboard Layer 3 (Foreground)
//Storyboard Sound Samples

[TimingPoints]
11635,375.281543287327,4,2,0,90,1,0
36403,-100,4,2,0,90,0,1
40156,-100,4,2,0,90,0,1
47662,-100,4,2,0,90,0,0
48412,-100,4,2,0,90,0,1
60046,-133.333333333333,4,2,0,90,0,0
60796,-133.333333333333,4,2,0,90,0,0
69803,-117.647058823529,4,2,0,90,0,0
72055,-90.9090909090909,4,2,0,90,0,0
84064,-117.647058823529,4,2,0,90,0,0
96073,-100,4,2,0,90,0,0
108457,-100,4,2,0,90,0,1
119716,-100,4,2,0,90,0,0
120466,-100,4,2,0,90,0,1
132100,-100,4,2,0,90,0,0
135102,-200,4,2,0,90,0,0

[HitObjects]
96,166,11635,6,0,P|126:152|171:152,1,70
147,233,12010,2,0,P|181:231|213:217,1,70
264,150,12385,2,0,P|298:151|330:165,2,70
179,151,12948,1,0,0:0:0:0:
114,203,13136,6,0,P|98:235|97:270,1,70
121,351,13511,1,0,0:0:0:0:
179,289,13699,1,0,0:0:0:0:
97,270,13886,2,0,L|109:130,1,140
115,46,14449,1,0,0:0:0:0:
185,94,14637,6,0,B|215:111|215:111|248:93,1,70
295,25,15012,2,0,P|317:50|330:82,1,70
299,162,15387,2,0,P|333:167|367:159,2,70
227,206,15950,1,0,0:0:0:0:
192,282,16138,6,0,L|198:351,1,70
282,344,16513,2,0,L|275:274,1,70
360,267,16888,2,0,L|366:336,2,70
351,183,17451,1,0,0:0:0:0:
346,98,17639,6,0,L|383:94,2,35
262,111,18014,1,0,0:0:0:0:
112,34,18390,1,0,0:0:0:0:
121,203,18765,1,0,0:0:0:0:
121,203,18952,1,0,0:0:0:0:
121,203,19140,6,0,L|127:273,1,70
136,356,19515,2,0,P|169:346|193:321,1,70
203,237,19891,2,0,P|212:203|237:179,1,70
311,139,20266,1,0,0:0:0:0:
311,139,20454,1,0,0:0:0:0:
394,140,20641,5,0,0:0:0:0:
432,214,20829,1,0,0:0:0:0:
393,288,21017,2,0,L|323:294,1,70
244,268,21392,2,0,L|251:338,2,70
236,184,21955,1,0,0:0:0:0:
227,100,22142,6,0,P|179:122|157:212,1,140
168,283,22705,1,0,0:0:0:0:
223,346,22893,2,0,L|362:334,1,140
434,289,23456,1,0,0:0:0:0:
452,206,23644,6,0,L|493:202,2,35
368,214,24019,2,0,P|301:218|210:195,1,140
151,173,24582,2,0,P|114:142|111:113,1,70
157,53,24957,1,0,0:0:0:0:
238,31,25145,6,0,L|320:38,1,70
342,113,25520,2,0,L|272:106,1,70
225,175,25895,2,0,L|294:181,2,70
141,169,26458,1,0,0:0:0:0:
83,228,26646,5,0,0:0:0:0:
109,307,26833,1,0,0:0:0:0:
183,344,27021,2,0,P|218:349|253:345,1,70
336,330,27396,2,0,P|323:297|298:273,1,70
214,263,27772,1,0,0:0:0:0:
131,274,27959,1,0,0:0:0:0:
163,196,28147,6,0,L|94:190,1,70
101,106,28522,2,0,L|171:113,1,70
178,28,28897,2,0,L|109:22,2,70
262,37,29460,1,0,0:0:0:0:
340,68,29648,6,0,L|343:33,2,35
332,151,30023,2,0,P|322:184|298:209,1,70
219,240,30399,1,0,0:0:0:0:
136,251,30586,2,0,P|146:284|170:309,1,70
249,340,30961,1,0,0:0:0:0:
326,307,31149,6,0,P|340:277|340:232,1,70
259,256,31524,2,0,P|261:222|275:190,1,70
342,139,31900,2,0,P|341:105|327:73,2,70
339,220,32463,1,0,0:0:0:0:
323,301,32650,5,0,0:0:0:0:
244,326,32838,1,0,0:0:0:0:
178,274,33026,2,0,L|184:204,1,70
190,120,33401,1,0,0:0:0:0:
189,120,33588,2,0,P|222:112|258:117,1,70
340,130,33964,1,0,0:0:0:0:
401,185,34151,6,0,P|420:155|422:121,1,70
382,46,34527,2,0,L|312:39,1,70
265,108,34902,2,0,L|334:114,2,70
180,103,35465,1,0,0:0:0:0:
96,95,35653,6,0,L|99:60,2,35
93,179,36028,1,0,0:0:0:0:
170,329,36403,1,0,0:0:0:0:
169,328,36591,2,0,P|204:336|239:334,1,70
321,315,36966,1,0,0:0:0:0:
356,239,37154,6,0,L|363:157,1,70
294,122,37529,2,0,L|288:192,1,70
212,226,37904,2,0,L|218:157,2,70
203,310,38467,1,0,0:0:0:0:
135,357,38655,5,0,0:0:0:0:
62,318,38842,1,0,0:0:0:0:
38,238,39030,2,0,P|39:202|49:168,1,70
90,97,39405,2,0,P|118:76|152:67,1,70
237,65,39781,1,0,0:0:0:0:
196,140,39968,1,0,0:0:0:0:
186,225,40156,6,0,P|204:252|243:274,1,70
265,192,40531,2,0,P|293:210|314:238,1,70
325,323,40906,2,0,P|354:339|389:343,2,70
251,280,41469,1,0,0:0:0:0:
211,205,41657,6,0,L|214:164,2,35
199,351,42032,1,0,0:0:0:0:
199,351,42408,2,0,L|124:344,1,70
45,340,42783,1,0,0:0:0:0:
90,269,42971,1,0,0:0:0:0:
57,191,43158,6,0,P|93:183|139:201,1,70
221,231,43533,1,0,0:0:0:0:
221,231,43909,2,0,P|219:266|231:299,2,70
241,149,44472,1,0,0:0:0:0:
306,205,44659,5,0,0:0:0:0:
221,231,44847,1,0,0:0:0:0:
104,193,45035,1,0,0:0:0:0:
168,37,45410,2,0,P|201:29|245:40,1,70
318,52,45785,1,0,0:0:0:0:
384,103,45973,1,0,0:0:0:0:
384,103,46160,6,0,L|375:191,1,70
369,278,46536,1,0,0:0:0:0:
215,345,46911,2,0,P|197:266|212:208,1,140
248,134,47474,1,0,0:0:0:0:
308,75,47662,6,0,L|347:78,2,35
224,67,48037,1,0,0:0:0:0:
67,127,48412,2,0,P|55:179|61:213,2,70
116,58,48975,1,0,0:0:0:0:
198,39,49163,6,0,L|280:32,1,70
315,101,49538,2,0,L|245:107,1,70
211,183,49913,2,0,L|280:177,2,70
127,192,50476,1,0,0:0:0:0:
80,260,50664,5,0,0:0:0:0:
119,333,50851,1,0,0:0:0:0:
199,357,51039,2,0,P|235:356|269:346,1,70
343,309,51414,2,0,L|355:169,1,140
360,85,51977,1,0,0:0:0:0:
440,61,52165,6,0,P|444:95|432:128,1,70
354,169,52540,2,0,L|282:162,1,70
221,107,52915,2,0,P|203:139|201:179,1,70
253,237,53291,1,0,0:0:0:0:
335,244,53478,1,0,0:0:0:0:
288,313,53666,6,0,L|237:308,2,35
414,320,54041,1,0,0:0:0:0:
414,320,54417,2,0,P|389:348|346:358,2,70
410,235,54980,1,0,0:0:0:0:
443,157,55167,6,0,P|407:149|361:167,1,70
279,197,55542,1,0,0:0:0:0:
279,197,55918,2,0,P|281:232|269:265,2,70
259,115,56481,1,0,0:0:0:0:
194,54,56668,5,0,0:0:0:0:
279,28,56856,1,0,0:0:0:0:
396,66,57044,1,0,0:0:0:0:
465,218,57419,2,0,P|447:246|408:270,1,70
349,314,57794,1,0,0:0:0:0:
266,324,57982,1,0,0:0:0:0:
266,324,58169,6,0,L|178:315,1,70
91,309,58545,1,0,0:0:0:0:
24,155,58920,2,0,P|103:137|161:152,1,140
235,188,59483,1,0,0:0:0:0:
294,248,59671,6,0,L|291:287,2,35
302,164,60046,1,0,0:0:0:0:
302,164,60796,5,0,0:0:0:0:
121,55,61547,1,0,0:0:0:0:
117,267,62298,1,0,0:0:0:0:
170,271,62485,1,0,0:0:0:0:
222,276,62673,1,0,0:0:0:0:
222,276,63799,5,0,0:0:0:0:
306,214,64174,1,0,0:0:0:0:
295,109,64549,1,0,0:0:0:0:
200,67,64924,1,0,0:0:0:0:
115,128,65300,1,0,0:0:0:0:
120,181,65487,1,0,0:0:0:0:
125,233,65675,1,0,0:0:0:0:
125,233,66801,5,0,0:0:0:0:
199,333,67176,1,0,0:0:0:0:
325,320,67551,1,0,0:0:0:0:
375,206,67927,1,0,0:0:0:0:
302,104,68302,1,0,0:0:0:0:
239,110,68490,1,0,0:0:0:0:
176,116,68677,1,0,0:0:0:0:
176,116,69803,6,0,P|155:135|139:165,1,59.5000011348725
134,233,70178,1,0,0:0:0:0:
138,304,70366,1,0,0:0:0:0:
198,264,70554,1,0,0:0:0:0:
291,156,70929,1,0,0:0:0:0:
193,52,71304,1,0,0:0:0:0:
123,58,71492,1,0,0:0:0:0:
70,105,71680,2,0,P|59:129|57:167,1,59.5000011348725
57,254,72055,6,0,L|134:260,1,77.0000023498536
172,344,72430,2,0,L|96:337,2,77.0000023498536
264,351,72993,1,0,0:0:0:0:
355,334,73181,6,0,P|384:305|387:269,1,77.0000023498536
294,263,73556,2,0,P|298:225|326:199,1,77.0000023498536
418,194,73931,2,0,P|445:168|450:130,1,77.0000023498536
441,38,74307,1,0,0:0:0:0:
365,91,74494,1,0,0:0:0:0:
234,42,74682,5,0,0:0:0:0:
234,42,74869,1,0,0:0:0:0:
234,42,75057,2,0,L|157:48,1,77.0000023498536
108,127,75432,2,0,L|184:120,1,77.0000023498536
277,114,75808,2,0,B|306:114|326:146|367:141,1,77.0000023498536
438,162,76183,5,0,0:0:0:0:
472,248,76371,1,0,0:0:0:0:
440,334,76558,2,0,P|405:351|368:357,1,77.0000023498536
275,360,76933,2,0,P|237:353|203:336,1,77.0000023498536
171,251,77309,1,0,0:0:0:0:
205,165,77496,1,0,0:0:0:0:
286,120,77684,6,0,L|282:79,2,38.5000011749268
294,212,78059,1,0,0:0:0:0:
208,47,78435,1,0,0:0:0:0:
53,147,78810,2,0,P|39:196|51:229,1,77.0000023498536
103,292,79185,6,0,P|136:310|190:305,1,77.0000023498536
266,299,79560,2,0,L|358:290,1,77.0000023498536
420,241,79936,2,0,L|426:162,1,77.0000023498536
431,71,80311,1,0,0:0:0:0:
431,71,80499,1,0,0:0:0:0:
431,71,80686,6,0,L|349:63,2,77.0000023498536
403,159,81249,1,0,0:0:0:0:
467,226,81437,2,0,P|434:245|396:250,1,77.0000023498536
303,252,81812,1,0,0:0:0:0:
303,252,82000,1,0,0:0:0:0:
303,251,82187,6,0,P|264:256|224:235,1,77.0000023498536
150,193,82563,2,0,P|127:167|128:122,1,77.0000023498536
125,33,82938,2,0,P|170:44|201:71,1,77.0000023498536
207,153,83313,1,0,0:0:0:0:
207,153,83501,1,0,0:0:0:0:
207,153,83689,6,0,L|255:158,2,38.5000011749268
103,264,96073,6,0,P|147:240|178:233,1,70
245,210,96448,1,0,0:0:0:0:
327,189,96636,2,0,P|367:172|391:152,1,70
447,96,97011,1,0,0:0:0:0:
365,75,97199,6,0,L|286:68,1,70
211,63,97574,2,0,L|204:141,1,70
194,216,97949,2,0,P|149:196|127:167,2,70
278,219,98512,1,0,0:0:0:0:
379,143,98700,5,0,0:0:0:0:
340,68,98887,1,0,0:0:0:0:
256,65,99075,2,0,P|214:77|184:97,1,70
143,159,99450,2,0,P|178:175|229:166,2,70
108,82,100013,1,0,0:0:0:0:
172,28,100201,6,0,L|311:40,1,140
395,49,100764,1,0,0:0:0:0:
456,159,100952,2,0,P|476:190|475:230,1,70
440,343,101327,2,0,P|465:315|472:275,1,70
394,252,101702,6,0,L|428:255,2,35
309,246,102077,1,0,0:0:0:0:
148,194,102453,1,0,0:0:0:0:
81,143,102640,2,0,P|104:120|148:110,1,70
223,110,103016,1,0,0:0:0:0:
306,118,103203,6,0,L|387:125,1,70
410,200,103578,2,0,L|340:193,1,70
293,262,103954,2,0,L|361:268,2,70
209,255,104517,1,0,0:0:0:0:
173,175,104704,5,0,0:0:0:0:
222,107,104892,1,0,0:0:0:0:
306,116,105080,2,0,P|340:139|359:166,1,70
329,241,105455,2,0,P|299:222|279:193,2,70
413,241,106018,1,0,0:0:0:0:
449,165,106205,6,0,P|445:128|415:94,1,70
345,76,106581,2,0,L|189:62,1,140
121,57,107144,2,0,P|127:98|146:125,1,70
284,212,107707,6,0,L|249:209,2,35
367,220,108082,1,0,0:0:0:0:
343,56,108457,5,0,0:0:0:0:
343,56,108645,2,0,P|308:48|273:50,1,70
191,69,109020,1,0,0:0:0:0:
156,145,109208,6,0,L|149:227,1,70
218,262,109583,2,0,L|224:192,1,70
300,158,109958,2,0,L|294:227,2,70
309,74,110521,1,0,0:0:0:0:
377,27,110709,5,0,0:0:0:0:
450,66,110896,1,0,0:0:0:0:
474,146,111084,2,0,P|473:182|463:216,1,70
422,287,111459,2,0,P|394:308|360:317,1,70
275,319,111835,1,0,0:0:0:0:
316,244,112022,1,0,0:0:0:0:
326,159,112210,6,0,P|308:132|269:110,1,70
247,192,112585,2,0,P|219:174|198:146,1,70
187,61,112961,2,0,P|158:45|123:41,2,70
261,104,113523,1,0,0:0:0:0:
301,179,113711,6,0,L|298:220,2,35
313,33,114086,1,0,0:0:0:0:
313,33,114462,2,0,L|395:40,1,70
482,45,114837,1,0,0:0:0:0:
432,123,115025,1,0,0:0:0:0:
469,209,115212,6,0,P|429:217|378:198,1,70
288,165,115587,1,0,0:0:0:0:
288,165,115963,2,0,P|290:126|277:90,2,70
266,255,116526,1,0,0:0:0:0:
195,193,116713,5,0,0:0:0:0:
288,165,116901,1,0,0:0:0:0:
417,206,117089,1,0,0:0:0:0:
333,351,117464,2,0,P|300:359|256:348,1,70
183,336,117839,1,0,0:0:0:0:
117,285,118027,1,0,0:0:0:0:
117,285,118214,6,0,L|126:197,1,70
132,110,118590,1,0,0:0:0:0:
286,43,118965,2,0,P|304:122|289:180,1,140
253,254,119528,1,0,0:0:0:0:
193,313,119716,6,0,L|154:310,2,35
277,321,120091,1,0,0:0:0:0:
465,262,120466,2,0,P|478:205|472:167,2,70
411,338,121029,1,0,0:0:0:0:
321,359,121217,6,0,L|231:366,1,70
192,290,121592,2,0,L|269:284,1,70
307,200,121967,2,0,L|231:207,2,70
399,190,122530,1,0,0:0:0:0:
451,116,122718,5,0,0:0:0:0:
408,35,122905,1,0,0:0:0:0:
320,9,123093,2,0,P|280:10|243:21,1,70
162,62,123468,2,0,L|148:216,1,140
143,308,124031,1,0,0:0:0:0:
52,312,124219,6,0,P|57:274|79:243,1,70
150,201,124594,2,0,L|229:208,1,70
286,270,124970,2,0,P|305:234|308:190,1,70
251,127,125345,1,0,0:0:0:0:
161,120,125532,1,0,0:0:0:0:
81,164,125720,6,0,L|77:198,2,35
88,30,126095,1,0,0:0:0:0:
88,30,126471,2,0,P|53:23|20:33,2,70
169,71,127034,1,0,0:0:0:0:
252,35,127221,6,0,P|258:72|246:121,1,70
225,212,127596,1,0,0:0:0:0:
225,212,127972,2,0,P|186:214|150:201,2,70
310,180,128535,1,0,0:0:0:0:
377,109,128722,5,0,0:0:0:0:
405,202,128910,1,0,0:0:0:0:
363,331,129098,1,0,0:0:0:0:
196,352,129473,2,0,P|161:352|123:332,1,70
63,285,129848,1,0,0:0:0:0:
36,205,130036,1,0,0:0:0:0:
36,205,130223,6,0,L|45:117,1,70
51,31,130599,1,0,0:0:0:0:
218,32,130974,2,0,P|236:111|221:169,1,140
185,243,131537,1,0,0:0:0:0:
125,302,131725,6,0,L|86:299,2,35
209,310,132100,1,0,0:0:0:0:
