osu file format v14

[General]
AudioFilename: audio.mp3
AudioLeadIn: 0
PreviewTime: 35621
Countdown: 1
SampleSet: Soft
StackLeniency: 0.7
Mode: 0
LetterboxInBreaks: 0
WidescreenStoryboard: 0

[Editor]
Bookmarks: 40531,78153,84064,96073
DistanceSpacing: 5.4
BeatDivisor: 4
GridSize: 4
TimelineZoom: 1.299999

[Metadata]
Title:Ya zhenyus' na devochke iz anime
TitleUnicode:Я женюсь на девочке из аниме
Artist:Egor Nats
ArtistUnicode:Егор Натс
Creator:XenjeS
Version:MaMKiH XiKKaH
Source:
Tags:dima21 TmacBoris edgar456
BeatmapID:1571448
BeatmapSetID:745388

[Difficulty]
HPDrainRate:4
CircleSize:4
OverallDifficulty:7
ApproachRate:9.4
SliderMultiplier:1.4
SliderTickRate:1

[Events]
//Background and Video events
0,0,"maxresdefault (2).jpg",0,0
//Break Periods
2,84076,95158
//Storyboard Layer 0 (Background)
//Storyboard Layer 1 (Fail)
//Storyboard Layer 2 (Pass)
//Storyboard Layer 3 (Foreground)
//Storyboard Sound Samples

[TimingPoints]
11635,375.281543287327,4,2,0,50,1,0
36403,-76.9230769230769,4,2,0,50,0,1
40156,-62.5,4,2,0,50,0,1
47662,-76.9230769230769,4,2,0,50,0,0
48412,-76.9230769230769,4,2,0,50,0,1
60046,-76.9230769230769,4,2,0,50,0,0
60796,-111.111111111111,4,2,0,50,0,0
74307,-83.3333333333333,4,2,0,50,0,0
108457,-83.3333333333333,4,2,0,50,0,1
119716,-83.3333333333333,4,2,0,50,0,0
120466,-83.3333333333333,4,2,0,50,0,1
132100,-83.3333333333333,4,2,0,50,0,0

[HitObjects]
256,192,11635,5,0,0:0:0:0:
256,192,12010,5,0,0:0:0:0:
324,72,12385,5,0,0:0:0:0:
180,116,12573,1,0,0:0:0:0:
324,72,12760,1,0,0:0:0:0:
180,116,12948,1,0,0:0:0:0:
336,176,13136,1,0,0:0:0:0:
180,116,13323,1,0,0:0:0:0:
336,176,13511,1,0,0:0:0:0:
180,116,13699,1,0,0:0:0:0:
224,284,13886,5,0,0:0:0:0:
224,284,14074,1,0,0:0:0:0:
304,132,14261,1,0,0:0:0:0:
304,132,14449,1,0,0:0:0:0:
156,160,14637,5,0,0:0:0:0:
356,244,14824,1,0,0:0:0:0:
156,160,15012,1,0,0:0:0:0:
364,72,15200,1,0,0:0:0:0:
256,240,15387,1,0,0:0:0:0:
256,116,15575,1,0,0:0:0:0:
256,316,15763,1,0,0:0:0:0:
256,28,15950,1,0,0:0:0:0:
420,180,16138,5,0,0:0:0:0:
112,224,16326,1,0,0:0:0:0:
312,92,16513,1,0,0:0:0:0:
276,324,16701,1,0,0:0:0:0:
192,128,16888,5,0,0:0:0:0:
336,172,17076,1,0,0:0:0:0:
208,260,17264,1,0,0:0:0:0:
336,172,17451,1,0,0:0:0:0:
80,184,17639,1,0,0:0:0:0:
80,184,17733,1,0,0:0:0:0:
80,184,17827,1,0,0:0:0:0:
400,52,18014,6,0,L|408:160,1,105
372,172,18390,1,0,0:0:0:0:
144,88,18577,1,0,0:0:0:0:
308,56,18765,1,0,0:0:0:0:
172,228,18952,1,0,0:0:0:0:
224,32,19140,1,0,0:0:0:0:
356,276,19328,5,0,0:0:0:0:
212,168,19515,1,0,0:0:0:0:
448,108,19703,1,0,0:0:0:0:
216,300,19891,1,0,0:0:0:0:
504,208,20078,1,0,0:0:0:0:
196,56,20266,1,0,0:0:0:0:
196,56,20454,1,0,0:0:0:0:
352,124,20641,5,0,0:0:0:0:
352,124,20829,1,0,0:0:0:0:
152,284,21017,1,0,0:0:0:0:
328,32,21204,1,0,0:0:0:0:
76,136,21392,1,0,0:0:0:0:
404,272,21579,1,0,0:0:0:0:
204,32,21767,1,0,0:0:0:0:
208,336,21955,1,0,0:0:0:0:
392,172,22142,6,0,L|344:120,1,70
92,104,22518,1,0,0:0:0:0:
428,336,22705,1,0,0:0:0:0:
332,84,22893,1,0,0:0:0:0:
252,304,23081,1,0,0:0:0:0:
400,268,23268,1,0,0:0:0:0:
320,184,23456,1,0,0:0:0:0:
124,312,23644,5,0,0:0:0:0:
124,312,23737,1,0,0:0:0:0:
124,312,23831,1,0,0:0:0:0:
152,112,24019,2,0,L|184:184,1,70
308,84,24394,1,0,0:0:0:0:
308,84,24582,1,0,0:0:0:0:
408,176,24769,2,0,L|436:104,1,70
116,124,25145,5,0,0:0:0:0:
320,272,25332,1,0,0:0:0:0:
320,68,25520,1,0,0:0:0:0:
144,288,25708,1,0,0:0:0:0:
92,208,25895,1,0,0:0:0:0:
376,224,26083,1,0,0:0:0:0:
212,60,26270,1,0,0:0:0:0:
240,340,26458,1,0,0:0:0:0:
272,312,26646,5,0,0:0:0:0:
56,176,26833,1,0,0:0:0:0:
296,72,27021,1,0,0:0:0:0:
248,320,27209,1,0,0:0:0:0:
68,152,27396,1,0,0:0:0:0:
324,88,27584,1,0,0:0:0:0:
216,228,27772,1,0,0:0:0:0:
216,228,27959,1,0,0:0:0:0:
404,176,28147,5,0,0:0:0:0:
200,40,28335,1,0,0:0:0:0:
404,176,28522,1,0,0:0:0:0:
156,136,28710,1,0,0:0:0:0:
340,44,28897,5,0,0:0:0:0:
328,304,29085,1,0,0:0:0:0:
340,44,29273,1,0,0:0:0:0:
184,252,29460,1,0,0:0:0:0:
152,100,29648,5,0,0:0:0:0:
152,100,29742,1,0,0:0:0:0:
152,100,29836,1,0,0:0:0:0:
60,184,30023,2,0,B|56:236|56:236|64:300,1,105
104,296,30399,1,0,0:0:0:0:
316,72,30586,1,0,0:0:0:0:
264,296,30774,1,0,0:0:0:0:
72,184,30961,1,0,0:0:0:0:
384,156,31149,5,0,0:0:0:0:
152,44,31337,1,0,0:0:0:0:
388,144,31524,5,0,0:0:0:0:
100,120,31712,1,0,0:0:0:0:
392,128,31900,5,0,0:0:0:0:
136,244,32087,1,0,0:0:0:0:
396,112,32275,5,0,0:0:0:0:
232,340,32463,1,0,0:0:0:0:
224,112,32650,5,0,0:0:0:0:
224,112,32838,1,0,0:0:0:0:
360,332,33026,5,0,0:0:0:0:
408,64,33213,1,0,0:0:0:0:
260,320,33401,5,0,0:0:0:0:
252,64,33588,1,0,0:0:0:0:
172,324,33776,5,0,0:0:0:0:
120,76,33964,1,0,0:0:0:0:
376,168,34151,5,0,0:0:0:0:
376,168,34339,1,0,0:0:0:0:
140,176,34527,5,0,0:0:0:0:
140,176,34714,1,0,0:0:0:0:
260,312,34902,5,0,0:0:0:0:
260,312,35090,1,0,0:0:0:0:
404,84,35277,5,0,0:0:0:0:
404,84,35465,1,0,0:0:0:0:
152,120,35653,5,0,0:0:0:0:
108,140,35746,1,0,0:0:0:0:
64,164,35840,1,0,0:0:0:0:
64,164,36028,2,0,P|60:220|68:284,1,105
112,280,36403,5,0,0:0:0:0:
332,136,36591,1,0,0:0:0:0:
168,64,36778,5,0,0:0:0:0:
284,328,36966,1,0,0:0:0:0:
408,176,37154,5,0,0:0:0:0:
72,204,37341,1,0,0:0:0:0:
208,68,37529,5,0,0:0:0:0:
396,336,37717,1,0,0:0:0:0:
404,116,37904,5,0,0:0:0:0:
104,280,38092,1,0,0:0:0:0:
128,88,38279,5,0,0:0:0:0:
260,352,38467,1,0,0:0:0:0:
276,128,38655,5,0,0:0:0:0:
128,256,38842,1,0,0:0:0:0:
352,292,39030,1,0,0:0:0:0:
168,88,39218,1,0,0:0:0:0:
404,196,39405,1,0,0:0:0:0:
48,184,39593,1,0,0:0:0:0:
344,88,39780,1,0,0:0:0:0:
160,328,39968,1,0,0:0:0:0:
160,48,40156,5,0,0:0:0:0:
444,320,40344,1,0,0:0:0:0:
420,36,40531,1,0,0:0:0:0:
224,276,40719,1,0,0:0:0:0:
296,48,40906,1,0,0:0:0:0:
352,220,41094,1,0,0:0:0:0:
216,140,41282,1,0,0:0:0:0:
324,124,41469,1,0,0:0:0:0:
76,140,41657,5,0,0:0:0:0:
76,140,41751,1,0,0:0:0:0:
76,140,41845,1,0,0:0:0:0:
212,40,42032,1,0,0:0:0:0:
276,280,42220,1,0,0:0:0:0:
452,108,42408,1,0,0:0:0:0:
80,132,42595,1,0,0:0:0:0:
424,304,42783,1,0,0:0:0:0:
280,36,42971,1,0,0:0:0:0:
112,328,43158,5,0,0:0:0:0:
340,212,43346,1,0,0:0:0:0:
20,208,43533,1,0,0:0:0:0:
312,64,43721,1,0,0:0:0:0:
196,356,43909,1,0,0:0:0:0:
112,16,44096,1,0,0:0:0:0:
32,340,44284,1,0,0:0:0:0:
436,128,44472,1,0,0:0:0:0:
192,336,44659,5,0,0:0:0:0:
192,28,44847,1,0,0:0:0:0:
408,264,45035,1,0,0:0:0:0:
72,100,45222,1,0,0:0:0:0:
304,336,45410,1,0,0:0:0:0:
372,40,45598,1,0,0:0:0:0:
152,216,45785,1,0,0:0:0:0:
344,260,45973,1,0,0:0:0:0:
352,24,46160,5,0,0:0:0:0:
32,128,46348,1,0,0:0:0:0:
372,104,46536,5,0,0:0:0:0:
56,208,46723,1,0,0:0:0:0:
388,216,46911,5,0,0:0:0:0:
96,308,47099,1,0,0:0:0:0:
396,84,47286,5,0,0:0:0:0:
268,332,47474,1,0,0:0:0:0:
172,88,47662,1,0,0:0:0:0:
172,88,47755,1,0,0:0:0:0:
172,88,47849,1,0,0:0:0:0:
368,232,48037,5,0,0:0:0:0:
128,256,48412,5,0,0:0:0:0:
392,192,48600,1,0,0:0:0:0:
96,148,48787,1,0,0:0:0:0:
296,220,48975,1,0,0:0:0:0:
184,28,49163,1,0,0:0:0:0:
216,204,49350,1,0,0:0:0:0:
368,36,49538,1,0,0:0:0:0:
48,132,49726,1,0,0:0:0:0:
432,200,49913,1,0,0:0:0:0:
168,40,50101,1,0,0:0:0:0:
296,312,50288,1,0,0:0:0:0:
444,56,50476,1,0,0:0:0:0:
88,120,50664,5,0,0:0:0:0:
360,224,50851,1,0,0:0:0:0:
192,40,51039,1,0,0:0:0:0:
256,304,51227,1,0,0:0:0:0:
500,160,51414,1,0,0:0:0:0:
264,52,51602,1,0,0:0:0:0:
180,304,51790,1,0,0:0:0:0:
0,176,51978,1,0,0:0:0:0:
408,156,52165,5,0,0:0:0:0:
108,260,52353,1,0,0:0:0:0:
224,32,52540,1,0,0:0:0:0:
384,320,52728,1,0,0:0:0:0:
416,32,52915,1,0,0:0:0:0:
164,180,53103,1,0,0:0:0:0:
504,52,53291,1,0,0:0:0:0:
292,344,53478,1,0,0:0:0:0:
164,68,53666,1,0,0:0:0:0:
164,68,53760,1,0,0:0:0:0:
164,68,53854,1,0,0:0:0:0:
360,184,54041,5,0,0:0:0:0:
224,72,54417,5,0,0:0:0:0:
264,336,54604,1,0,0:0:0:0:
88,136,54792,1,0,0:0:0:0:
480,324,54980,1,0,0:0:0:0:
312,28,55167,1,0,0:0:0:0:
324,296,55355,1,0,0:0:0:0:
396,80,55542,1,0,0:0:0:0:
236,196,55730,1,0,0:0:0:0:
392,188,55918,1,0,0:0:0:0:
80,36,56105,1,0,0:0:0:0:
160,332,56293,1,0,0:0:0:0:
312,132,56481,1,0,0:0:0:0:
96,244,56668,5,0,0:0:0:0:
288,40,56856,1,0,0:0:0:0:
192,256,57044,1,0,0:0:0:0:
168,28,57231,1,0,0:0:0:0:
396,260,57419,1,0,0:0:0:0:
144,160,57606,1,0,0:0:0:0:
448,44,57794,1,0,0:0:0:0:
288,344,57982,1,0,0:0:0:0:
176,36,58169,1,0,0:0:0:0:
368,248,58357,1,0,0:0:0:0:
24,148,58545,1,0,0:0:0:0:
428,40,58732,1,0,0:0:0:0:
172,312,58920,5,0,0:0:0:0:
256,16,59108,1,0,0:0:0:0:
16,224,59295,1,0,0:0:0:0:
344,204,59483,1,0,0:0:0:0:
60,64,59671,1,0,0:0:0:0:
60,64,59764,1,0,0:0:0:0:
60,64,59858,1,0,0:0:0:0:
360,144,60796,6,0,P|288:128|228:144,1,125.999996154785
108,252,61547,2,0,P|188:268|232:260,1,125.999996154785
328,112,62298,5,0,0:0:0:0:
216,148,62485,1,0,0:0:0:0:
312,224,62673,1,0,0:0:0:0:
340,104,63799,6,0,L|312:168,1,62.9999980773926
200,128,64174,2,0,L|180:60,1,62.9999980773926
116,232,64549,5,0,0:0:0:0:
288,160,64924,5,0,0:0:0:0:
452,272,65300,5,0,0:0:0:0:
380,132,65487,1,0,0:0:0:0:
304,268,65675,1,0,0:0:0:0:
140,48,66801,6,0,L|220:60,1,62.9999980773926
100,148,67176,2,0,L|28:164,1,62.9999980773926
188,204,67551,2,0,L|268:224,1,62.9999980773926
112,288,67927,2,0,L|40:308,1,62.9999980773926
76,136,68302,1,0,0:0:0:0:
216,232,68490,1,0,0:0:0:0:
216,60,68677,1,0,0:0:0:0:
220,88,69803,6,0,L|132:112,1,62.9999980773926
24,152,70178,2,0,L|92:168,1,62.9999980773926
224,248,70553,2,0,L|140:268,1,62.9999980773926
48,328,70929,2,0,L|116:344,1,62.9999980773926
192,84,71304,1,0,0:0:0:0:
328,192,71492,1,0,0:0:0:0:
428,40,71680,2,0,B|436:96|436:96|428:152,1,94.499997116089
400,144,72055,1,0,0:0:0:0:
136,88,72430,5,0,0:0:0:0:
280,232,72618,1,0,0:0:0:0:
296,56,72805,1,0,0:0:0:0:
120,184,72993,1,0,0:0:0:0:
296,144,73181,1,0,0:0:0:0:
200,20,73368,1,0,0:0:0:0:
240,296,73556,1,0,0:0:0:0:
316,28,73744,1,0,0:0:0:0:
84,132,73931,1,0,0:0:0:0:
392,276,74119,1,0,0:0:0:0:
200,28,74307,1,0,0:0:0:0:
192,336,74494,1,0,0:0:0:0:
76,156,74682,5,0,0:0:0:0:
424,204,74869,1,0,0:0:0:0:
320,60,75057,5,0,0:0:0:0:
208,300,75245,1,0,0:0:0:0:
172,116,75432,5,0,0:0:0:0:
384,316,75620,1,0,0:0:0:0:
384,316,75808,2,0,B|388:280|388:280|384:228,1,83.9999974365235
280,44,76183,5,0,0:0:0:0:
100,248,76371,1,0,0:0:0:0:
372,184,76558,1,0,0:0:0:0:
216,324,76746,5,0,0:0:0:0:
140,52,76933,1,0,0:0:0:0:
348,256,77121,1,0,0:0:0:0:
72,212,77309,1,0,0:0:0:0:
336,64,77496,1,0,0:0:0:0:
216,324,77684,1,0,0:0:0:0:
216,324,77778,1,0,0:0:0:0:
216,324,77872,1,0,0:0:0:0:
128,56,78059,5,0,0:0:0:0:
348,120,78435,5,0,0:0:0:0:
20,264,78622,1,0,0:0:0:0:
304,308,78810,1,0,0:0:0:0:
96,172,78998,1,0,0:0:0:0:
200,320,79185,1,0,0:0:0:0:
284,24,79373,1,0,0:0:0:0:
120,248,79560,1,0,0:0:0:0:
424,184,79748,1,0,0:0:0:0:
224,96,79936,1,0,0:0:0:0:
280,348,80123,1,0,0:0:0:0:
432,68,80311,1,0,0:0:0:0:
132,224,80499,1,0,0:0:0:0:
432,288,80686,5,0,0:0:0:0:
160,96,80874,1,0,0:0:0:0:
440,136,81062,5,0,0:0:0:0:
216,316,81249,1,0,0:0:0:0:
272,68,81437,5,0,0:0:0:0:
356,340,81625,1,0,0:0:0:0:
440,116,81812,2,0,P|448:176|440:208,1,83.9999974365235
280,200,82187,2,0,P|272:144|280:112,1,83.9999974365235
440,136,82563,2,0,P|448:196|440:228,1,83.9999974365235
280,184,82938,2,0,P|272:128|280:96,1,83.9999974365235
124,96,83313,5,0,0:0:0:0:
272,288,83501,1,0,0:0:0:0:
300,64,83689,1,0,0:0:0:0:
300,64,83782,1,0,0:0:0:0:
300,64,83876,1,0,0:0:0:0:
240,184,95698,5,0,0:0:0:0:
240,184,96073,1,0,0:0:0:0:
72,184,96636,5,0,0:0:0:0:
284,264,96823,1,0,0:0:0:0:
180,48,97011,1,0,0:0:0:0:
152,300,97199,1,0,0:0:0:0:
84,68,97386,1,0,0:0:0:0:
328,168,97574,1,0,0:0:0:0:
40,208,97762,1,0,0:0:0:0:
272,52,97949,1,0,0:0:0:0:
240,312,98137,1,0,0:0:0:0:
48,124,98325,1,0,0:0:0:0:
340,128,98512,1,0,0:0:0:0:
184,96,98700,6,0,B|160:132|160:132|144:192,1,83.9999974365235
260,316,99075,5,0,0:0:0:0:
376,76,99263,1,0,0:0:0:0:
52,160,99450,1,0,0:0:0:0:
176,72,99638,5,0,0:0:0:0:
288,264,99826,1,0,0:0:0:0:
368,36,100013,1,0,0:0:0:0:
232,188,100201,1,0,0:0:0:0:
472,112,100389,1,0,0:0:0:0:
192,36,100576,1,0,0:0:0:0:
392,328,100764,1,0,0:0:0:0:
388,72,100952,1,0,0:0:0:0:
264,292,101139,1,0,0:0:0:0:
480,216,101327,1,0,0:0:0:0:
280,112,101514,1,0,0:0:0:0:
284,340,101702,5,0,0:0:0:0:
284,340,101796,1,0,0:0:0:0:
284,340,101890,1,0,0:0:0:0:
56,160,102077,6,0,P|136:184|224:144,1,167.999994873047
312,160,102641,5,0,0:0:0:0:
120,288,102829,1,0,0:0:0:0:
268,48,103016,1,0,0:0:0:0:
208,280,103204,1,0,0:0:0:0:
80,84,103391,1,0,0:0:0:0:
408,272,103579,1,0,0:0:0:0:
376,68,103766,1,0,0:0:0:0:
264,324,103954,1,0,0:0:0:0:
472,176,104141,1,0,0:0:0:0:
184,160,104329,1,0,0:0:0:0:
432,324,104517,1,0,0:0:0:0:
292,60,104704,5,0,0:0:0:0:
216,312,104892,1,0,0:0:0:0:
408,212,105080,5,0,0:0:0:0:
96,184,105267,1,0,0:0:0:0:
276,40,105455,1,0,0:0:0:0:
136,288,105643,1,0,0:0:0:0:
156,60,105830,1,0,0:0:0:0:
440,152,106018,1,0,0:0:0:0:
40,256,106205,1,0,0:0:0:0:
260,92,106393,1,0,0:0:0:0:
296,340,106580,1,0,0:0:0:0:
44,224,106768,5,0,0:0:0:0:
296,32,106956,1,0,0:0:0:0:
352,340,107144,1,0,0:0:0:0:
60,200,107331,2,0,L|56:112,1,83.9999974365235
176,264,107707,5,0,0:0:0:0:
176,264,107800,1,0,0:0:0:0:
176,264,107894,1,0,0:0:0:0:
372,112,108082,1,0,0:0:0:0:
372,112,108457,5,0,0:0:0:0:
164,128,108644,1,0,0:0:0:0:
408,200,108832,1,0,0:0:0:0:
240,36,109020,1,0,0:0:0:0:
196,284,109207,1,0,0:0:0:0:
304,116,109395,1,0,0:0:0:0:
40,180,109583,1,0,0:0:0:0:
324,336,109770,1,0,0:0:0:0:
224,44,109958,1,0,0:0:0:0:
204,300,110146,1,0,0:0:0:0:
456,88,110333,1,0,0:0:0:0:
128,96,110521,1,0,0:0:0:0:
376,324,110709,5,0,0:0:0:0:
44,192,110896,1,0,0:0:0:0:
216,72,111084,5,0,0:0:0:0:
96,332,111272,1,0,0:0:0:0:
340,272,111459,1,0,0:0:0:0:
36,268,111647,1,0,0:0:0:0:
424,344,111835,1,0,0:0:0:0:
344,44,112022,1,0,0:0:0:0:
244,316,112210,1,0,0:0:0:0:
468,152,112398,5,0,0:0:0:0:
100,72,112585,2,0,B|96:120|96:120|104:180,1,83.9999974365235
160,316,112961,5,0,0:0:0:0:
384,40,113148,1,0,0:0:0:0:
200,184,113336,1,0,0:0:0:0:
456,280,113523,1,0,0:0:0:0:
176,56,113711,5,0,0:0:0:0:
176,56,113805,1,0,0:0:0:0:
176,56,113899,1,0,0:0:0:0:
260,264,114086,2,0,B|324:236|324:236|364:184,1,125.999996154785
368,152,114462,5,0,0:0:0:0:
200,80,114649,1,0,0:0:0:0:
276,320,114837,1,0,0:0:0:0:
356,48,115025,1,0,0:0:0:0:
220,180,115212,1,0,0:0:0:0:
460,72,115400,1,0,0:0:0:0:
252,52,115587,1,0,0:0:0:0:
436,308,115775,1,0,0:0:0:0:
476,40,115963,1,0,0:0:0:0:
140,144,116150,1,0,0:0:0:0:
472,268,116338,1,0,0:0:0:0:
288,36,116526,1,0,0:0:0:0:
184,308,116713,5,0,0:0:0:0:
424,140,116901,1,0,0:0:0:0:
216,88,117089,5,0,0:0:0:0:
400,336,117276,1,0,0:0:0:0:
316,24,117464,1,0,0:0:0:0:
280,272,117652,1,0,0:0:0:0:
356,128,117839,1,0,0:0:0:0:
68,160,118027,1,0,0:0:0:0:
416,280,118214,1,0,0:0:0:0:
228,44,118402,1,0,0:0:0:0:
284,312,118590,1,0,0:0:0:0:
404,48,118777,1,0,0:0:0:0:
168,252,118965,1,0,0:0:0:0:
448,128,119153,1,0,0:0:0:0:
248,56,119340,5,0,0:0:0:0:
356,320,119528,1,0,0:0:0:0:
100,240,119716,1,0,0:0:0:0:
100,240,119809,1,0,0:0:0:0:
100,240,119903,1,0,0:0:0:0:
308,164,120091,5,0,0:0:0:0:
296,56,120466,5,0,0:0:0:0:
16,340,120654,1,0,0:0:0:0:
352,336,120841,1,0,0:0:0:0:
176,48,121029,1,0,0:0:0:0:
236,312,121217,1,0,0:0:0:0:
344,72,121404,1,0,0:0:0:0:
64,156,121592,1,0,0:0:0:0:
436,324,121780,1,0,0:0:0:0:
152,48,121967,1,0,0:0:0:0:
208,352,122155,1,0,0:0:0:0:
364,52,122343,1,0,0:0:0:0:
60,168,122530,1,0,0:0:0:0:
280,68,122718,5,0,0:0:0:0:
208,224,122905,1,0,0:0:0:0:
392,40,123093,1,0,0:0:0:0:
104,132,123281,1,0,0:0:0:0:
464,152,123468,1,0,0:0:0:0:
104,276,123656,1,0,0:0:0:0:
324,32,123844,1,0,0:0:0:0:
288,344,124031,1,0,0:0:0:0:
120,56,124219,1,0,0:0:0:0:
288,344,124407,1,0,0:0:0:0:
468,244,124594,1,0,0:0:0:0:
108,248,124782,1,0,0:0:0:0:
256,60,124970,5,0,0:0:0:0:
172,316,125157,1,0,0:0:0:0:
380,76,125345,5,0,0:0:0:0:
312,336,125532,1,0,0:0:0:0:
152,96,125720,1,0,0:0:0:0:
152,96,125814,1,0,0:0:0:0:
152,96,125908,1,0,0:0:0:0:
420,224,126095,2,0,B|396:276|396:276|340:328,1,125.999996154785
320,312,126471,5,0,0:0:0:0:
172,156,126658,1,0,0:0:0:0:
456,136,126846,1,0,0:0:0:0:
252,280,127034,1,0,0:0:0:0:
384,76,127222,1,0,0:0:0:0:
384,336,127409,1,0,0:0:0:0:
284,36,127597,1,0,0:0:0:0:
512,304,127784,1,0,0:0:0:0:
160,168,127972,1,0,0:0:0:0:
492,72,128160,1,0,0:0:0:0:
272,332,128347,1,0,0:0:0:0:
360,24,128535,1,0,0:0:0:0:
148,64,128722,5,0,0:0:0:0:
472,252,128910,1,0,0:0:0:0:
104,208,129098,1,0,0:0:0:0:
468,48,129285,1,0,0:0:0:0:
196,296,129473,1,0,0:0:0:0:
312,104,129661,1,0,0:0:0:0:
328,364,129848,1,0,0:0:0:0:
112,64,130036,1,0,0:0:0:0:
440,172,130224,1,0,0:0:0:0:
100,260,130411,1,0,0:0:0:0:
440,172,130599,1,0,0:0:0:0:
76,96,130786,1,0,0:0:0:0:
404,36,130974,5,0,0:0:0:0:
216,184,131162,1,0,0:0:0:0:
456,172,131349,1,0,0:0:0:0:
148,28,131537,1,0,0:0:0:0:
336,320,131725,1,0,0:0:0:0:
336,320,131818,1,0,0:0:0:0:
336,320,131912,1,0,0:0:0:0:
96,248,132100,5,0,0:0:0:0:
