osu file format v14

[General]
AudioFilename: audio.mp3
AudioLeadIn: 0
PreviewTime: -1
Countdown: 0
SampleSet: None
StackLeniency: 0.7
Mode: 2
LetterboxInBreaks: 0
WidescreenStoryboard: 0

[Editor]
DistanceSpacing: 0.7
BeatDivisor: 6
GridSize: 8
TimelineZoom: 2.2

[Metadata]
Title:Eiyuu Unmei no Uta
TitleUnicode:英雄 運命の詩
Artist:Egoist
ArtistUnicode:Egoist
Creator:-Ken
Version:Overdose
Source:Fate/Apocrypha
Tags:
BeatmapID:1974194
BeatmapSetID:945390

[Difficulty]
HPDrainRate:6
CircleSize:4
OverallDifficulty:9.6
ApproachRate:9.6
SliderMultiplier:2.5
SliderTickRate:1

[Events]
//Background and Video events
0,0,"semiramis.jpg",0,0
//Break Periods
//Storyboard Layer 0 (Background)
//Storyboard Layer 1 (Fail)
//Storyboard Layer 2 (Pass)
//Storyboard Layer 3 (Foreground)
//Storyboard Sound Samples

[TimingPoints]
533,338.9830508475,4,2,2,25,1,0
1549,-100,4,2,2,5,0,0
1888,-100,4,2,2,25,0,0
1973,-100,4,2,2,25,0,0
7311,-100,4,2,2,50,0,0
7396,-100,4,2,2,5,0,0
7989,-100,4,2,2,25,0,0
11380,-125,4,2,2,25,0,0
12057,-125,4,2,2,50,0,0
12397,-100,4,2,2,50,0,0
12735,-100,4,2,2,65,0,0
13244,-83.3333333333333,4,2,2,65,0,0
13414,-66.6666666666667,4,2,2,65,0,0
13499,-66.6666666666667,4,2,2,5,0,0
13752,-66.6666666666667,4,2,2,65,0,0
13753,-66.6666666666667,4,2,2,65,0,0
14092,-100,4,2,2,65,0,0
14770,-50,4,2,2,65,0,0
14855,-50,4,2,2,5,0,0
15108,-50,4,2,2,65,0,0
15109,-55.5555555555556,4,2,2,65,0,0
15448,-66.6666666666667,4,2,2,65,0,0
16126,-50,4,2,2,65,0,0
16210,-50,4,2,2,5,0,0
16464,-50,4,2,2,65,0,0
16465,-50,4,2,2,65,0,0
16804,-66.6666666666667,4,2,2,65,0,0
17566,-66.6666666666667,4,2,2,5,0,0
17820,-66.6666666666667,4,2,2,65,0,0
18160,-83.3333333333333,4,2,2,65,0,0
18243,-83.3333333333333,4,2,2,5,0,0
18667,-83.3333333333333,4,2,2,65,0,0
20871,-83.3333333333333,4,2,2,65,0,0
22227,-50,4,2,2,65,0,0
22905,-83.3333333333333,4,2,2,65,0,0
23582,-50,4,2,3,65,0,0
23583,-100,4,2,3,65,0,0
35786,-133.333333333333,4,2,2,20,0,0
46633,-100,4,2,2,20,0,0
46634,-100,4,2,2,20,0,0
56803,-100,4,2,2,25,0,0
57142,-100,4,2,2,25,0,0
57481,-100,4,2,3,65,0,0
57482,-100,4,2,3,65,0,0
64006,-100,4,2,3,5,0,0
64430,-100,4,2,3,65,0,0
66972,-100,4,2,3,25,0,0
67650,-100,4,2,3,65,0,0
67651,-133.333333333333,4,2,3,65,0,0
67990,-100,4,2,3,65,0,0
68328,-100,4,2,3,65,0,0
68329,-66.6666666666667,4,2,3,65,0,1
68668,-83.3333333333333,4,2,3,65,0,1
68838,-66.6666666666667,4,2,3,65,0,1
69346,-83.3333333333333,4,2,3,65,0,1
70871,-66.6666666666667,4,2,3,65,0,1
71041,-66.6666666666667,4,2,3,65,0,1
71380,-83.3333333333333,4,2,3,65,0,1
71549,-66.6666666666667,4,2,3,65,0,1
73414,-90.9090909090909,4,2,3,65,0,1
77143,-50,4,2,3,65,0,1
77651,-66.6666666666667,4,2,3,65,0,1
77821,-50,4,2,3,65,0,1
78499,-83.3333333333333,4,2,3,65,0,1
79177,-83.3333333333333,4,2,3,65,0,1
87312,-66.6666666666667,4,2,3,65,0,0
87396,-66.6666666666667,4,2,3,5,0,0
87989,-66.6666666666667,4,2,3,65,0,0
88074,-66.6666666666667,4,2,3,5,0,0
88667,-66.6666666666667,4,2,3,65,0,0
88668,-66.6666666666667,4,2,3,65,0,0
90023,-66.6666666666667,4,2,3,65,0,0
90955,-66.6666666666667,4,2,3,5,0,0
91040,-66.6666666666667,4,2,3,65,0,0
92311,-66.6666666666667,4,2,3,5,0,0
92396,-66.6666666666667,4,2,3,65,0,0

[Colours]
Combo1 : 183,141,0
Combo2 : 54,0,81

[HitObjects]
256,192,533,12,0,1719,0:0:0:0:
352,208,1888,5,6,0:0:0:0:
173,198,2566,1,0,0:0:0:0:
352,208,3244,1,0,0:0:0:0:
193,152,3922,1,0,0:0:0:0:
450,195,4600,5,0,0:0:0:0:
301,172,5278,1,0,0:0:0:0:
150,134,5956,1,0,0:0:0:0:
336,169,6634,1,0,0:0:0:0:
163,235,7312,5,4,3:0:0:0:
360,186,7990,1,0,0:0:0:0:
135,166,8668,1,0,0:0:0:0:
376,161,9346,1,0,0:0:0:0:
92,171,10024,5,0,0:0:0:0:
236,168,10702,1,0,0:0:0:0:
400,304,11380,2,0,P|336:304|480:64,1,600,2|8,0:0|0:0,0:0:0:0:
336,96,12482,2,0,L|400:96,2,62.5,8|0|0,0:0|0:0|0:0,0:0:0:0:
16,144,12736,6,0,B|16:288|16:288|16:32,1,375,2|0,0:0|0:0,0:0:0:0:
304,208,13414,2,0,B|480:208|480:208|192:208,1,375.000014305115,14|4,0:0|3:0,0:0:0:0:
54,186,13837,1,0,0:0:0:0:
2,110,13922,1,0,3:0:0:0:
13,19,14007,1,0,0:0:0:0:
320,96,14092,6,0,L|384:240,1,125,14|0,0:0|0:0,0:0:0:0:
80,112,14600,1,8,3:0:0:0:
384,128,14770,6,0,L|112:128,1,250,6|0,0:0|0:0,0:0:0:0:
272,240,15109,6,0,L|272:128,1,112.499996566773,0|0,3:0|0:0,0:0:0:0:
192,144,15278,2,0,L|192:32,1,112.499996566773,4|0,3:0|0:0,0:0:0:0:
448,48,15448,2,0,L|448:304,1,187.500007152558,6|0,0:0|0:0,0:0:0:0:
48,208,15956,5,8,3:0:0:0:
416,128,16126,2,0,L|64:128,1,250,6|0,0:0|0:0,0:0:0:0:
288,176,16465,6,0,L|288:320,1,125,0|0,3:0|0:0,0:0:0:0:
352,256,16634,2,0,L|352:384,1,125,8|0,3:0|0:0,0:0:0:0:
64,256,16804,6,0,P|48:160|128:208,1,187.500007152558,14|0,0:0|0:0,0:0:0:0:
448,256,17143,6,0,P|464:160|384:208,1,187.500007152558,0|8,0:0|3:0,0:0:0:0:
80,192,17482,6,0,B|64:96|64:96|80:0,1,187.500007152558,14|0,0:0|0:0,0:0:0:0:
432,192,17821,6,0,B|448:96|448:96|432:0,1,187.500007152558,0|4,0:0|3:0,0:0:0:0:
48,272,18160,6,0,L|208:272,1,149.999995422363,4|0,0:0|0:0,0:0:0:0:
496,272,18499,1,0,0:0:0:0:
112,208,18668,5,8,3:0:0:0:
40,153,18752,1,8,3:0:0:0:
46,63,18837,1,12,0:0:0:0:
124,19,18922,1,0,0:0:0:0:
205,59,19006,1,8,0:0:0:0:
512,176,19177,2,0,L|336:176,1,149.999995422363,8|8,0:0|0:0,0:0:0:0:
32,192,19516,5,6,3:0:0:0:
464,256,19685,6,0,L|384:256,1,74.9999977111817,0|0,0:0|0:0,0:0:0:0:
208,192,19855,2,0,L|288:192,1,74.9999977111817,0|0,0:0|0:0,0:0:0:0:
48,128,20024,1,10,3:0:0:0:
82,43,20108,1,0,0:0:0:0:
167,11,20193,1,4,0:0:0:0:
448,144,20363,2,0,L|368:144,1,74.9999977111817,0|0,0:0|0:0,0:0:0:0:
16,256,20533,2,0,L|224:256,1,149.999995422363,0|8,0:0|0:3,0:0:0:0:
480,256,20871,5,4,3:0:0:0:
224,208,21041,2,0,L|320:208,1,74.9999977111817,0|0,0:0|0:0,0:0:0:0:
456,208,21210,1,0,0:0:0:0:
192,128,21380,2,0,L|288:128,1,74.9999977111817,8|0,3:0|0:0,0:0:0:0:
424,128,21549,1,4,3:0:0:0:
96,48,21719,1,0,0:0:0:0:
384,48,21888,2,0,L|384:224,1,149.999995422363,0|4,0:0|0:3,0:0:0:0:
128,112,22227,5,4,0:0:0:0:
65,184,22311,1,0,0:0:0:0:
93,276,22396,1,0,0:0:0:0:
185,303,22481,1,0,0:0:0:0:
408,230,22566,5,0,0:0:0:0:
419,135,22650,1,0,0:0:0:0:
344,78,22735,1,10,3:0:0:0:
256,115,22820,1,0,0:0:0:0:
48,208,22905,6,0,L|144:208,1,74.9999977111817,6|2,3:0|3:0,0:0:0:0:
368,208,23075,2,0,L|448:160,1,74.9999977111817,10|2,3:0|3:0,0:0:0:0:
48,208,23244,6,0,L|144:208,1,74.9999977111817,4|0,3:0|3:0,0:0:0:0:
368,208,23414,2,0,L|448:160,1,74.9999977111817,8|0,3:0|3:0,0:0:0:0:
176,144,23583,5,12,3:0:0:0:
32,144,23753,1,8,0:0:0:0:
176,96,23922,1,2,0:0:0:0:
40,96,24092,1,2,0:0:0:0:
192,64,24261,1,8,0:0:0:0:
56,56,24431,1,2,0:0:0:0:
224,32,24600,1,8,0:0:0:0:
80,32,24770,1,0,0:0:0:0:
240,96,24939,6,0,L|400:96,1,125,8|2,0:0|0:0,0:0:0:0:
200,176,25278,2,0,L|40:176,1,125,8|2,0:0|0:0,0:0:0:0:
240,96,25617,2,0,L|400:96,1,125,8|2,0:0|0:0,0:0:0:0:
48,96,25956,6,0,L|48:256,1,125,8|10,0:0|3:0,0:0:0:0:
336,144,26295,5,4,3:0:0:0:
488,136,26465,1,2,0:0:0:0:
336,96,26634,1,8,0:0:0:0:
480,88,26804,1,2,0:0:0:0:
320,64,26973,1,8,0:0:0:0:
456,64,27143,1,2,0:0:0:0:
304,32,27312,2,0,L|480:32,2,125,8|0|8,0:0|0:0|0:0,0:0:0:0:
16,32,27821,1,2,0:0:0:0:
16,160,27990,6,0,L|176:160,1,125,8|2,0:0|0:0,0:0:0:0:
320,112,28329,2,0,L|160:112,1,125,8|10,0:0|0:0,0:0:0:0:
144,112,28583,1,0,0:0:0:0:
112,164,28667,1,4,0:3:0:0:
127,223,28752,1,8,0:0:0:0:
178,256,28837,1,10,3:0:0:0:
493,208,29007,6,0,L|368:208,1,125,12|2,0:0|0:0,0:0:0:0:
493,208,29346,6,0,L|368:208,1,125,8|2,0:0|0:0,0:0:0:0:
464,208,29685,6,0,L|339:208,1,125,8|2,0:0|0:0,0:0:0:0:
464,208,30024,6,0,L|339:208,1,125,8|0,0:0|0:0,0:0:0:0:
48,224,30363,1,8,0:0:0:0:
184,216,30532,1,2,0:0:0:0:
184,88,30701,1,8,0:0:0:0:
48,80,30871,1,2,0:0:0:0:
368,96,31041,6,0,L|464:96,2,62.5,8|0|2,0:0|0:0|0:0,0:0:0:0:
112,96,31380,6,0,L|112:224,1,125,8|10,0:0|3:0,0:0:0:0:
352,208,31719,6,0,L|477:208,1,125,4|2,3:0|0:0,0:0:0:0:
352,208,32058,6,0,L|477:208,1,125,8|0,0:0|0:0,0:0:0:0:
381,208,32397,6,0,L|506:208,1,125,8|2,0:0|0:0,0:0:0:0:
381,208,32736,6,0,L|506:208,1,125,8|0,0:0|0:0,0:0:0:0:
80,176,33075,5,8,0:0:0:0:
224,144,33244,1,2,0:0:0:0:
224,192,33329,1,8,3:0:0:0:
32,112,33414,1,8,0:0:0:0:
272,64,33583,1,2,0:0:0:0:
32,64,33753,1,8,0:0:0:0:
128,64,33866,1,8,3:0:0:0:
224,64,33979,1,8,3:0:0:0:
32,224,34092,1,8,0:0:0:0:
128,224,34205,1,8,3:0:0:0:
224,224,34318,1,8,3:0:0:0:
112,208,35787,6,0,L|328:208,1,187.500007152558,2|2,0:0|0:0,0:0:0:0:
112,208,36465,5,2,0:0:0:0:
112,208,36634,1,0,0:0:0:0:
112,208,36804,1,0,0:0:0:0:
336,208,37143,5,2,0:0:0:0:
336,208,37312,1,0,0:0:0:0:
336,208,37482,1,2,0:0:0:0:
136,208,37821,5,2,0:0:0:0:
120,208,37990,1,0,0:0:0:0:
136,208,38160,1,0,0:0:0:0:
336,192,38499,5,2,0:0:0:0:
352,192,38668,1,0,0:0:0:0:
336,192,38838,1,0,0:0:0:0:
224,192,39007,1,0,0:0:0:0:
336,192,39177,5,2,0:0:0:0:
352,192,39346,1,0,0:0:0:0:
336,192,39516,1,0,0:0:0:0:
80,280,39855,5,2,0:0:0:0:
64,280,40024,1,0,0:0:0:0:
80,280,40194,1,2,0:0:0:0:
192,280,40363,1,0,0:0:0:0:
80,280,40533,5,2,0:0:0:0:
64,280,40702,1,0,0:0:0:0:
80,280,40872,1,0,0:0:0:0:
264,192,41041,5,0,0:0:0:0:
320,192,41126,1,0,0:0:0:0:
376,192,41210,2,0,L|192:104,2,187.500007152558,2|2|2,0:0|0:0|0:0,0:0:0:0:
136,208,42397,5,0,0:0:0:0:
256,208,42566,2,0,L|440:120,2,187.500007152558,2|2|2,0:0|0:0|0:0,0:0:0:0:
464,224,43922,6,0,L|160:224,2,281.250010728836,2|2|2,0:0|0:0|0:0,0:0:0:0:
152,224,45278,6,0,P|232:216|152:104,1,281.250010728836,6|0,0:0|0:0,0:0:0:0:
248,72,45871,6,0,L|168:48,1,46.8750017881394,0|8,0:0|3:0,0:0:0:0:
432,72,46295,1,0,0:0:0:0:
152,256,46634,6,0,L|152:184,2,62.5,0|0|0,0:0|0:0|0:0,0:0:0:0:
256,200,46973,6,0,L|264:128,2,62.5,0|0|0,0:0|0:0|0:0,0:0:0:0:
360,192,47312,6,0,L|376:120,2,62.5,0|0|0,0:0|0:0|0:0,0:0:0:0:
464,192,47651,6,0,L|496:120,2,62.5,0|0|0,0:0|0:0|0:0,0:0:0:0:
360,192,47990,6,0,L|344:112,2,62.5,0|0|0,0:0|0:0|0:0,0:0:0:0:
256,200,48329,6,0,L|224:128,2,62.5,0|0|0,0:0|0:0|0:0,0:0:0:0:
360,192,48668,6,0,L|360:104,2,62.5,0|0|0,0:0|0:0|0:0,0:0:0:0:
256,208,49007,6,0,L|224:288,2,62.5,0|0|0,0:0|0:0|0:0,0:0:0:0:
392,200,49346,6,0,L|392:120,2,62.5,0|0|0,0:0|0:0|0:0,0:0:0:0:
280,160,49685,6,0,L|240:104,2,62.5,0|0|0,0:0|0:0|0:0,0:0:0:0:
392,144,50024,6,0,L|432:88,2,62.5,0|0|0,0:0|0:0|0:0,0:0:0:0:
280,160,50363,2,0,L|256:88,2,62.5,0|0|0,0:0|0:0|0:0,0:0:0:0:
176,152,50702,2,0,L|112:72,2,62.5,0|0|0,0:0|0:0|0:0,0:0:0:0:
64,128,51041,2,0,L|56:40,2,62.5,0|0|0,0:0|0:0|0:0,0:0:0:0:
208,64,51380,1,0,0:0:0:0:
448,176,51888,5,0,0:0:0:0:
280,192,52058,2,0,P|368:216|456:352,2,250,0|0|0,0:0|0:0|0:0,0:0:0:0:
168,192,53244,6,0,L|248:192,1,62.5,0|0,0:0|0:0,0:0:0:0:
288,192,53414,2,0,P|440:192|496:296,2,250,0|0|0,0:0|0:0|0:0,0:0:0:0:
456,128,54770,5,0,0:0:0:0:
128,128,55278,1,0,0:0:0:0:
456,128,55787,1,0,0:0:0:0:
48,280,56126,2,0,B|416:280|416:280|464:240|424:192|424:192|336:192,1,500,0|0,0:0|0:0,0:0:0:0:
304,192,56888,5,0,0:0:0:0:
216,192,56973,1,0,0:0:0:0:
128,192,57058,1,0,0:0:0:0:
40,192,57143,5,0,0:0:0:0:
32,176,57185,1,0,0:0:0:0:
32,160,57227,1,0,0:0:0:0:
40,144,57270,1,0,0:0:0:0:
56,136,57312,1,0,0:0:0:0:
472,120,57482,6,0,L|472:248,1,125,2|0,0:0|0:0,0:0:0:0:
200,240,57821,1,4,0:0:0:0:
72,240,57990,1,2,0:0:0:0:
408,240,58160,6,0,L|408:80,1,125,0|0,0:0|0:0,0:0:0:0:
128,208,58499,2,0,P|72:168|184:80,1,250,6|2,0:0|0:0,0:0:0:0:
456,56,59007,5,0,0:0:0:0:
80,80,59177,6,0,L|80:216,1,125,4|0,0:0|0:0,0:0:0:0:
464,184,59516,2,0,P|384:192|432:80,1,250,0|6,0:0|0:0,0:0:0:0:
280,112,60024,6,0,L|376:112,1,62.5,0|0,0:0|0:0,0:0:0:0:
112,88,60194,2,0,P|17:143|89:226,1,250,2|4,0:0|0:0,0:0:0:0:
432,224,60702,2,0,L|296:224,2,125,2|0|0,0:0|0:0|0:0,0:0:0:0:
48,120,61210,1,6,0:0:0:0:
200,120,61380,1,0,0:0:0:0:
352,128,61549,2,0,P|432:160|312:336,1,375,0|0,0:0|0:0,0:0:0:0:
160,328,62227,6,0,P|264:304|88:96,1,500,2|0,0:0|0:0,0:0:0:0:
272,64,63075,1,0,0:0:0:0:
137,64,63244,1,0,0:0:0:0:
416,64,63414,2,0,P|456:144|416:312,1,250,2|0,0:0|0:0,0:0:0:0:
88,392,63922,2,0,P|8:240|344:56,1,625,2|0,0:0|0:0,0:0:0:0:
152,240,64939,2,0,B|328:272|480:184|480:184|472:128|472:128|328:128,1,500,4|4,0:0|0:0,0:0:0:0:
104,160,65956,6,0,L|88:88,2,62.5,0|0|0,3:0|0:0|0:0,0:0:0:0:
248,152,66295,6,0,L|264:80,2,62.5,0|0|0,3:0|0:0|0:0,0:0:0:0:
104,160,66634,6,0,L|88:88,2,62.5,0|0|0,3:0|0:0|0:0,0:0:0:0:
432,80,66973,1,0,0:0:0:0:
288,248,67651,6,0,L|488:248,1,187.500007152558,0|0,0:0|0:0,0:0:0:0:
384,240,68160,1,0,0:0:0:0:
144,256,68329,2,0,P|64:160|192:48,1,281.250010728836,4|0,3:0|0:0,0:0:0:0:
456,48,68668,2,0,L|432:120,1,74.9999977111817,6|0,3:0|0:0,0:0:0:0:
184,96,68838,2,0,P|24:128|208:288,1,468.750017881394,4|0,0:0|0:0,0:0:0:0:
456,232,69346,6,0,L|360:232,1,74.9999977111817,6|0,3:0|0:0,0:0:0:0:
176,232,69516,6,0,B|88:232|88:232|64:192|88:152|88:152|360:152,1,374.999988555909,4|0,0:0|0:0,0:0:0:0:
56,96,70024,2,0,L|144:96,1,74.9999977111817,6|0,3:0|0:0,0:0:0:0:
392,88,70194,6,0,P|448:160|264:256,1,374.999988555909,4|0,0:0|0:0,0:0:0:0:
16,152,70702,6,0,L|96:152,1,74.9999977111817,6|0,3:0|0:0,0:0:0:0:
344,152,70871,6,0,B|480:152|480:152|480:352|480:352|328:352,1,468.750017881394,4|0,0:0|0:0,0:0:0:0:
16,232,71380,6,0,L|96:232,1,74.9999977111817,6|0,3:0|0:0,0:0:0:0:
344,152,71549,6,0,B|480:152|480:152|376:264|376:264|136:240|336:152,1,468.750017881394,4|0,0:0|0:0,0:0:0:0:
480,176,72058,6,0,L|480:280,1,93.7500035762788,6|0,3:0|0:0,0:0:0:0:
208,208,72227,2,0,P|112:208|256:56,1,468.750017881394,4|0,0:0|0:0,0:0:0:0:
480,88,72736,6,0,L|480:200,1,93.7500035762788,6|0,3:0|0:0,0:0:0:0:
232,256,72905,2,0,B|112:248|152:208|152:208|256:208|256:208|256:144|-8:176|248:128,1,468.750017881394,4|4,0:0|0:0,0:0:0:0:
488,160,73414,6,0,L|480:232,1,68.7500020980836,0|0,0:0|0:0,0:0:0:0:
56,344,73583,6,0,L|56:0,1,343.750010490418,4|0,0:0|0:0,0:0:0:0:
208,16,74092,1,6,3:0:0:0:
464,104,74261,1,4,0:0:0:0:
344,104,74431,1,4,3:0:0:0:
464,96,74600,1,0,0:0:0:0:
64,184,74770,6,0,L|88:272,1,68.7500020980836,6|0,3:0|0:0,0:0:0:0:
456,344,74939,6,0,L|456:0,1,343.750010490418,4|0,0:0|0:0,0:0:0:0:
304,24,75448,1,6,3:0:0:0:
48,160,75617,1,4,0:0:0:0:
168,160,75787,1,4,3:0:0:0:
48,160,75956,1,0,0:0:0:0:
424,160,76126,5,6,3:0:0:0:
168,288,76295,2,0,P|64:272|192:128,1,412.500012588501,4|6,0:0|3:0,0:0:0:0:
496,248,76973,2,0,P|400:256|464:48,1,412.500012588501,4|6,0:0|3:0,0:0:0:0:
72,96,77651,2,0,L|176:96,1,93.7500035762788,4|0,0:0|0:0,0:0:0:0:
432,128,77821,5,4,3:0:0:0:
304,128,77990,1,4,3:0:0:0:
432,128,78160,1,4,3:0:0:0:
144,128,78329,1,4,3:0:0:0:
432,56,78499,6,0,L|352:56,1,74.9999977111817,4|0,3:0|0:0,0:0:0:0:
128,64,78668,2,0,L|40:64,1,74.9999977111817,4|0,3:0|3:0,0:0:0:0:
376,64,78838,1,4,3:0:0:0:
437,121,78922,1,0,3:0:0:0:
430,205,79007,1,4,3:0:0:0:
359,251,79092,1,0,3:0:0:0:
176,288,79177,5,4,3:0:0:0:
93,256,79261,1,0,0:0:0:0:
93,168,79346,1,0,0:0:0:0:
175,136,79431,1,0,0:0:0:0:
352,128,79516,5,6,3:0:0:0:
288,89,79600,1,0,0:0:0:0:
214,76,79685,1,4,0:0:0:0:
142,92,79770,1,0,0:0:0:0:
312,208,79855,5,4,3:0:0:0:
326,135,79939,1,0,0:0:0:0:
291,71,80024,1,0,0:0:0:0:
223,42,80109,1,0,0:0:0:0:
24,152,80194,6,0,L|120:152,1,74.9999977111817,6|0,3:0|0:0,0:0:0:0:
323,204,80363,1,4,0:0:0:0:
395,201,80447,1,0,0:0:0:0:
438,142,80532,1,4,3:0:0:0:
421,72,80617,1,0,0:0:0:0:
355,41,80701,1,0,0:0:0:0:
289,73,80786,1,0,0:0:0:0:
56,248,80871,6,0,L|136:248,1,74.9999977111817,6|0,3:0|0:0,0:0:0:0:
352,240,81041,6,0,L|448:240,2,74.9999977111817,4|0|4,0:0|0:0|3:0,0:0:0:0:
272,240,81295,2,0,L|184:240,2,74.9999977111817,0|0|0,0:0|0:0|0:0,0:0:0:0:
496,144,81549,6,0,L|408:144,1,74.9999977111817,6|0,3:0|0:0,0:0:0:0:
160,288,81719,2,0,P|32:208|184:112,1,374.999988555909,4|0,0:0|0:0,0:0:0:0:
480,232,82227,2,0,L|400:216,1,74.9999977111817,6|0,3:0|0:0,0:0:0:0:
152,256,82397,2,0,P|56:72|128:56,1,374.999988555909,4|0,0:0|0:0,0:0:0:0:
344,160,82905,2,0,L|440:160,1,74.9999977111817,6|0,3:0|0:0,0:0:0:0:
168,168,83075,2,0,B|88:168|48:112|56:72|56:72|288:72,1,374.999988555909,4|0,0:0|0:0,0:0:0:0:
480,64,83583,6,0,L|400:64,1,74.9999977111817,4|0,3:0|0:0,0:0:0:0:
168,72,83753,1,4,3:0:0:0:
96,89,83837,1,0,0:0:0:0:
52,148,83922,1,4,0:0:0:0:
54,221,84007,1,0,0:0:0:0:
102,277,84091,1,0,0:0:0:0:
174,290,84176,1,4,0:0:0:0:
408,216,84261,6,0,L|496:216,1,74.9999977111817,0|0,0:0|0:0,0:0:0:0:
192,216,84431,1,4,0:0:0:0:
194,141,84515,1,0,0:0:0:0:
234,78,84600,1,4,3:0:0:0:
299,43,84685,1,0,0:0:0:0:
373,45,84769,1,0,0:0:0:0:
437,83,84854,1,0,0:0:0:0:
144,112,84939,6,0,L|56:112,1,74.9999977111817,6|0,3:0|0:0,0:0:0:0:
320,56,85109,1,4,0:0:0:0:
386,87,85193,1,0,0:0:0:0:
426,150,85278,1,4,3:0:0:0:
426,224,85363,1,0,0:0:0:0:
386,287,85447,1,0,0:0:0:0:
320,319,85532,1,0,0:0:0:0:
160,304,85617,6,0,L|272:296,1,74.9999977111817,6|0,3:0|0:0,0:0:0:0:
40,280,85787,1,4,0:0:0:0:
36,206,85871,1,0,0:0:0:0:
71,140,85956,1,4,3:0:0:0:
135,103,86041,1,0,0:0:0:0:
209,104,86125,1,0,0:0:0:0:
271,143,86210,1,0,0:0:0:0:
112,64,86295,6,0,L|16:56,1,74.9999977111817,6|0,3:0|0:0,0:0:0:0:
264,24,86465,1,4,0:0:0:0:
333,48,86549,1,0,0:0:0:0:
380,105,86634,1,4,3:0:0:0:
388,179,86719,1,0,0:0:0:0:
356,245,86803,1,0,0:0:0:0:
294,285,86888,1,0,0:0:0:0:
72,264,86973,5,6,3:0:0:0:
63,191,87057,1,0,0:0:0:0:
105,131,87142,1,0,0:0:0:0:
176,115,87227,1,0,0:0:0:0:
344,112,87312,2,0,P|448:112|320:56,1,375.000014305115,0|0,0:0|0:0,0:0:0:0:
224,96,87821,2,0,P|16:72|210:2,1,562.500021457673,0|0,0:0|0:0,0:0:0:0:
352,40,88499,1,0,0:0:0:0:
224,64,88668,6,0,L|128:64,1,93.7500035762788,4|0,3:0|0:0,0:0:0:0:
440,80,88838,2,0,L|448:192,1,93.7500035762788,4|0,3:0|0:0,0:0:0:0:
184,136,89007,2,0,L|72:144,1,93.7500035762788,4|0,3:0|0:0,0:0:0:0:
400,168,89177,2,0,L|456:264,1,93.7500035762788,4|0,3:0|0:0,0:0:0:0:
128,216,89346,2,0,L|16:216,1,93.7500035762788,4|0,3:0|0:0,0:0:0:0:
408,280,89516,2,0,L|488:344,1,93.7500035762788,4|0,3:0|0:0,0:0:0:0:
72,288,89685,2,0,L|72:160,1,93.7500035762788,4|0,3:0|0:0,0:0:0:0:
368,200,89855,2,0,L|472:200,1,93.7500035762788,0|0,3:0|0:0,0:0:0:0:
56,112,90024,5,0,3:0:0:0:
168,112,90194,1,0,0:0:0:0:
56,48,90363,1,0,3:0:0:0:
168,48,90533,1,0,0:0:0:0:
48,184,90702,5,0,3:0:0:0:
464,144,90871,1,0,0:0:0:0:
360,136,91041,1,4,3:0:0:0:
472,72,91210,1,0,3:0:0:0:
208,64,91380,5,0,3:0:0:0:
200,160,91549,1,0,0:0:0:0:
472,72,91719,1,0,3:0:0:0:
480,160,91888,1,0,0:0:0:0:
352,168,92058,1,0,3:0:0:0:
42,160,92227,1,0,0:0:0:0:
161,148,92397,1,4,3:0:0:0:
276,136,92566,1,0,3:0:0:0:
160,64,92736,5,0,3:0:0:0:
448,32,92905,1,0,0:0:0:0:
336,112,93075,1,0,3:0:0:0:
464,160,93244,1,0,0:0:0:0:
16,120,93414,1,0,3:0:0:0:
344,112,93583,1,0,0:0:0:0:
240,120,93753,1,4,3:0:0:0:
504,80,93922,1,0,3:0:0:0:
128,240,94092,5,0,3:0:0:0:
464,184,94261,1,0,3:0:0:0:
80,128,94431,1,0,3:0:0:0:
416,104,94600,1,0,3:0:0:0:
104,80,94770,5,4,3:0:0:0:
41,143,94854,1,4,3:0:0:0:
65,229,94939,1,4,3:0:0:0:
152,251,95024,1,4,3:0:0:0:
472,304,95109,5,4,3:0:0:0:
512,304,95165,1,0,0:0:0:0:
472,304,95222,1,0,0:0:0:0:
512,304,95278,1,4,3:0:0:0:
472,304,95335,1,0,0:0:0:0:
512,304,95391,1,0,0:0:0:0:
472,304,95448,1,0,0:0:0:0:
