osu file format v14

[General]
AudioFilename: Egl Jaktyt - Leisk dar bti.mp3
AudioLeadIn: 0
PreviewTime: 62842
Countdown: 0
SampleSet: Soft
StackLeniency: 0.3
Mode: 0
LetterboxInBreaks: 0
WidescreenStoryboard: 1

[Editor]
Bookmarks: 14842,44380,64688,86842,101611
DistanceSpacing: 1.4
BeatDivisor: 4
GridSize: 4
TimelineZoom: 0.8999997

[Metadata]
Title:Leisk dar buti
TitleUnicode:Leisk dar būti
Artist:Egle Jakstyte
ArtistUnicode:Eglė Jakštytė
Creator:Prismetical
Version:Hard
Source:
Tags:eurovision 2016 song contest lithuania lithuanian let me show you
BeatmapID:908725
BeatmapSetID:419966

[Difficulty]
HPDrainRate:5.5
CircleSize:4
OverallDifficulty:6
ApproachRate:7.5
SliderMultiplier:1.3
SliderTickRate:2

[Events]
//Background and Video events
0,0,"LeiskDarButi.png",0,0
//Break Periods
//Storyboard Layer 0 (Background)
//Storyboard Layer 1 (Fail)
//Storyboard Layer 2 (Pass)
//Storyboard Layer 3 (Foreground)
//Storyboard Sound Samples

[TimingPoints]
73,461.538461538462,4,2,1,60,1,0
73,-100,4,2,1,30,0,0
14842,-100,4,2,1,50,0,0
18534,-100,4,2,1,45,0,0
18880,-100,4,2,1,40,0,0
19226,-100,4,2,1,30,0,0
19573,-100,4,2,1,25,0,0
19919,-100,4,2,1,20,0,0
22226,-100,4,2,1,50,0,0
27073,-100,4,2,1,45,0,0
27419,-100,4,2,1,40,0,0
27765,-100,4,2,1,30,0,0
28111,-100,4,2,1,25,0,0
28457,-100,4,2,1,20,0,0
29611,-100,4,2,1,50,0,0
33303,-100,4,2,1,45,0,0
33649,-100,4,2,1,40,0,0
33996,-100,4,2,1,30,0,0
34342,-100,4,2,1,25,0,0
34688,-100,4,2,1,20,0,0
36996,-100,4,2,1,50,0,0
41842,-100,4,2,1,45,0,0
42188,-100,4,2,1,40,0,0
42534,-100,4,2,1,30,0,0
42880,-100,4,2,1,25,0,0
43226,-100,4,2,1,20,0,0
44380,-100,4,2,1,55,0,0
49919,-100,4,2,1,35,0,0
51765,-100,4,2,1,55,0,0
57303,-100,4,2,1,65,0,0
59149,-100,4,2,1,20,0,0
59380,-100,4,2,1,25,0,0
59611,-100,4,2,1,30,0,0
59842,-100,4,2,1,35,0,0
60073,-100,4,2,1,38,0,0
60303,-100,4,2,1,41,0,0
60534,-100,4,2,1,44,0,0
60765,-100,4,2,1,47,0,0
62842,-100,4,2,1,50,0,0
64688,-100,4,2,1,75,0,1
78073,-100,4,2,1,50,0,1
79226,-100,4,2,1,75,0,1
86842,-100,4,2,1,50,0,0
100226,-100,4,2,1,40,0,0
100573,-100,4,2,1,30,0,0
100919,-100,4,2,1,20,0,0
101149,-100,4,2,1,10,0,0

[Colours]
Combo1 : 193,39,45
Combo2 : 253,185,19
Combo3 : 0,106,68

[HitObjects]
72,52,73,5,0,0:0:0:0:
132,120,303,1,0,0:0:0:0:
192,52,534,1,2,0:0:0:0:
252,120,765,1,0,0:0:0:0:
312,52,996,1,0,0:0:0:0:
372,120,1226,1,0,0:0:0:0:
436,52,1457,2,0,L|504:52,1,65,2|0,0:0|0:0,0:0:0:0:
472,140,1919,6,0,P|476:164|460:220,2,65,0|0|2,0:0|0:0|0:0,0:0:0:0:
436,52,2611,1,0,0:0:0:0:
372,120,2842,2,0,L|320:184,1,65
279,247,3303,2,0,L|343:311,1,65,2|0,0:0|0:0,0:0:0:0:
388,360,3765,5,0,0:0:0:0:
325,293,3996,1,0,0:0:0:0:
264,360,4226,2,0,L|196:360,1,65,2|0,0:0|0:0,0:0:0:0:
184,268,4688,2,0,P|152:232|112:228,1,65
80,300,5149,2,0,P|44:268|40:228,1,65,2|0,0:0|0:0,0:0:0:0:
8,168,5611,5,0,0:0:0:0:
68,96,5842,1,0,0:0:0:0:
140,152,6073,1,2,0:0:0:0:
196,80,6303,1,0,0:0:0:0:
264,140,6534,2,0,P|296:144|332:164,2,65,0|0|2,0:0|0:0|0:0,0:0:0:0:
196,80,7226,1,0,0:0:0:0:
140,152,7457,6,0,L|140:232,1,65
140,308,7919,2,0,L|228:280,1,65,2|0,0:0|0:0,0:0:0:0:
288,260,8380,1,0,0:0:0:0:
324,176,8611,1,0,0:0:0:0:
360,92,8842,2,0,L|392:20,1,65,2|0,0:0|0:0,0:0:0:0:
452,96,9303,6,0,P|500:156|500:168,2,65,0|0|2,0:0|0:0|0:0,0:0:0:0:
386,32,9996,1,0,0:0:0:0:
296,36,10226,1,0,0:0:0:0:
228,96,10457,1,0,0:0:0:0:
228,188,10688,2,0,L|228:292,1,65,2|0,0:0|0:0,0:0:0:0:
144,288,11149,6,0,P|162:320|203:336,2,65,0|0|2,0:0|0:0|0:0,0:0:0:0:
228,253,11842,1,0,0:0:0:0:
312,288,12073,2,0,P|293:320|252:336,2,65,0|0|2,0:0|0:0|0:0,0:0:0:0:
300,196,12765,1,0,0:0:0:0:
300,104,12996,6,0,L|204:140,1,65
164,180,13457,2,0,L|148:268,1,65,2|0,0:0|0:0,0:0:0:0:
212,316,13919,2,0,L|312:316,1,65
340,248,14380,2,0,L|348:184,1,65,2|0,0:0|0:0,0:0:0:0:
404,112,14842,6,0,P|357:91|295:118,1,97.5
236,216,15534,1,2,0:0:0:0:
184,292,15765,2,0,P|137:312|75:285,1,97.5
132,172,16457,1,2,0:0:0:0:
92,92,16688,2,0,P|144:80|200:116,2,97.5
68,272,17842,2,0,L|60:340,1,65
240,356,18534,5,0,0:0:0:0:
164,244,18880,1,0,0:0:0:0:
224,120,19226,1,0,0:0:0:0:
300,236,19573,1,0,0:0:0:0:
164,244,19919,1,0,0:0:0:0:
240,356,20265,1,0,0:0:0:0:
300,236,20611,1,0,0:0:0:0:
164,244,20957,1,0,0:0:0:0:
224,120,21303,1,0,0:0:0:0:
404,96,21765,1,0,0:0:0:0:
224,120,22226,6,0,P|176:112|112:140,1,97.5
60,244,22919,1,2,0:0:0:0:
80,332,23149,2,0,P|126:347|193:329,1,97.5
288,268,23842,1,2,0:0:0:0:
376,296,24073,2,0,P|345:196|248:184,1,195
92,224,25226,1,2,0:0:0:0:
144,60,25919,5,0,0:0:0:0:
416,60,26611,1,0,0:0:0:0:
344,228,27073,1,0,0:0:0:0:
208,228,27419,1,0,0:0:0:0:
276,344,27765,1,0,0:0:0:0:
344,228,28111,1,0,0:0:0:0:
276,108,28457,1,0,0:0:0:0:
208,228,29149,1,0,0:0:0:0:
341,108,29611,6,0,L|264:108,1,65
184,108,30073,1,2,0:0:0:0:
104,152,30303,1,0,0:0:0:0:
104,244,30534,2,0,P|124:308|168:332,1,97.5
280,360,31226,1,2,0:0:0:0:
364,324,31457,2,0,P|420:272|420:200,1,130
416,132,32149,1,0,0:0:0:0:
232,132,32611,1,2,0:0:0:0:
192,212,32842,2,0,L|160:276,1,65
248,300,33303,5,0,0:0:0:0:
303,176,33649,1,0,0:0:0:0:
439,163,33995,1,0,0:0:0:0:
381,288,34342,1,0,0:0:0:0:
303,176,34688,1,0,0:0:0:0:
248,300,35034,1,0,0:0:0:0:
381,288,35380,1,0,0:0:0:0:
303,176,35726,1,0,0:0:0:0:
439,163,36072,1,0,0:0:0:0:
264,108,36534,1,0,0:0:0:0:
176,124,36996,6,0,P|120:148|76:196,1,97.5
36,296,37688,1,2,0:0:0:0:
112,348,37919,2,0,L|184:348,1,65
252,296,38380,1,2,0:0:0:0:
340,316,38611,2,0,P|332:252|284:208,1,130
104,208,39534,1,2,0:0:0:0:
144,128,39765,2,0,L|180:64,1,65
264,100,40226,2,0,L|388:148,1,130
385,146,41380,5,2,0:0:0:0:
220,220,41842,2,0,L|128:260,1,97.5
8,316,42534,1,0,0:0:0:0:
130,258,42880,1,0,0:0:0:0:
116,124,43226,1,0,0:0:0:0:
388,124,43919,1,0,0:0:0:0:
332,296,44380,6,0,P|265:335|177:274,1,195
260,240,45303,1,2,0:0:0:0:
344,208,46226,2,0,P|274:146|189:183,1,195
260,240,47149,1,2,0:0:0:0:
80,216,47611,1,2,0:0:0:0:
192,72,48073,6,0,L|260:36,1,65,2|0,0:0|0:0,0:0:0:0:
268,84,48419,2,0,L|336:48,1,65,2|0,0:0|0:0,0:0:0:0:
368,32,48765,1,2,0:0:0:0:
428,100,48996,1,2,0:0:0:0:
428,100,49919,6,0,L|264:244,1,195
281,228,51303,1,0,0:0:0:0:
208,60,51765,6,0,P|111:94|113:198,1,195
100,175,52688,1,2,0:0:0:0:
148,276,53611,2,0,P|272:276|360:256,1,195
341,261,54534,1,2,0:0:0:0:
512,196,54996,1,2,0:0:0:0:
352,108,55457,6,0,L|275:103,1,65,2|0,0:0|0:0,0:0:0:0:
292,58,55803,2,0,L|215:53,1,65,2|0,0:0|0:0,0:0:0:0:
180,51,56149,1,2,0:0:0:0:
88,48,56380,1,2,0:0:0:0:
88,48,57303,6,0,L|204:224,1,195
195,210,58688,1,0,0:0:0:0:
372,248,59149,5,0,0:0:0:0:
283,229,59380,1,0,0:0:0:0:
195,211,59611,1,0,0:0:0:0:
189,119,59842,1,0,0:0:0:0:
278,137,60073,1,0,0:0:0:0:
366,160,60303,1,0,0:0:0:0:
372,248,60534,1,0,0:0:0:0:
283,229,60765,1,0,0:0:0:0:
256,192,60996,12,0,63765,0:0:0:0:
256,192,64226,5,2,0:0:0:0:
388,68,64688,6,0,P|416:89|433:132,2,65,6|0|2,0:0|0:0|0:0,0:0:0:0:
300,40,65380,1,0,0:0:0:0:
236,104,65611,1,2,0:0:0:0:
256,192,65842,1,2,0:0:0:0:
328,244,66073,2,0,L|384:284,1,65,2|2,0:0|0:0,0:0:0:0:
300,324,66534,6,0,L|204:324,1,65,2|0,0:0|0:0,0:0:0:0:
144,324,66996,1,2,0:0:0:0:
52,320,67226,2,0,P|16:280|12:260,2,65,2|2|2,0:0|0:0|0:0,0:0:0:0:
144,324,67919,2,0,L|144:244,1,65,2|2,0:0|0:0,0:0:0:0:
144,168,68380,5,2,0:0:0:0:
236,168,68611,1,0,0:0:0:0:
328,168,68842,1,2,0:0:0:0:
416,196,69073,2,0,P|422:153|412:127,2,65,2|2|2,0:0|0:0|0:0,0:0:0:0:
364,272,69765,2,0,L|312:340,1,65,2|2,0:0|0:0,0:0:0:0:
236,340,70226,6,0,L|144:340,1,65,2|0,0:0|0:0,0:0:0:0:
80,340,70688,1,2,0:0:0:0:
80,248,70919,2,0,L|80:156,1,65,2|2,0:0|0:0,0:0:0:0:
80,92,71380,1,2,0:0:0:0:
172,92,71611,2,0,L|237:92,1,65,2|2,0:0|0:0,0:0:0:0:
324,64,72073,6,0,P|328:93|320:132,1,65,2|0,0:0|0:0,0:0:0:0:
237,92,72534,1,2,0:0:0:0:
236,184,72765,2,0,L|236:256,1,65,2|2,0:0|0:0,0:0:0:0:
204,336,73226,2,0,P|240:343|271:334,1,65,2|2,0:0|0:0,0:0:0:0:
236,249,73688,1,2,0:0:0:0:
144,252,73919,6,0,L|64:252,2,65,2|0|2,0:0|0:0|0:0,0:0:0:0:
236,249,74611,1,2,0:0:0:0:
328,248,74842,2,0,L|400:248,1,65,2|2,0:0|0:0,0:0:0:0:
476,212,75303,2,0,P|484:244|468:292,1,65,2|2,0:0|0:0,0:0:0:0:
393,248,75765,6,0,L|393:172,1,65,2|0,0:0|0:0,0:0:0:0:
392,92,76226,1,2,0:0:0:0:
308,56,76457,2,0,P|272:52|224:64,1,65,2|2,0:0|0:0,0:0:0:0:
192,132,76919,2,0,L|152:188,2,65,2|2|2,0:0|0:0|0:0,0:0:0:0:
243,56,77611,6,0,L|172:40,1,65
92,20,78073,1,10,0:0:0:0:
40,196,78534,1,10,0:0:0:0:
92,372,78996,1,10,0:0:0:0:
272,372,79457,6,0,L|360:372,1,65
428,372,79919,1,0,0:0:0:0:
428,280,80149,1,0,0:0:0:0:
428,188,80380,2,0,L|428:152,2,32.5,2|2|0,0:0|0:0|0:0,0:0:0:0:
428,280,80842,2,0,L|340:280,1,65
272,280,81303,6,0,L|204:280,2,65
363,280,81996,1,0,0:0:0:0:
360,188,82226,2,0,L|356:148,1,32.5,2|0,0:0|0:0,0:0:0:0:
352,112,82457,2,0,L|344:64,1,32.5,2|0,0:0|0:0,0:0:0:0:
316,44,82688,2,0,P|285:24|240:20,1,65,2|0,0:0|0:0,0:0:0:0:
168,28,83149,5,0,0:0:0:0:
104,92,83380,1,0,0:0:0:0:
76,180,83611,2,0,L|52:260,1,65
64,332,84073,2,0,L|141:364,1,65,2|0,0:0|0:0,0:0:0:0:
216,348,84534,2,0,L|278:292,1,65,2|0,0:0|0:0,0:0:0:0:
337,242,84996,6,0,L|369:210,1,32.5,2|0,0:0|0:0,0:0:0:0:
392,188,85226,2,0,L|392:136,1,32.5,2|2,0:0|0:0,0:0:0:0:
380,112,85457,2,0,L|356:72,1,32.5
328,56,85688,2,0,L|288:44,1,32.5,2|2,0:0|0:0,0:0:0:0:
252,44,85919,2,0,L|208:48,6,32.5,2|0|2|0|2|0|2,0:0|0:0|0:0|0:0|0:0|0:0|0:0,0:0:0:0:
236,132,86842,6,0,L|204:204,1,65
176,276,87303,1,2,0:0:0:0:
108,336,87534,2,0,P|136:360|189:362,2,65
80,248,88226,2,0,L|80:168,1,65,2|0,0:0|0:0,0:0:0:0:
80,92,88688,5,0,0:0:0:0:
160,40,88919,1,0,0:0:0:0:
236,92,89149,1,2,0:0:0:0:
240,184,89380,2,0,L|244:256,1,65
256,340,89842,1,0,0:0:0:0:
344,324,90073,2,0,L|412:316,1,65,2|0,0:0|0:0,0:0:0:0:
500,308,90534,5,0,0:0:0:0:
492,216,90765,2,0,L|488:132,2,65,0|2|0,0:0|0:0|0:0,0:0:0:0:
500,308,91457,1,0,0:0:0:0:
408,316,91688,1,0,0:0:0:0:
316,324,91919,2,0,L|220:332,1,65,2|0,0:0|0:0,0:0:0:0:
160,324,92380,6,0,L|84:292,1,65
16,260,92842,2,0,L|16:172,1,65,2|0,0:0|0:0,0:0:0:0:
16,104,93303,2,0,L|104:72,1,65
164,56,93765,2,0,L|208:136,1,65,2|0,0:0|0:0,0:0:0:0:
236,192,94226,5,0,0:0:0:0:
276,272,94457,1,0,0:0:0:0:
276,364,94688,2,0,P|317:356|342:339,1,65,2|0,0:0|0:0,0:0:0:0:
404,284,95149,2,0,L|468:216,2,65,0|0|2,0:0|0:0|0:0,0:0:0:0:
336,344,95842,1,0,0:0:0:0:
320,256,96073,6,0,L|252:188,1,65
216,140,96534,1,2,0:0:0:0:
152,76,96765,2,0,L|84:8,2,65
216,140,97457,2,0,L|148:204,1,65,2|0,0:0|0:0,0:0:0:0:
80,200,97919,6,0,P|112:256|192:272,1,130,0|2,0:0|0:0,0:0:0:0:
264,272,98611,1,0,0:0:0:0:
348,240,98842,2,0,L|424:204,2,65,0|0|2,0:0|0:0|0:0,0:0:0:0:
264,272,99534,1,0,0:0:0:0:
264,180,99765,6,0,L|264:92,1,65
264,24,100226,1,2,0:0:0:0:
356,28,100457,2,0,P|401:43|424:64,2,65
264,24,101149,2,0,L|168:24,1,65,2|0,0:0|0:0,0:0:0:0:
