osu file format v14

[General]
AudioFilename: audio.mp3
AudioLeadIn: 0
PreviewTime: 21783
Countdown: 0
SampleSet: Soft
StackLeniency: 0.4
Mode: 0
LetterboxInBreaks: 0
WidescreenStoryboard: 1

[Editor]
DistanceSpacing: 1
BeatDivisor: 2
GridSize: 16
TimelineZoom: 1.6

[Metadata]
Title:We're Not Forever
TitleUnicode:We're Not Forever
Artist:Effie
ArtistUnicode:Effie
Creator:Nabori
Version:Normal
Source:
Tags:에피 ggm records nejdos trap korean k hip hop kpop pop rap sound cloud single we are k-pop english
BeatmapID:3402137
BeatmapSetID:1648727

[Difficulty]
HPDrainRate:4
CircleSize:3.5
OverallDifficulty:4
ApproachRate:6
SliderMultiplier:2
SliderTickRate:1

[Events]
//Background and Video events
0,0,"bg.jpg",0,0
//Break Periods
2,67625,71670
//Storyboard Layer 0 (Background)
//Storyboard Layer 1 (Fail)
//Storyboard Layer 2 (Pass)
//Storyboard Layer 3 (Foreground)
//Storyboard Layer 4 (Overlay)
//Storyboard Sound Samples

[TimingPoints]
210,674.157303370787,4,2,1,90,1,0
21783,-100,4,2,1,90,0,1
22457,-100,4,2,1,90,0,0
24479,-100,4,2,2,90,0,1
25153,-100,4,2,2,90,0,0
27176,-100,4,2,3,90,0,0
29872,-100,4,2,4,90,0,1
30547,-100,4,2,4,90,0,0
32569,-100,4,2,1,90,0,1
33243,-100,4,2,1,90,0,0
35266,-100,4,2,2,90,0,1
35771,-100,4,2,2,90,0,0
35940,-100,4,2,2,90,0,1
36193,-100,4,2,2,90,0,0
36277,-100,4,2,2,90,0,1
36951,-100,4,2,2,90,0,0
37625,-100,4,2,2,90,0,1
37878,-100,4,2,2,90,0,0
37962,-100,4,2,3,90,0,1
38636,-100,4,2,3,90,0,0
40658,-100,4,2,4,90,0,0
44704,-100,4,2,4,35,0,0
46052,-100,4,2,2,90,0,0
48749,-100,4,2,3,90,0,0
51445,-100,4,2,4,90,0,0
54142,-100,4,2,1,90,0,0
56839,-100,4,2,2,90,0,0
59535,-100,4,2,3,90,0,0
62232,-100,4,2,4,90,0,0
67288,-100,4,2,4,35,0,0
78075,-100,4,2,1,90,0,0
78412,-100,4,2,2,90,0,1
79086,-100,4,2,2,90,0,0
81109,-100,4,2,3,90,0,0
83805,-100,4,2,4,90,0,1
84479,-100,4,2,4,90,0,0
86502,-100,4,2,1,90,0,1
87176,-100,4,2,1,90,0,0
89198,-100,4,2,2,90,0,1
89704,-100,4,2,2,90,0,0
89872,-100,4,2,2,90,0,1
90125,-100,4,2,2,90,0,0
90210,-100,4,2,2,90,0,1
90884,-100,4,2,2,90,0,0
91558,-100,4,2,2,90,0,1
91811,-100,4,2,2,90,0,0
91895,-100,4,2,3,90,0,1
92569,-100,4,2,3,90,0,0

[Colours]
Combo1 : 155,155,155
Combo2 : 75,75,75

[HitObjects]
374,62,21783,5,4,3:2:0:0:
374,62,22457,2,0,P|324:72|276:84,1,100,2|2,0:0|0:0,0:0:0:0:
198,146,23131,1,2,0:0:0:0:
106,106,23468,2,0,P|92:154|81:203,1,100,2|10,3:2|0:0,0:0:0:0:
109,299,24142,1,2,3:2:0:0:
203,267,24479,2,0,B|243:258|262:298|262:298|285:342|325:332,1,150,2|0,3:2|3:0,0:0:0:0:
372,320,25153,1,10,0:0:0:0:
471,318,25490,6,0,B|466:292|444:273|444:273|425:222|458:176,1,150,2|8,3:2|0:0,0:0:0:0:
490,145,26165,2,0,B|464:139|445:118|445:118|394:98|348:131,1,150,2|0,0:0|0:0,0:0:0:0:
315,162,26839,1,2,3:2:0:0:
222,124,27176,1,4,3:2:0:0:
96,279,27850,6,0,P|52:301|4:289,2,100,10|2|2,0:0|3:2|0:0,0:0:0:0:
42,195,28861,1,2,3:2:0:0:
102,115,29198,1,10,0:0:0:0:
196,148,29535,1,2,3:2:0:0:
195,248,29872,2,0,P|265:262|328:212,1,150,2|0,3:2|3:0,0:0:0:0:
346,172,30547,5,10,0:0:0:0:
444,193,30884,2,0,B|457:175|472:156|472:156|456:112|436:57,1,150,2|8,3:2|0:0,0:0:0:0:
393,34,31558,2,0,B|348:54|348:54|298:44,1,100,2|8,3:2|0:0,0:0:0:0:
255,32,32063,1,0,3:0:0:0:
255,32,32232,2,0,B|206:20|206:20|159:40,1,100,2|4,3:2|3:2,0:0:0:0:
45,202,33243,6,0,P|61:245|76:296,1,100,10|2,0:0|0:0,0:0:0:0:
134,378,33917,1,2,0:0:0:0:
199,302,34254,2,0,P|213:254|231:207,2,100,2|10|2,3:2|0:0|3:2,0:0:0:0:
281,360,35266,2,0,P|350:378|412:332,1,150,2|0,3:2|3:0,0:0:0:0:
434,292,35940,5,10,0:0:0:0:
374,212,36277,2,0,B|345:205|317:197|317:197|302:114|359:68,1,200,2|2,3:2|0:0,0:0:0:0:
429,0,37288,1,10,0:0:0:0:
503,67,37625,1,2,3:2:0:0:
432,137,37962,2,0,P|446:183|458:237,2,100,6|2|8,3:2|0:0|0:0,0:0:0:0:
366,61,38974,5,2,3:2:0:0:
299,135,39311,2,0,P|274:140|247:145,1,50,2|8,0:0|0:0,0:0:0:0:
205,122,39648,1,2,3:2:0:0:
122,177,39985,1,10,0:0:0:0:
22,168,40322,2,0,P|39:121|18:77,2,100,2|0|2,3:2|3:0|0:0,0:0:0:0:
45,212,41165,2,0,P|39:235|32:266,1,50,0|8,3:0|0:0,0:0:0:0:
58,357,41670,5,2,3:2:0:0:
145,307,42007,2,0,P|194:313|246:323,1,100,2|0,0:0|3:0,0:0:0:0:
335,363,42681,2,0,P|358:355|382:348,1,50,10|0,0:0|3:0,0:0:0:0:
431,336,43019,2,0,B|439:283|390:248|390:248|364:202|388:155,1,200,2|0,3:2|0:0,0:0:0:0:
226,30,46052,6,0,B|178:34|127:39|127:39|119:66|93:80,2,150,2|0|2,3:2|3:0|3:2,0:0:0:0:
319,90,47401,1,2,0:0:0:0:
319,90,47569,1,2,0:0:0:0:
319,90,47738,1,2,0:0:0:0:
404,37,48075,1,10,0:0:0:0:
487,92,48412,2,0,P|477:114|468:139,1,50,2|2,3:2|0:0,0:0:0:0:
432,172,48749,2,0,P|451:215|467:265,1,100,2|2,3:2|0:0,0:0:0:0:
437,360,49423,1,10,0:0:0:0:
343,325,49760,1,2,3:2:0:0:
257,376,50097,6,0,P|231:369|203:360,1,50,2|2,0:0|0:0,0:0:0:0:
159,366,50434,2,0,P|165:317|139:276,1,100,2|10,3:2|0:0,0:0:0:0:
80,195,51108,2,0,P|86:172|96:148,1,50,2|2,3:2|0:0,0:0:0:0:
126,108,51445,2,0,B|170:127|170:127|224:111,1,100,2|2,3:2|0:0,0:0:0:0:
270,96,51951,1,0,3:0:0:0:
270,96,52120,1,8,0:0:0:0:
349,35,52457,2,0,B|390:57|385:116|385:116|334:151|351:214,1,200,2|2,3:2|3:2,0:0:0:0:
402,293,53468,1,10,0:0:0:0:
218,373,54142,6,0,P|179:344|126:351,1,100,6|2,3:2|0:0,0:0:0:0:
87,371,54648,1,2,0:0:0:0:
87,371,54816,2,0,P|76:320|57:274,1,100,10|2,0:0|0:0,0:0:0:0:
91,78,55827,6,0,P|142:85|183:59,2,100,2|10|2,3:2|0:0|3:2,0:0:0:0:
47,66,56670,1,10,0:0:0:0:
47,66,56838,2,0,P|65:112|76:161,1,100,2|2,3:2|0:0,0:0:0:0:
115,201,57344,1,2,3:2:0:0:
115,201,57512,2,0,P|161:182|210:171,2,100,10|2|0,0:0|3:2|0:0,0:0:0:0:
211,323,58693,5,2,0:0:0:0:
211,323,58861,2,0,P|234:314|266:305,1,50,10|2,0:0|0:0,0:0:0:0:
305,325,59198,2,0,P|328:334|360:343,1,50,2|0,3:2|0:0,0:0:0:0:
401,351,59535,2,0,P|382:306|399:260,1,100,2|2,3:2|0:0,0:0:0:0:
427,220,60041,1,2,0:0:0:0:
427,220,60210,2,0,P|446:175|429:129,1,100,10|2,0:0|3:2,0:0:0:0:
254,31,61221,6,0,B|205:20|205:20|160:45,2,100,2|10|2,3:2|0:0|3:2,0:0:0:0:
316,109,62232,2,0,P|305:156|298:213,1,100,2|2,3:2|0:0,0:0:0:0:
338,246,62738,1,2,3:2:0:0:
338,246,62906,2,0,P|349:293|356:350,1,100,8|2,0:0|3:2,0:0:0:0:
264,384,63580,1,2,0:0:0:0:
177,335,63917,1,0,3:0:0:0:
81,363,64254,2,0,P|74:341|63:316,1,50,10|0,0:0|3:0,0:0:0:0:
33,276,64592,2,0,P|39:226|50:177,1,100,2|4,3:2|0:0,0:0:0:0:
256,192,73356,12,4,75715,0:0:0:0:
160,64,78075,5,2,3:2:0:0:
65,33,78412,2,0,B|32:66|32:66|62:164,1,150,2|0,3:2|3:0,0:0:0:0:
82,211,79086,1,10,0:0:0:0:
137,294,79423,6,0,B|176:272|180:234|180:234|205:261|246:257,1,150,2|8,3:2|0:0,0:0:0:0:
293,238,80097,2,0,B|322:207|375:224|375:224|390:253|423:262,1,150,2|0,0:0|0:0,0:0:0:0:
471,274,80772,1,2,3:2:0:0:
512,183,81109,1,4,3:2:0:0:
334,93,81783,6,0,B|319:45|319:45|341:-1,2,100,10|2|2,0:0|3:2|0:0,0:0:0:0:
426,54,82794,1,2,3:2:0:0:
494,127,83131,1,10,0:0:0:0:
445,214,83468,1,2,3:2:0:0:
347,195,83805,2,0,B|321:263|321:263|346:336,1,150,2|0,3:2|3:0,0:0:0:0:
368,382,84480,5,10,0:0:0:0:
456,336,84816,2,0,B|480:263|480:263|455:194,1,150,2|8,3:2|0:0,0:0:0:0:
432,150,85491,2,0,B|387:170|387:170|337:160,1,100,2|8,3:2|0:0,0:0:0:0:
252,107,86165,1,8,0:0:0:0:
164,154,86502,1,4,3:2:0:0:
309,17,87176,6,0,P|352:38|377:85,1,100,10|2,0:0|0:0,0:0:0:0:
328,169,87850,1,2,0:0:0:0:
231,143,88187,2,0,P|217:95|233:49,2,100,2|10|2,3:2|0:0|3:2,0:0:0:0:
305,210,89199,2,0,P|236:192|174:238,1,150,2|0,3:2|3:0,0:0:0:0:
152,278,89873,5,10,0:0:0:0:
61,236,90210,2,0,B|27:188|61:140|61:140|96:96|60:46,1,200,2|2,3:2|0:0,0:0:0:0:
149,0,91221,1,10,0:0:0:0:
229,60,91558,1,2,3:2:0:0:
323,26,91895,2,0,P|337:72|349:126,2,100,6|2|8,3:2|0:0|0:0,0:0:0:0:
420,0,92907,5,2,3:2:0:0:
482,78,93244,2,0,P|476:102|472:130,1,50,2|8,0:0|0:0,0:0:0:0:
492,173,93580,1,2,3:2:0:0:
450,264,93917,1,10,0:0:0:0:
358,223,94254,2,0,P|345:175|329:125,2,100,2|0|2,3:2|3:0|0:0,0:0:0:0:
324,260,95098,2,0,P|319:282|313:309,1,50,0|8,3:0|0:0,0:0:0:0:
232,368,95603,5,2,3:2:0:0:
142,324,95940,2,0,P|151:276|166:224,1,100,2|0,0:0|3:0,0:0:0:0:
140,131,96614,2,0,P|119:123|93:116,1,50,10|0,0:0|3:0,0:0:0:0:
45,99,96952,6,0,B|27:117|7:137|7:137|31:201|58:274,1,200,2|0,3:2|0:0,0:0:0:0:
