osu file format v14

[General]
AudioFilename: audio.mp3
AudioLeadIn: 0
PreviewTime: 21783
Countdown: 0
SampleSet: Soft
StackLeniency: 0.4
Mode: 0
LetterboxInBreaks: 0
WidescreenStoryboard: 1

[Editor]
DistanceSpacing: 1.2
BeatDivisor: 4
GridSize: 16
TimelineZoom: 1.6

[Metadata]
Title:We're Not Forever
TitleUnicode:We're Not Forever
Artist:Effie
ArtistUnicode:Effie
Creator:Nabori
Version:Hard
Source:
Tags:에피 ggm records nejdos trap korean k hip hop kpop pop rap sound cloud single we are k-pop english
BeatmapID:3410894
BeatmapSetID:1648727

[Difficulty]
HPDrainRate:5
CircleSize:4
OverallDifficulty:6
ApproachRate:7.5
SliderMultiplier:2.6
SliderTickRate:1

[Events]
//Background and Video events
0,0,"bg.jpg",0,0
//Break Periods
2,67625,72344
//Storyboard Layer 0 (Background)
//Storyboard Layer 1 (Fail)
//Storyboard Layer 2 (Pass)
//Storyboard Layer 3 (Foreground)
//Storyboard Layer 4 (Overlay)
//Storyboard Sound Samples

[TimingPoints]
210,674.157303370787,4,2,1,90,1,0
21445,-100,4,2,1,35,0,0
21783,-100,4,2,1,90,0,1
22372,-100,4,2,1,90,0,0
23131,-83.3333333333333,4,2,1,90,0,0
23721,-83.3333333333333,4,2,1,5,0,0
23805,-83.3333333333333,4,2,1,90,0,0
24058,-83.3333333333333,4,2,1,5,0,0
24142,-83.3333333333333,4,2,1,90,0,0
24395,-83.3333333333333,4,2,1,5,0,0
24479,-83.3333333333333,4,2,2,90,0,1
24985,-83.3333333333333,4,2,2,90,0,0
27176,-83.3333333333333,4,2,3,90,0,0
28440,-83.3333333333333,4,2,3,5,0,0
28524,-83.3333333333333,4,2,3,90,0,0
29872,-83.3333333333333,4,2,4,90,0,1
30210,-83.3333333333333,4,2,4,90,0,0
31474,-83.3333333333333,4,2,4,5,0,0
31558,-83.3333333333333,4,2,4,90,0,0
32148,-83.3333333333333,4,2,4,5,0,0
32232,-83.3333333333333,4,2,4,90,0,0
32485,-83.3333333333333,4,2,4,5,0,0
32569,-83.3333333333333,4,2,1,90,0,1
33243,-83.3333333333333,4,2,1,90,0,0
34507,-83.3333333333333,4,2,1,5,0,0
34592,-83.3333333333333,4,2,1,90,0,0
34844,-83.3333333333333,4,2,1,5,0,0
34929,-83.3333333333333,4,2,1,90,0,0
35181,-83.3333333333333,4,2,1,5,0,0
35266,-83.3333333333333,4,2,2,90,0,1
35771,-83.3333333333333,4,2,2,90,0,0
35940,-83.3333333333333,4,2,2,90,0,1
36193,-83.3333333333333,4,2,2,90,0,0
36277,-83.3333333333333,4,2,2,90,0,1
36783,-83.3333333333333,4,2,2,90,0,0
37541,-83.3333333333333,4,2,2,5,0,0
37625,-83.3333333333333,4,2,2,90,0,1
37878,-83.3333333333333,4,2,2,90,0,0
37962,-83.3333333333333,4,2,3,90,0,1
38636,-83.3333333333333,4,2,3,90,0,0
40238,-83.3333333333333,4,2,3,5,0,0
40322,-83.3333333333333,4,2,3,90,0,0
40658,-83.3333333333333,4,2,4,90,0,0
43018,-133.333333333333,4,2,4,90,0,0
44704,-133.333333333333,4,2,4,35,0,0
46052,-100,4,2,2,90,0,0
48749,-100,4,2,3,90,0,0
51445,-100,4,2,4,90,0,0
53047,-100,4,2,4,5,0,0
53131,-100,4,2,4,90,0,0
54058,-100,4,2,4,5,0,0
54142,-100,4,2,1,90,0,1
54479,-100,4,2,1,90,0,0
55069,-100,4,2,1,5,0,0
55153,-100,4,2,1,90,0,0
56839,-100,4,2,2,90,0,1
57176,-100,4,2,2,90,0,0
59535,-100,4,2,3,90,0,1
59872,-100,4,2,3,90,0,0
62232,-100,4,2,4,90,0,1
62569,-100,4,2,4,90,0,0
63580,-100,4,2,4,90,0,1
63917,-100,4,2,4,90,0,0
67288,-100,4,2,4,35,0,0
76389,-133.333333333333,4,2,4,65,0,0
77401,-83.3333333333333,4,2,4,65,0,0
78075,-83.3333333333333,4,2,1,90,0,0
78327,-83.3333333333333,4,2,1,5,0,0
78412,-83.3333333333333,4,2,2,90,0,1
78917,-83.3333333333333,4,2,2,90,0,0
81108,-83.3333333333333,4,2,3,90,0,0
82372,-83.3333333333333,4,2,3,5,0,0
82457,-83.3333333333333,4,2,3,90,0,0
83805,-83.3333333333333,4,2,4,90,0,1
84311,-83.3333333333333,4,2,4,90,0,0
85406,-83.3333333333333,4,2,4,5,0,0
85490,-83.3333333333333,4,2,4,90,0,0
85743,-83.3333333333333,4,2,4,5,0,0
85827,-83.3333333333333,4,2,4,90,0,0
86502,-83.3333333333333,4,2,1,90,0,1
87176,-83.3333333333333,4,2,1,90,0,0
88440,-83.3333333333333,4,2,1,5,0,0
88524,-83.3333333333333,4,2,1,90,0,0
88777,-83.3333333333333,4,2,1,5,0,0
88861,-83.3333333333333,4,2,1,90,0,0
89114,-83.3333333333333,4,2,1,5,0,0
89198,-83.3333333333333,4,2,2,90,0,1
89535,-83.3333333333333,4,2,2,90,0,0
89872,-83.3333333333333,4,2,2,90,0,1
90041,-83.3333333333333,4,2,2,90,0,0
90210,-83.3333333333333,4,2,2,90,0,1
90884,-83.3333333333333,4,2,2,90,0,0
91474,-83.3333333333333,4,2,2,5,0,0
91558,-83.3333333333333,4,2,2,90,0,1
91811,-83.3333333333333,4,2,2,90,0,0
91895,-83.3333333333333,4,2,3,90,0,1
92569,-83.3333333333333,4,2,3,90,0,0
94170,-83.3333333333333,4,2,3,5,0,0
94254,-83.3333333333333,4,2,3,90,0,0
94592,-83.3333333333333,4,2,4,90,0,0
96951,-133.333333333333,4,2,4,90,0,1
97625,-133.333333333333,4,2,4,35,0,0

[Colours]
Combo1 : 155,155,155
Combo2 : 75,75,75

[HitObjects]
256,192,20097,12,0,21445,0:0:0:0:
311,101,21783,5,4,3:2:0:0:
311,101,22457,5,2,0:0:0:0:
430,0,22794,1,2,0:0:0:0:
458,154,23131,1,2,0:0:0:0:
401,82,23299,1,8,0:0:0:0:
311,101,23468,6,0,B|252:117|252:117|201:95,1,116.999996429443,2|0,3:2|0:0,0:0:0:0:
202,87,23805,2,0,B|253:109|253:109|312:93,1,116.999996429443,10|0,0:0|0:0,0:0:0:0:
313,85,24142,2,0,B|254:101|254:101|203:79,1,116.999996429443,2|0,3:2|0:0,0:0:0:0:
138,31,24479,6,0,B|171:69|171:69|137:179,1,155.999995239258,2|0,3:2|0:0,0:0:0:0:
78,241,24985,1,0,3:0:0:0:
78,241,25153,2,0,P|115:250|153:262,1,77.999997619629,10|0,0:0|0:0,0:0:0:0:
246,250,25490,2,0,B|182:222|138:283|155:293|110:364|48:330,1,233.999992858887,2|8,3:2|0:0,0:0:0:0:
78,241,26165,2,0,B|142:213|186:274|169:284|214:355|276:321,1,233.999992858887,2|0,0:0|0:0,0:0:0:0:
355,276,26839,6,0,P|368:313|361:356,1,77.999997619629,2|0,3:2|0:0,0:0:0:0:
415,236,27176,2,0,P|442:307|427:386,1,155.999995239258,4|0,3:2|0:0,0:0:0:0:
347,184,27850,6,0,P|375:159|416:150,1,77.999997619629,10|0,0:0|0:0,0:0:0:0:
507,149,28187,2,0,P|457:124|437:69,1,116.999996429443,2|0,3:2|0:0,0:0:0:0:
447,47,28524,1,2,0:0:0:0:
366,0,28693,1,8,0:0:0:0:
298,64,28861,2,0,P|260:51|223:40,1,77.999997619629,2|0,3:2|0:0,0:0:0:0:
265,207,29198,2,0,P|295:180|323:154,1,77.999997619629,10|0,0:0|0:0,0:0:0:0:
158,107,29535,2,0,P|165:146|174:183,1,77.999997619629,2|8,3:2|0:0,0:0:0:0:
298,64,29872,6,0,P|227:42|146:26,1,155.999995239258,2|0,3:2|0:0,0:0:0:0:
57,0,30378,1,0,3:0:0:0:
6,97,30547,6,0,P|44:89|81:79,1,77.999997619629,10|0,0:0|0:0,0:0:0:0:
147,26,30884,2,0,B|99:90|151:152|151:152|205:216|164:274,1,272.999991668701,2|0,3:2|0:0,0:0:0:0:
107,332,31558,2,0,P|174:290|243:324,1,155.999995239258,2|8,3:2|0:0,0:0:0:0:
329,345,32063,2,0,B|334:326|334:326|328:307,1,38.9999988098145,0|0,3:0|0:0,0:0:0:0:
391,267,32232,2,0,B|408:325|408:325|394:381,1,116.999996429443,2|0,3:2|0:0,0:0:0:0:
440,198,32569,6,0,B|377:188|377:188|349:202|349:202|287:192,1,155.999995239258,4|0,3:2|0:0,0:0:0:0:
106,154,33243,5,10,0:0:0:0:
132,0,33580,1,2,0:0:0:0:
252,100,33917,1,2,0:0:0:0:
161,78,34085,1,8,0:0:0:0:
106,154,34254,6,0,B|90:213|90:213|112:264,1,116.999996429443,2|0,3:2|0:0,0:0:0:0:
120,263,34591,2,0,B|98:212|98:212|114:153,1,116.999996429443,10|0,0:0|0:0,0:0:0:0:
122,152,34928,2,0,B|106:211|106:211|128:262,1,116.999996429443,2|0,3:2|0:0,0:0:0:0:
78,356,35265,6,0,B|114:323|167:340|167:340|183:367|218:373,1,155.999995239258,2|0,3:2|0:0,0:0:0:0:
365,283,35771,1,0,3:0:0:0:
365,283,35939,6,0,P|329:269|291:257,1,77.999997619629,10|0,0:0|0:0,0:0:0:0:
247,88,36277,2,0,B|288:143|243:197|243:197|196:252|232:302,1,233.999992858887,2|8,3:2|0:0,0:0:0:0:
290,374,36951,2,0,P|327:365|373:358,1,77.999997619629,2|0,0:0|0:0,0:0:0:0:
460,359,37288,2,0,B|435:334|435:334|457:254,1,116.999996429443,10|0,0:0|0:0,0:0:0:0:
512,181,37625,2,0,P|476:164|432:168,1,77.999997619629,2|0,3:2|0:0,0:0:0:0:
300,190,37962,6,0,B|378:160|334:109|419:81,2,155.999995239258,6|2|8,3:2|0:0|0:0,0:0:0:0:
135,101,38974,6,0,B|237:82|237:82|280:110,1,155.999995239258,2|2,3:2|0:0,0:0:0:0:
236,249,39479,1,8,0:0:0:0:
236,249,39648,2,0,P|225:211|215:174,1,77.999997619629,0|0,3:0|0:0,0:0:0:0:
135,101,39985,2,0,P|120:158|109:214,1,116.999996429443,10|0,0:0|0:0,0:0:0:0:
119,241,40322,1,2,3:2:0:0:
119,241,40490,1,8,0:0:0:0:
0,290,40659,2,0,B|33:282|33:282|101:337|101:337|143:328,1,155.999995239258,0|2,3:0|0:0,0:0:0:0:
229,309,41165,1,0,3:0:0:0:
229,309,41333,1,8,0:0:0:0:
393,219,41670,6,0,P|322:234|264:176,1,155.999995239258,2|2,3:2|0:0,0:0:0:0:
373,73,42176,1,8,0:0:0:0:
373,73,42344,2,0,P|358:109|344:150,1,77.999997619629,0|0,3:0|0:0,0:0:0:0:
393,219,42681,1,10,0:0:0:0:
344,292,42850,1,0,3:0:0:0:
406,355,43018,6,0,P|313:329|237:391,1,195.00000743866,2|0,3:2|0:0,0:0:0:0:
45,134,46052,6,0,B|85:118|111:147|105:152|131:184|169:167,1,130,2|2,3:2|0:0,0:0:0:0:
240,121,46558,1,0,3:0:0:0:
240,121,46726,2,0,P|250:152|259:184,1,65,8|0,0:0|0:0,0:0:0:0:
255,274,47063,1,2,3:2:0:0:
425,204,47401,5,2,0:0:0:0:
425,204,47569,1,2,0:0:0:0:
507,242,47738,2,0,P|497:273|491:305,1,65,2|0,0:0|0:0,0:0:0:0:
415,355,48075,2,0,P|408:323|399:291,1,65,10|0,0:0|0:0,0:0:0:0:
425,204,48412,1,2,3:2:0:0:
338,178,48580,1,2,0:0:0:0:
313,266,48749,6,0,P|257:279|200:233,3,130,2|2|10|2,3:2|0:0|0:0|3:2,0:0:0:0:
139,72,50097,5,2,0:0:0:0:
139,72,50266,1,2,0:0:0:0:
63,121,50434,2,0,P|52:152|43:184,1,65,2|0,3:2|0:0,0:0:0:0:
131,300,50771,2,0,P|122:268|111:237,1,65,10|0,0:0|0:0,0:0:0:0:
176,173,51108,1,2,3:2:0:0:
261,206,51277,1,2,0:0:0:0:
340,161,51445,6,0,B|327:174|313:187|313:187|321:227|336:288,1,130,2|2,3:2|0:0,0:0:0:0:
368,367,51951,1,0,3:0:0:0:
368,367,52120,2,0,P|396:350|423:332,1,65,8|0,0:0|0:0,0:0:0:0:
504,203,52457,6,0,B|477:158|406:155|378:213|392:219|382:261|334:277,1,227.5,2|0,3:2|0:0,0:0:0:0:
255,290,53131,2,0,P|261:258|269:226,1,65,2|0,3:2|0:0,0:0:0:0:
312,146,53468,1,10,0:0:0:0:
258,80,53636,1,0,3:0:0:0:
258,80,53805,2,0,P|208:93|158:109,1,97.5,0|0,3:0|0:0,0:0:0:0:
88,81,54142,6,0,B|101:94|115:107|115:107|107:147|92:208,1,130,6|2,3:2|0:0,0:0:0:0:
24,254,54648,1,2,0:0:0:0:
24,254,54816,2,0,B|70:243|70:243|123:274,1,97.5,10|0,0:0|0:0,0:0:0:0:
194,265,55153,2,0,B|156:254|156:254|78:341|78:341|39:330,1,195,2|8,0:0|0:0,0:0:0:0:
181,341,55827,6,0,B|211:350|211:350|243:340,1,65,2|0,3:2|0:0,0:0:0:0:
300,269,56165,2,0,B|309:237|309:237|298:206,1,65,10|0,0:0|0:0,0:0:0:0:
256,127,56502,1,2,3:2:0:0:
336,84,56670,1,10,0:0:0:0:
375,166,56839,6,0,B|386:195|386:195|414:212,1,65,2|0,3:2|0:0,0:0:0:0:
432,307,57176,1,2,0:0:0:0:
432,307,57344,1,2,3:2:0:0:
512,263,57513,2,0,P|506:233|496:198,1,65,10|0,0:0|0:0,0:0:0:0:
447,123,57850,1,2,3:2:0:0:
497,47,58018,2,0,B|457:31|431:60|437:65|411:97|373:80,1,130,8|8,0:0|0:0,0:0:0:0:
205,0,58693,5,2,0:0:0:0:
133,54,58861,1,10,0:0:0:0:
133,54,59030,1,2,0:0:0:0:
47,25,59198,2,0,P|57:55|66:87,1,65,2|0,3:2|0:0,0:0:0:0:
32,171,59535,6,0,P|77:130|146:140,1,130,2|2,3:2|0:0,0:0:0:0:
221,183,60041,1,2,0:0:0:0:
305,149,60209,2,0,P|298:120|288:83,1,65,10|0,0:0|0:0,0:0:0:0:
211,36,60547,2,0,B|229:45|247:54|247:54|288:39|337:20,1,130,2|0,3:2|0:0,0:0:0:0:
512,5,61221,6,0,P|504:33|497:69,1,65,2|0,3:2|0:0,0:0:0:0:
412,101,61558,2,0,P|426:126|446:156,1,65,10|0,0:0|0:0,0:0:0:0:
399,234,61895,2,0,P|427:241|463:249,1,65,2|8,3:2|0:0,0:0:0:0:
512,325,62232,2,0,B|472:309|446:338|452:343|426:375|388:358,1,130,2|2,3:2|0:0,0:0:0:0:
312,324,62738,1,2,3:2:0:0:
232,367,62906,2,0,P|222:334|211:300,1,65,8|0,0:0|0:0,0:0:0:0:
142,247,63243,2,0,P|131:277|123:309,1,65,2|8,3:2|0:0,0:0:0:0:
61,376,63580,2,0,P|46:317|25:249,1,130,2|0,0:0|3:0,0:0:0:0:
96,83,64254,5,10,0:0:0:0:
34,159,64423,1,0,3:0:0:0:
34,159,64592,2,0,P|88:182|154:161,1,130,2|4,3:2|0:0,0:0:0:0:
256,192,73356,12,4,75715,0:0:0:0:
256,192,76389,6,0,P|251:242|247:290,3,97.50000371933,10|2|2|2,0:0|0:0|0:0|0:0,0:0:0:0:
409,384,77738,1,10,0:0:0:0:
500,221,78075,6,0,P|443:202|399:238,1,116.999996429443,2|0,3:2|0:0,0:0:0:0:
342,279,78412,6,0,B|313:241|328:198|338:202|361:165|337:130,1,155.999995239258,2|0,3:2|0:0,0:0:0:0:
391,55,78918,1,0,3:0:0:0:
391,55,79086,2,0,P|353:46|314:39,1,77.999997619629,10|0,0:0|0:0,0:0:0:0:
161,40,79423,2,0,B|207:29|207:29|291:140|291:140|337:131,1,233.999992858887,2|8,3:2|0:0,0:0:0:0:
315,39,80097,2,0,B|268:49|268:49|239:185|239:185|193:196,1,233.999992858887,2|0,0:0|0:0,0:0:0:0:
111,151,80772,6,0,B|96:188|96:188|105:229,1,77.999997619629,2|0,3:2|0:0,0:0:0:0:
50,110,81109,2,0,B|20:181|20:181|38:259,1,155.999995239258,4|0,3:2|0:0,0:0:0:0:
188,347,81783,6,0,P|197:310|184:272,1,77.999997619629,10|0,0:0|0:0,0:0:0:0:
104,225,82120,2,0,P|160:220|199:178,1,116.999996429443,2|0,3:2|0:0,0:0:0:0:
207,157,82457,1,2,0:0:0:0:
289,111,82626,1,8,0:0:0:0:
367,162,82794,2,0,P|405:149|442:138,1,77.999997619629,2|0,3:2|0:0,0:0:0:0:
400,305,83131,2,0,P|370:278|342:252,1,77.999997619629,10|0,0:0|0:0,0:0:0:0:
507,205,83468,2,0,P|500:244|491:281,1,77.999997619629,2|8,3:2|0:0,0:0:0:0:
441,138,83805,6,0,P|369:161|292:192,1,155.999995239258,2|0,3:2|0:0,0:0:0:0:
206,160,84311,1,0,3:0:0:0:
142,229,84480,2,0,P|178:243|215:253,1,77.999997619629,10|0,0:0|0:0,0:0:0:0:
114,123,84816,2,0,B|82:164|82:164|145:320|145:320|115:363,1,272.999991668701,2|0,3:2|0:0,0:0:0:0:
39,371,85491,2,0,B|14:320|14:320|28:262,1,116.999996429443,2|0,3:2|0:0,0:0:0:0:
33,239,85827,5,8,0:0:0:0:
221,350,86165,1,8,0:0:0:0:
316,154,86502,5,4,3:2:0:0:
316,154,87176,5,10,0:0:0:0:
342,0,87513,1,2,0:0:0:0:
462,100,87850,1,2,0:0:0:0:
371,78,88018,1,8,0:0:0:0:
316,154,88187,6,0,P|295:207|316:264,1,116.999996429443,2|0,3:2|0:0,0:0:0:0:
322,261,88524,6,0,P|303:206|324:153,1,116.999996429443,10|0,0:0|0:0,0:0:0:0:
333,153,88861,6,0,P|311:206|330:260,1,116.999996429443,2|0,3:2|0:0,0:0:0:0:
399,302,89198,6,0,B|348:293|299:285|299:285|290:308|262:323,1,155.999995239258,2|0,3:2|0:0,0:0:0:0:
180,366,89704,1,0,3:0:0:0:
180,366,89872,6,0,P|165:330|148:294,1,77.999997619629,10|0,0:0|0:0,0:0:0:0:
127,203,90210,2,0,B|183:244|228:185|220:177|262:108|337:158,1,233.999992858887,2|8,3:2|0:0,0:0:0:0:
404,213,90884,2,0,P|415:175|423:137,1,77.999997619629,2|0,0:0|0:0,0:0:0:0:
475,59,91221,2,0,P|425:86|370:70,1,116.999996429443,10|0,0:0|0:0,0:0:0:0:
301,28,91558,2,0,P|262:23|227:43,1,77.999997619629,2|0,3:2|0:0,0:0:0:0:
133,130,91895,6,0,B|122:68|111:9|111:9|126:20|139:29,2,155.999995239258,6|2|8,3:2|0:0|0:0,0:0:0:0:
19,278,92906,6,0,B|52:270|52:270|120:325|120:325|162:316,1,155.999995239258,2|2,3:2|0:0,0:0:0:0:
246,353,93412,1,8,0:0:0:0:
246,353,93581,2,0,P|257:315|271:277,1,77.999997619629,0|0,3:0|0:0,0:0:0:0:
239,190,93918,2,0,P|293:181|341:218,1,116.999996429443,10|0,0:0|0:0,0:0:0:0:
354,241,94255,1,2,3:2:0:0:
354,241,94423,1,8,0:0:0:0:
438,200,94592,2,0,P|422:277|413:354,1,155.999995239258,0|2,3:0|0:0,0:0:0:0:
423,379,95098,1,0,3:0:0:0:
423,379,95266,1,8,0:0:0:0:
512,175,95603,6,0,P|456:123|384:143,1,155.999995239258,2|2,3:2|0:0,0:0:0:0:
304,186,96109,1,8,0:0:0:0:
304,186,96277,2,0,P|291:148|275:108,1,77.999997619629,0|0,3:0|0:0,0:0:0:0:
237,28,96614,1,10,0:0:0:0:
152,68,96783,1,0,3:0:0:0:
189,158,96951,6,0,B|99:177|143:264|58:292,1,195.00000743866,2|0,3:2|0:0,0:0:0:0:
