osu file format v14

[General]
AudioFilename: audio.mp3
AudioLeadIn: 0
PreviewTime: 21783
Countdown: 0
SampleSet: Soft
StackLeniency: 0.4
Mode: 0
LetterboxInBreaks: 0
WidescreenStoryboard: 1

[Editor]
DistanceSpacing: 1
BeatDivisor: 1
GridSize: 16
TimelineZoom: 1.6

[Metadata]
Title:We're Not Forever
TitleUnicode:We're Not Forever
Artist:Effie
ArtistUnicode:Effie
Creator:Nabori
Version:Easy
Source:
Tags:에피 ggm records nejdos trap korean k hip hop kpop pop rap sound cloud single we are k-pop english
BeatmapID:3400824
BeatmapSetID:1648727

[Difficulty]
HPDrainRate:3
CircleSize:2.7
OverallDifficulty:3
ApproachRate:4
SliderMultiplier:2
SliderTickRate:1

[Events]
//Background and Video events
0,0,"bg.jpg",0,0
//Break Periods
2,67625,71670
//Storyboard Layer 0 (Background)
//Storyboard Layer 1 (Fail)
//Storyboard Layer 2 (Pass)
//Storyboard Layer 3 (Foreground)
//Storyboard Layer 4 (Overlay)
//Storyboard Sound Samples

[TimingPoints]
210,674.157303370787,4,2,1,90,1,0
21783,-100,4,2,1,90,0,1
22457,-100,4,2,1,90,0,0
24479,-100,4,2,2,90,0,1
25153,-100,4,2,2,90,0,0
27176,-100,4,2,3,90,0,0
29872,-100,4,2,4,90,0,1
30547,-100,4,2,4,90,0,0
32569,-100,4,2,1,90,0,1
33243,-100,4,2,1,90,0,0
35266,-100,4,2,2,90,0,1
35771,-100,4,2,2,90,0,0
35940,-100,4,2,2,90,0,1
36193,-100,4,2,2,90,0,0
36277,-100,4,2,2,90,0,1
36951,-100,4,2,2,90,0,0
37625,-100,4,2,2,90,0,1
37878,-100,4,2,2,90,0,0
37962,-100,4,2,3,90,0,1
38636,-100,4,2,3,90,0,0
44704,-100,4,2,4,35,0,0
46052,-100,4,2,2,90,0,0
48749,-100,4,2,3,90,0,0
51445,-100,4,2,4,90,0,0
54142,-100,4,2,1,90,0,0
56839,-100,4,2,2,90,0,0
59535,-100,4,2,3,90,0,0
62232,-100,4,2,4,90,0,0
67288,-100,4,2,4,35,0,0
78075,-100,4,2,1,90,0,0
78412,-100,4,2,2,90,0,1
79086,-100,4,2,2,90,0,0
81109,-100,4,2,3,90,0,0
83805,-100,4,2,4,90,0,1
84479,-100,4,2,4,90,0,0
86502,-100,4,2,1,90,0,1
87176,-100,4,2,1,90,0,0
89198,-100,4,2,2,90,0,1
89704,-100,4,2,2,90,0,0
89872,-100,4,2,2,90,0,1
90125,-100,4,2,2,90,0,0
90210,-100,4,2,2,90,0,1
90884,-100,4,2,2,90,0,0
91558,-100,4,2,2,90,0,1
91811,-100,4,2,2,90,0,0
91895,-100,4,2,3,90,0,1
92569,-100,4,2,3,90,0,0

[Colours]
Combo1 : 155,155,155
Combo2 : 75,75,75

[HitObjects]
61,106,21783,5,4,3:2:0:0:
256,65,22457,2,0,P|268:110|278:164,1,100,2|2,0:0|0:0,0:0:0:0:
228,249,23131,2,0,P|183:237|129:227,2,100,2|2|10,0:0|3:2|0:0,0:0:0:0:
313,301,24142,1,2,3:2:0:0:
394,243,24479,2,0,B|388:179|388:179|397:168|397:168|389:93,1,150,2|0,3:2|3:0,0:0:0:0:
385,47,25153,1,10,0:0:0:0:
286,64,25490,6,0,B|222:26|157:64|157:64|144:96|116:109,2,200,2|2|2,3:2|0:0|3:2,0:0:0:0:
385,47,27176,1,4,3:2:0:0:
468,228,27850,6,0,P|487:276|468:328,2,100,10|2|2,0:0|3:2|0:0,0:0:0:0:
372,199,28861,1,2,3:2:0:0:
317,282,29198,1,10,0:0:0:0:
381,359,29535,1,2,3:2:0:0:
473,320,29872,1,2,3:2:0:0:
512,124,30547,5,10,0:0:0:0:
426,73,30884,2,0,B|371:62|345:116|345:116|313:176|260:162,2,200,2|2|2,3:2|3:2|3:2,0:0:0:0:
504,11,32569,1,4,3:2:0:0:
469,207,33243,6,0,P|488:255|469:307,1,100,10|2,0:0|0:0,0:0:0:0:
404,370,33917,1,2,0:0:0:0:
334,299,34254,2,0,P|320:251|339:206,2,100,2|10|2,3:2|0:0|3:2,0:0:0:0:
263,370,35266,1,2,3:2:0:0:
116,233,35940,5,10,0:0:0:0:
39,297,36277,2,0,B|23:281|4:262|4:262|19:189|36:115,1,200,2|2,3:2|0:0,0:0:0:0:
91,32,37288,1,10,0:0:0:0:
176,84,37625,2,0,B|226:96|226:96|272:71,2,100,2|6|2,3:2|3:2|0:0,0:0:0:0:
146,282,38974,5,2,3:2:0:0:
208,360,39311,2,0,B|263:371|289:317|289:317|321:257|374:271,1,200,2|10,0:0|0:0,0:0:0:0:
467,284,40322,2,0,P|477:334|449:382,2,100,2|0|2,3:2|3:0|0:0,0:0:0:0:
491,187,41333,1,8,0:0:0:0:
411,127,41670,5,2,3:2:0:0:
464,42,42007,2,0,P|372:70|296:10,1,200,2|10,0:0|0:0,0:0:0:0:
201,44,43019,2,0,B|208:76|231:99|231:99|204:156|226:233,1,200,2|0,3:2|0:0,0:0:0:0:
90,271,46052,6,0,B|130:298|182:274|182:274|196:244|230:237,2,150,2|0|2,3:2|3:0|3:2,0:0:0:0:
28,192,47401,2,0,P|20:146|7:91,2,100,2|2|10,0:0|0:0|0:0,0:0:0:0:
9,290,48412,1,2,3:2:0:0:
74,366,48749,2,0,P|122:354|171:345,1,100,2|2,3:2|0:0,0:0:0:0:
368,384,49760,1,2,3:2:0:0:
415,296,50097,6,0,P|461:304|516:317,2,100,2|2|10,0:0|3:2|0:0,0:0:0:0:
343,226,51108,1,2,3:2:0:0:
403,146,51445,2,0,B|308:184|308:184|213:146,1,200,2|8,3:2|0:0,0:0:0:0:
217,47,52457,2,0,B|312:9|312:9|407:47,1,200,2|2,3:2|3:2,0:0:0:0:
488,97,53468,1,10,0:0:0:0:
399,276,54142,6,0,P|362:246|311:242,2,100,6|2|10,3:2|0:0|0:0,0:0:0:0:
472,345,55153,1,2,0:0:0:0:
272,330,55827,6,0,P|227:354|180:346,2,100,2|10|2,3:2|0:0|3:2,0:0:0:0:
316,240,56839,2,0,P|270:172|205:164,1,150,2|2,3:2|3:2,0:0:0:0:
161,183,57513,1,10,0:0:0:0:
69,142,57850,1,2,3:2:0:0:
300,46,58693,6,0,P|308:70|315:95,2,50,2|10|2,0:0|0:0|0:0,0:0:0:0:
269,7,59198,1,2,3:2:0:0:
184,60,59535,2,0,P|134:52|86:40,2,100,2|2|10,3:2|0:0|0:0,0:0:0:0:
232,148,60547,1,2,3:2:0:0:
420,79,61221,6,0,P|408:125|400:179,1,100,2|10,3:2|0:0,0:0:0:0:
445,266,61895,1,2,3:2:0:0:
396,353,62232,2,0,B|347:326|347:326|254:359,1,150,2|2,3:2|3:2,0:0:0:0:
214,381,62906,1,8,0:0:0:0:
127,331,63243,1,2,3:2:0:0:
32,362,63580,2,0,P|20:316|-3:259,1,100,2|0,0:0|3:0,0:0:0:0:
29,171,64254,6,0,P|52:163|76:157,1,50,10|0,0:0|3:0,0:0:0:0:
119,183,64592,2,0,P|169:194|211:171,1,100,2|4,3:2|0:0,0:0:0:0:
256,192,73356,12,4,75715,0:0:0:0:
453,127,78075,5,2,3:2:0:0:
428,30,78412,2,0,B|390:12|354:40|359:44|321:73|287:57,1,150,2|0,3:2|3:0,0:0:0:0:
240,42,79086,1,10,0:0:0:0:
172,115,79423,6,0,P|90:61|-1:89,2,200,2|2|2,3:2|0:0|3:2,0:0:0:0:
131,206,81109,1,4,3:2:0:0:
323,152,81783,6,0,P|371:133|423:152,2,100,10|2|2,0:0|3:2|0:0,0:0:0:0:
294,248,82794,1,2,3:2:0:0:
378,302,83131,1,10,0:0:0:0:
455,238,83468,1,2,3:2:0:0:
415,146,83805,1,2,3:2:0:0:
216,169,84480,5,10,0:0:0:0:
135,110,84817,2,0,B|115:128|95:148|95:148|118:214|144:289,1,200,2|2,3:2|3:2,0:0:0:0:
172,380,85827,1,8,0:0:0:0:
267,348,86165,1,8,0:0:0:0:
238,252,86502,1,4,3:2:0:0:
359,93,87176,6,0,B|405:74|405:74|455:93,1,100,10|2,0:0|0:0,0:0:0:0:
512,172,87850,1,2,0:0:0:0:
455,254,88187,2,0,B|408:271|408:271|362:252,2,100,2|10|2,3:2|0:0|3:2,0:0:0:0:
512,336,89199,1,2,3:2:0:0:
408,163,89873,5,10,0:0:0:0:
362,252,90210,2,0,B|307:263|281:209|281:209|249:149|196:163,1,200,2|2,3:2|0:0,0:0:0:0:
110,121,91221,1,10,0:0:0:0:
16,156,91558,2,0,P|6:205|0:261,2,100,2|6|2,3:2|3:2|0:0,0:0:0:0:
156,12,92907,5,2,3:2:0:0:
228,81,93244,2,0,P|318:55|387:124,1,200,2|10,0:0|0:0,0:0:0:0:
436,210,94255,2,0,P|471:175|485:119,2,100,2|0|2,3:2|3:0|0:0,0:0:0:0:
365,280,95266,1,8,0:0:0:0:
280,226,95603,5,2,3:2:0:0:
193,275,95940,2,0,B|209:259|228:240|228:240|213:167|196:93,1,200,2|10,0:0|0:0,0:0:0:0:
235,1,96952,6,0,B|265:17|280:43|280:43|336:-3|411:20,1,200,2|0,3:2|0:0,0:0:0:0:
