osu file format v14

[General]
AudioFilename: audio.mp3
AudioLeadIn: 0
PreviewTime: 223791
Countdown: 0
SampleSet: None
StackLeniency: 0.7
Mode: 1
LetterboxInBreaks: 0
WidescreenStoryboard: 0

[Editor]
DistanceSpacing: 1
BeatDivisor: 4
GridSize: 32
TimelineZoom: 1

[Metadata]
Title:Desember
TitleUnicode:Desember
Artist:Efek Rumah Kaca
ArtistUnicode:Efek Rumah Kaca
Creator:Surono
Version:Muzukashii
Source:
Tags:Indie ERK Bahasa Indonesia
BeatmapID:1772157
BeatmapSetID:847382

[Difficulty]
HPDrainRate:7
CircleSize:2
OverallDifficulty:3
ApproachRate:10
SliderMultiplier:1.4
SliderTickRate:1

[Events]
//Background and Video events
0,0,"wallpaper2you_483564.jpg",0,0
//Break Periods
//Storyboard Layer 0 (Background)
//Storyboard Layer 1 (Fail)
//Storyboard Layer 2 (Pass)
//Storyboard Layer 3 (Foreground)
//Storyboard Sound Samples

[TimingPoints]
5887,521.739130434783,3,2,0,40,1,0
62234,-100,3,1,0,40,0,1
71625,508.474576271186,3,1,0,40,1,1
74675,526.315789473684,3,1,0,40,1,1
80990,-100,3,1,0,40,0,0
81517,-100,3,2,0,40,0,0
87273,521.739130434783,3,1,0,40,1,0
90403,508.474576271186,3,1,0,40,1,0
93453,508.474576271186,3,1,0,40,1,8
93517,526.315789473684,3,1,0,40,1,0
96674,521.739130434783,3,1,0,40,1,0
112847,-100,3,2,0,40,0,0
124827,521.739130434783,3,1,0,40,1,1
127957,508.474576271186,3,1,0,40,1,1
131028,526.315789473684,3,1,0,40,1,1
134185,521.739130434783,3,1,0,40,1,1
149837,521.739130434783,3,1,0,40,1,9
149869,521.739130434783,3,1,0,40,1,0
154532,521.739130434783,3,1,0,40,1,0
199923,-100,3,1,0,40,0,1
221836,-100,3,1,0,40,0,0
224966,-100,3,1,0,40,0,1
243749,-100,3,1,0,40,0,0
244271,-100,3,2,0,40,0,0

[HitObjects]
256,192,5887,5,0,0:0:0:0:
256,192,6408,1,8,0:0:0:0:
256,192,6930,1,8,0:0:0:0:
256,192,7452,1,0,0:0:0:0:
256,192,9017,1,0,0:0:0:0:
256,192,9539,1,8,0:0:0:0:
256,192,10582,1,0,0:0:0:0:
256,192,11104,1,8,0:0:0:0:
256,192,11626,1,8,0:0:0:0:
256,192,12147,1,0,0:0:0:0:
256,192,12669,1,8,0:0:0:0:
256,192,13191,1,8,0:0:0:0:
256,192,13713,1,0,0:0:0:0:
256,192,15278,1,0,0:0:0:0:
256,192,15800,1,8,0:0:0:0:
256,192,16843,1,0,0:0:0:0:
256,192,17365,1,8,0:0:0:0:
256,192,17887,1,8,0:0:0:0:
256,192,18408,1,0,0:0:0:0:
256,192,18930,1,8,0:0:0:0:
256,192,19452,1,8,0:0:0:0:
256,192,19973,1,0,0:0:0:0:
256,192,21539,1,0,0:0:0:0:
256,192,22060,1,8,0:0:0:0:
256,192,22582,1,0,0:0:0:0:
256,192,23104,1,0,0:0:0:0:
256,192,23626,1,8,0:0:0:0:
256,192,24147,1,8,0:0:0:0:
256,192,24669,1,0,0:0:0:0:
256,192,25191,1,8,0:0:0:0:
256,192,25713,1,8,0:0:0:0:
256,192,26234,1,0,0:0:0:0:
256,192,27800,1,0,0:0:0:0:
256,192,28321,1,8,0:0:0:0:
256,192,28843,1,0,0:0:0:0:
256,192,29365,1,8,0:0:0:0:
256,192,29887,1,8,0:0:0:0:
256,192,30408,1,0,0:0:0:0:
256,192,30930,1,8,0:0:0:0:
256,192,31452,1,8,0:0:0:0:
256,192,31973,1,8,0:0:0:0:
256,192,32495,1,0,0:0:0:0:
256,192,34060,1,0,0:0:0:0:
256,192,34582,1,8,0:0:0:0:
256,192,35104,1,0,0:0:0:0:
256,192,35626,1,0,0:0:0:0:
256,192,36147,1,8,0:0:0:0:
256,192,36669,1,8,0:0:0:0:
256,192,37191,1,0,0:0:0:0:
256,192,37713,1,8,0:0:0:0:
256,192,38234,1,8,0:0:0:0:
256,192,38756,1,0,0:0:0:0:
256,192,40321,1,0,0:0:0:0:
256,192,40843,1,8,0:0:0:0:
256,192,41365,1,0,0:0:0:0:
256,192,41887,1,0,0:0:0:0:
256,192,42408,1,8,0:0:0:0:
256,192,42930,1,8,0:0:0:0:
256,192,43452,1,0,0:0:0:0:
256,192,43973,1,8,0:0:0:0:
256,192,44495,1,8,0:0:0:0:
256,192,45017,1,0,0:0:0:0:
256,192,46582,1,0,0:0:0:0:
256,192,47104,1,8,0:0:0:0:
256,192,47626,1,0,0:0:0:0:
256,192,48147,1,8,0:0:0:0:
256,192,48669,1,8,0:0:0:0:
256,192,49191,1,0,0:0:0:0:
256,192,49713,1,0,0:0:0:0:
256,192,51278,1,8,0:0:0:0:
256,192,52843,1,0,0:0:0:0:
256,192,54408,1,0,0:0:0:0:
256,192,54930,1,0,0:0:0:0:
256,192,55452,1,0,0:0:0:0:
256,192,55973,1,8,0:0:0:0:
256,192,57539,1,0,0:0:0:0:
256,192,59104,1,0,0:0:0:0:
256,192,62234,1,0,0:0:0:0:
256,192,63017,1,0,0:0:0:0:
256,192,63539,1,0,0:0:0:0:
256,192,63800,1,8,0:0:0:0:
256,192,64582,1,8,0:0:0:0:
256,192,65104,1,0,0:0:0:0:
256,192,65365,1,0,0:0:0:0:
256,192,66147,1,0,0:0:0:0:
256,192,66669,1,0,0:0:0:0:
256,192,66930,1,8,0:0:0:0:
256,192,67713,1,0,0:0:0:0:
256,192,68234,1,8,0:0:0:0:
256,192,68495,1,0,0:0:0:0:
256,192,69278,1,0,0:0:0:0:
256,192,69800,1,0,0:0:0:0:
256,192,70060,1,8,0:0:0:0:
256,192,70843,1,0,0:0:0:0:
256,192,71365,1,8,0:0:0:0:
256,192,71625,1,0,0:0:0:0:
256,192,72387,1,0,0:0:0:0:
256,192,72896,1,0,0:0:0:0:
256,192,73150,1,8,0:0:0:0:
256,192,73913,1,8,0:0:0:0:
256,192,74421,1,0,0:0:0:0:
256,192,74675,1,8,0:0:0:0:
256,192,75464,1,0,0:0:0:0:
256,192,75990,1,0,0:0:0:0:
256,192,76253,1,8,0:0:0:0:
256,192,77043,1,8,0:0:0:0:
256,192,77569,1,8,0:0:0:0:
256,192,77832,1,8,0:0:0:0:
256,192,78622,1,8,0:0:0:0:
256,192,79148,1,0,0:0:0:0:
256,192,79411,1,8,0:0:0:0:
256,192,80201,1,0,0:0:0:0:
256,192,80464,1,8,0:0:0:0:
256,192,80990,1,0,0:0:0:0:
256,192,82569,1,8,0:0:0:0:
256,192,84148,1,0,0:0:0:0:
256,192,86517,1,8,0:0:0:0:
256,192,86780,1,8,0:0:0:0:
256,192,87273,1,0,0:0:0:0:
256,192,87794,1,8,0:0:0:0:
256,192,88316,1,0,0:0:0:0:
256,192,88838,1,8,0:0:0:0:
256,192,90142,1,0,0:0:0:0:
256,192,90403,1,0,0:0:0:0:
256,192,90911,1,8,0:0:0:0:
256,192,91419,1,0,0:0:0:0:
256,192,91928,1,8,0:0:0:0:
256,192,92436,1,0,0:0:0:0:
256,192,92945,1,0,0:0:0:0:
256,192,93517,1,0,0:0:0:0:
256,192,94043,1,8,0:0:0:0:
256,192,94569,1,0,0:0:0:0:
256,192,95095,1,8,0:0:0:0:
256,192,96411,1,0,0:0:0:0:
256,192,96674,1,0,0:0:0:0:
256,192,97195,1,8,0:0:0:0:
256,192,97717,1,0,0:0:0:0:
256,192,98239,1,8,0:0:0:0:
256,192,98760,1,8,0:0:0:0:
256,192,99282,1,0,0:0:0:0:
256,192,99804,1,0,0:0:0:0:
256,192,100326,1,8,0:0:0:0:
256,192,100847,1,0,0:0:0:0:
256,192,101369,1,8,0:0:0:0:
256,192,102674,1,0,0:0:0:0:
256,192,102934,1,0,0:0:0:0:
256,192,103456,1,8,0:0:0:0:
256,192,103978,1,0,0:0:0:0:
256,192,104500,1,8,0:0:0:0:
256,192,105021,1,0,0:0:0:0:
256,192,105543,1,0,0:0:0:0:
256,192,106065,1,0,0:0:0:0:
256,192,106587,1,8,0:0:0:0:
256,192,107108,1,0,0:0:0:0:
256,192,107630,1,8,0:0:0:0:
256,192,108934,1,0,0:0:0:0:
256,192,109195,1,0,0:0:0:0:
256,192,109717,1,8,0:0:0:0:
256,192,110239,1,0,0:0:0:0:
256,192,110760,1,8,0:0:0:0:
256,192,111282,1,8,0:0:0:0:
256,192,111804,1,0,0:0:0:0:
256,192,112326,1,0,0:0:0:0:
256,192,113891,1,8,0:0:0:0:
256,192,115456,1,0,0:0:0:0:
256,192,117021,1,0,0:0:0:0:
256,192,117543,1,0,0:0:0:0:
256,192,118065,1,0,0:0:0:0:
256,192,118587,1,8,0:0:0:0:
256,192,120152,1,0,0:0:0:0:
256,192,121717,1,0,0:0:0:0:
256,192,124827,1,4,0:0:0:0:
256,192,125609,1,0,0:0:0:0:
256,192,126131,1,0,0:0:0:0:
256,192,126392,1,8,0:0:0:0:
256,192,126913,1,8,0:0:0:0:
256,192,127174,1,8,0:0:0:0:
256,192,127696,1,0,0:0:0:0:
256,192,127957,1,0,0:0:0:0:
256,192,128719,1,0,0:0:0:0:
256,192,129228,1,0,0:0:0:0:
256,192,129482,1,8,0:0:0:0:
256,192,129990,1,0,0:0:0:0:
256,192,130245,1,8,0:0:0:0:
256,192,130753,1,8,0:0:0:0:
256,192,131028,1,0,0:0:0:0:
256,192,131817,1,0,0:0:0:0:
256,192,132343,1,0,0:0:0:0:
256,192,132606,1,8,0:0:0:0:
256,192,133133,1,0,0:0:0:0:
256,192,133396,1,8,0:0:0:0:
256,192,133922,1,8,0:0:0:0:
256,192,134185,1,0,0:0:0:0:
256,192,134967,1,0,0:0:0:0:
256,192,135489,1,0,0:0:0:0:
256,192,135750,1,8,0:0:0:0:
256,192,136271,1,0,0:0:0:0:
256,192,136532,1,8,0:0:0:0:
256,192,137054,1,0,0:0:0:0:
256,192,137315,1,4,0:0:0:0:
256,192,138098,1,0,0:0:0:0:
256,192,138619,1,0,0:0:0:0:
256,192,138880,1,8,0:0:0:0:
256,192,139402,1,0,0:0:0:0:
256,192,139663,1,8,0:0:0:0:
256,192,140185,1,8,0:0:0:0:
256,192,140445,1,8,0:0:0:0:
256,192,141228,1,8,0:0:0:0:
256,192,141750,1,0,0:0:0:0:
256,192,142011,1,8,0:0:0:0:
256,192,142532,1,0,0:0:0:0:
256,192,142793,1,0,0:0:0:0:
256,192,143315,1,0,0:0:0:0:
256,192,143576,1,4,0:0:0:0:
256,192,144358,1,0,0:0:0:0:
256,192,144880,1,0,0:0:0:0:
256,192,145141,1,8,0:0:0:0:
256,192,145924,1,0,0:0:0:0:
256,192,146445,1,0,0:0:0:0:
256,192,146706,1,12,0:0:0:0:
256,192,147489,1,0,0:0:0:0:
256,192,148011,1,0,0:0:0:0:
256,192,148271,1,12,0:0:0:0:
256,192,148793,1,0,0:0:0:0:
256,192,149054,1,8,0:0:0:0:
256,192,149315,1,8,0:0:0:0:
256,192,149869,1,4,0:0:0:0:
256,192,150912,1,0,0:0:0:0:
256,192,151434,1,8,0:0:0:0:
256,192,151955,1,0,0:0:0:0:
256,192,152477,1,0,0:0:0:0:
256,192,152738,1,0,0:0:0:0:
256,192,152999,1,0,0:0:0:0:
256,192,154042,1,0,0:0:0:0:
256,192,154532,1,8,0:0:0:0:
256,192,155053,1,0,0:0:0:0:
256,192,155575,1,8,0:0:0:0:
256,192,155836,1,0,0:0:0:0:
256,192,156097,1,0,0:0:0:0:
256,192,157140,1,0,0:0:0:0:
256,192,157662,1,8,0:0:0:0:
256,192,158184,1,0,0:0:0:0:
256,192,158705,1,0,0:0:0:0:
256,192,158966,1,0,0:0:0:0:
256,192,159227,1,0,0:0:0:0:
256,192,160271,1,0,0:0:0:0:
256,192,160792,1,8,0:0:0:0:
256,192,161314,1,8,0:0:0:0:
256,192,161836,1,0,0:0:0:0:
256,192,162097,1,0,0:0:0:0:
256,192,162358,1,0,0:0:0:0:
256,192,163401,1,0,0:0:0:0:
256,192,163923,1,8,0:0:0:0:
256,192,164445,1,0,0:0:0:0:
256,192,164966,1,0,0:0:0:0:
256,192,165227,1,0,0:0:0:0:
256,192,165488,1,0,0:0:0:0:
256,192,166532,1,0,0:0:0:0:
256,192,167053,1,8,0:0:0:0:
256,192,167575,1,0,0:0:0:0:
256,192,168097,1,8,0:0:0:0:
256,192,168358,1,0,0:0:0:0:
256,192,168618,1,0,0:0:0:0:
256,192,169662,1,0,0:0:0:0:
256,192,170184,1,8,0:0:0:0:
256,192,170445,1,8,0:0:0:0:
256,192,171227,1,0,0:0:0:0:
256,192,171749,1,0,0:0:0:0:
256,192,172097,1,8,0:0:0:0:
256,192,172618,1,8,0:0:0:0:
256,192,172792,1,8,0:0:0:0:
256,192,173314,1,12,0:0:0:0:
256,192,173662,1,0,0:0:0:0:
256,192,174184,1,0,0:0:0:0:
256,192,174358,1,0,0:0:0:0:
256,192,174879,1,4,0:0:0:0:
256,192,175923,1,0,0:0:0:0:
256,192,176445,1,8,0:0:0:0:
256,192,176966,1,0,0:0:0:0:
256,192,177488,1,0,0:0:0:0:
256,192,178010,1,0,0:0:0:0:
256,192,179053,1,8,0:0:0:0:
256,192,179575,1,8,0:0:0:0:
256,192,180097,1,0,0:0:0:0:
256,192,180618,1,0,0:0:0:0:
256,192,181140,1,0,0:0:0:0:
256,192,182184,1,0,0:0:0:0:
256,192,182705,1,8,0:0:0:0:
256,192,183227,1,0,0:0:0:0:
256,192,183749,1,0,0:0:0:0:
256,192,184271,1,8,0:0:0:0:
256,192,185314,1,0,0:0:0:0:
256,192,185836,1,8,0:0:0:0:
256,192,186618,1,0,0:0:0:0:
256,192,187140,1,0,0:0:0:0:
256,192,187401,1,4,0:0:0:0:
256,192,188445,1,0,0:0:0:0:
256,192,188966,1,8,0:0:0:0:
256,192,189488,1,8,0:0:0:0:
256,192,190010,1,0,0:0:0:0:
256,192,190532,1,0,0:0:0:0:
256,192,191575,1,0,0:0:0:0:
256,192,192097,1,8,0:0:0:0:
256,192,192618,1,0,0:0:0:0:
256,192,193140,1,0,0:0:0:0:
256,192,193662,1,4,0:0:0:0:
256,192,194184,1,8,0:0:0:0:
256,192,195227,1,12,0:0:0:0:
256,192,195749,1,0,0:0:0:0:
256,192,196792,1,4,0:0:0:0:
256,192,197314,1,0,0:0:0:0:
256,192,197836,1,0,0:0:0:0:
256,192,198358,1,12,0:0:0:0:
256,192,198879,1,8,0:0:0:0:
256,192,199227,1,0,0:0:0:0:
256,192,199401,1,0,0:0:0:0:
256,192,199923,1,4,0:0:0:0:
256,192,200705,1,0,0:0:0:0:
256,192,200966,1,8,0:0:0:0:
256,192,201488,1,8,0:0:0:0:
256,192,202010,1,0,0:0:0:0:
256,192,202271,1,0,0:0:0:0:
256,192,202532,1,8,0:0:0:0:
256,192,203053,1,0,0:0:0:0:
256,192,203836,1,0,0:0:0:0:
256,192,204097,1,0,0:0:0:0:
256,192,204618,1,8,0:0:0:0:
256,192,205140,1,0,0:0:0:0:
256,192,205401,1,0,0:0:0:0:
256,192,205662,1,0,0:0:0:0:
256,192,206184,1,4,0:0:0:0:
256,192,206966,1,0,0:0:0:0:
256,192,207227,1,8,0:0:0:0:
256,192,207749,1,8,0:0:0:0:
256,192,208271,1,0,0:0:0:0:
256,192,208532,1,0,0:0:0:0:
256,192,208792,1,8,0:0:0:0:
256,192,209314,1,0,0:0:0:0:
256,192,210097,1,8,0:0:0:0:
256,192,210358,1,0,0:0:0:0:
256,192,210879,1,8,0:0:0:0:
256,192,211401,1,0,0:0:0:0:
256,192,211662,1,8,0:0:0:0:
256,192,211923,1,0,0:0:0:0:
256,192,212445,1,4,0:0:0:0:
256,192,213227,1,0,0:0:0:0:
256,192,213488,1,0,0:0:0:0:
256,192,214010,1,8,0:0:0:0:
256,192,214532,1,8,0:0:0:0:
256,192,215053,1,0,0:0:0:0:
256,192,215314,1,0,0:0:0:0:
256,192,215575,1,0,0:0:0:0:
256,192,216097,1,0,0:0:0:0:
256,192,217140,1,12,0:0:0:0:
256,192,217662,1,0,0:0:0:0:
256,192,217923,1,8,0:0:0:0:
256,192,218184,1,0,0:0:0:0:
256,192,218705,1,4,0:0:0:0:
256,192,219488,1,0,0:0:0:0:
256,192,219749,1,0,0:0:0:0:
256,192,220271,1,12,0:0:0:0:
256,192,221053,1,0,0:0:0:0:
256,192,221314,1,0,0:0:0:0:
256,192,221836,1,8,0:0:0:0:
256,192,222097,1,8,0:0:0:0:
256,192,222618,1,0,0:0:0:0:
256,192,223140,1,0,0:0:0:0:
256,192,223401,1,0,0:0:0:0:
256,192,223923,1,0,0:0:0:0:
256,192,224271,1,8,0:0:0:0:
256,192,224445,1,8,0:0:0:0:
256,192,224966,1,12,0:0:0:0:
256,192,225749,1,0,0:0:0:0:
256,192,226010,1,0,0:0:0:0:
256,192,226532,1,8,0:0:0:0:
256,192,226792,1,8,0:0:0:0:
256,192,227053,1,0,0:0:0:0:
256,192,227314,1,8,0:0:0:0:
256,192,227575,1,0,0:0:0:0:
256,192,228097,1,0,0:0:0:0:
256,192,228879,1,0,0:0:0:0:
256,192,229140,1,0,0:0:0:0:
256,192,229662,1,8,0:0:0:0:
256,192,229923,1,0,0:0:0:0:
256,192,230184,1,0,0:0:0:0:
256,192,230445,1,8,0:0:0:0:
256,192,230705,1,0,0:0:0:0:
256,192,231227,1,4,0:0:0:0:
256,192,232010,1,0,0:0:0:0:
256,192,232271,1,8,0:0:0:0:
256,192,232792,1,8,0:0:0:0:
256,192,233053,1,0,0:0:0:0:
256,192,233314,1,0,0:0:0:0:
256,192,233575,1,8,0:0:0:0:
256,192,233836,1,8,0:0:0:0:
256,192,234358,1,0,0:0:0:0:
256,192,235140,1,8,0:0:0:0:
256,192,235401,1,0,0:0:0:0:
256,192,235923,1,8,0:0:0:0:
256,192,236184,1,8,0:0:0:0:
256,192,236445,1,0,0:0:0:0:
256,192,236705,1,0,0:0:0:0:
256,192,236966,1,0,0:0:0:0:
256,192,237488,1,0,0:0:0:0:
256,192,238271,1,8,0:0:0:0:
256,192,238792,1,0,0:0:0:0:
256,192,239053,1,8,0:0:0:0:
256,192,239836,1,8,0:0:0:0:
256,192,240358,1,8,0:0:0:0:
256,192,240618,1,0,0:0:0:0:
256,192,241401,1,8,0:0:0:0:
256,192,241923,1,0,0:0:0:0:
256,192,242184,1,8,0:0:0:0:
256,192,242966,1,8,0:0:0:0:
256,192,243488,1,8,0:0:0:0:
256,192,243749,1,0,0:0:0:0:
256,192,244532,1,0,0:0:0:0:
256,192,245314,1,0,0:0:0:0:
256,192,246358,1,0,0:0:0:0:
256,192,246879,1,0,0:0:0:0:
256,192,248445,1,0,0:0:0:0:
256,192,248966,1,0,0:0:0:0:
256,192,249488,1,0,0:0:0:0:
256,192,250010,1,8,0:0:0:0:
256,192,251575,1,8,0:0:0:0:
256,192,253140,1,8,0:0:0:0:
256,192,254445,1,0,0:0:0:0:
256,192,254705,1,0,0:0:0:0:
256,192,255227,1,8,0:0:0:0:
256,192,255749,1,0,0:0:0:0:
256,192,256271,1,8,0:0:0:0:
256,192,257314,1,0,0:0:0:0:
256,192,257836,1,8,0:0:0:0:
256,192,259401,1,8,0:0:0:0:
