osu file format v14

[General]
AudioFilename: audio.mp3
AudioLeadIn: 0
PreviewTime: 23189
Countdown: 0
SampleSet: Soft
StackLeniency: 0.7
Mode: 0
LetterboxInBreaks: 0
WidescreenStoryboard: 1

[Editor]
DistanceSpacing: 1.5
BeatDivisor: 8
GridSize: 4
TimelineZoom: 1.4

[Metadata]
Title:Pesnya zadrota
TitleUnicode:Песня задрота
Artist:EeOneGuy
ArtistUnicode:EeOneGuy
Creator:Shmiklak
Version:Hard
Source:
Tags:ивангай youtube youtuber russian иван рудской hall of fame dota
BeatmapID:1016391
BeatmapSetID:475263

[Difficulty]
HPDrainRate:4
CircleSize:4
OverallDifficulty:5
ApproachRate:6
SliderMultiplier:2
SliderTickRate:2

[Events]
//Background and Video events
0,0,"cool boy.jpg",0,0
//Break Periods
//Storyboard Layer 0 (Background)
//Storyboard Layer 1 (Fail)
//Storyboard Layer 2 (Pass)
//Storyboard Layer 3 (Foreground)
//Storyboard Sound Samples

[TimingPoints]
2013,705.882352941176,4,2,0,65,1,0
22483,-100,4,2,0,5,0,0
24601,-100,4,2,0,65,0,1
47189,-100,4,2,0,65,0,0
47365,-100,4,2,0,5,0,0

[Colours]
Combo1 : 236,230,0
Combo2 : 0,128,64
Combo3 : 0,0,255

[HitObjects]
64,292,2012,6,0,P|112:312|172:312,1,100,4|0,0:0|0:0,0:0:0:0:
228,296,2542,1,0,0:0:0:0:
272,240,2718,2,0,L|304:132,1,100,8|0,0:0|0:0,0:0:0:0:
284,36,3424,2,0,P|340:40|379:64,1,100
412,124,3954,1,0,0:0:0:0:
440,188,4130,2,0,L|459:302,1,100,8|2,0:0|0:0,0:0:0:0:
320,348,4836,6,0,P|272:357|220:345,1,100,4|0,0:0|0:0,0:0:0:0:
173,296,5365,1,0,0:0:0:0:
134,237,5542,2,0,L|118:149,1,50,8|0,0:0|0:0,0:0:0:0:
174,138,5895,2,0,L|190:50,1,50
240,48,6248,1,0,0:0:0:0:
240,48,6424,1,0,0:0:0:0:
250,157,6777,1,0,0:0:0:0:
250,157,6954,2,0,P|299:155|347:142,1,100,8|0,0:0|0:0,0:0:0:0:
404,99,7483,1,0,0:0:0:0:
461,138,7660,6,0,P|481:183|488:232,1,100,4|0,0:0|0:0,0:0:0:0:
455,295,8189,1,0,0:0:0:0:
395,331,8365,2,0,P|336:341|292:336,1,100,8|0,0:0|0:0,0:0:0:0:
188,340,9071,2,0,P|180:292|208:208,1,100
216,176,9601,1,0,0:0:0:0:
265,126,9777,2,0,P|272:76|263:28,1,100,8|2,0:0|0:0,0:0:0:0:
116,76,10483,6,0,P|108:125|117:173,1,100,4|0,0:0|0:0,0:0:0:0:
160,228,11012,1,0,0:0:0:0:
217,268,11189,2,0,P|239:270|305:263,1,50,8|0,0:0|0:0,0:0:0:0:
327,234,11542,2,0,P|349:231|415:239,1,50
426,181,11895,1,0,0:0:0:0:
426,181,12071,1,0,0:0:0:0:
456,76,12424,1,0,0:0:0:0:
456,76,12601,2,0,P|398:52|351:52,1,100,8|0,0:0|0:0,0:0:0:0:
293,68,13130,1,0,0:0:0:0:
264,133,13307,6,0,L|260:265,1,100,4|0,0:0|0:0,0:0:0:0:
256,304,13836,1,0,0:0:0:0:
197,265,14012,2,0,P|148:233|102:231,1,100,8|0,0:0|0:0,0:0:0:0:
113,343,14718,2,0,P|161:374|207:376,1,100
268,352,15248,1,0,0:0:0:0:
325,311,15424,2,0,L|328:211,1,100,8|2,0:0|0:0,0:0:0:0:
436,92,16130,6,0,P|372:108|332:96,1,100,4|0,0:0|0:0,0:0:0:0:
284,60,16660,1,0,0:0:0:0:
216,44,16836,2,0,P|187:43|148:48,1,50,8|0,0:0|0:0,0:0:0:0:
100,68,17189,2,0,P|95:98|78:137,1,50
56,178,17542,1,0,0:0:0:0:
56,178,17718,1,0,0:0:0:0:
24,284,18071,1,0,0:0:0:0:
24,284,18248,2,0,L|136:288,1,100,8|0,0:0|0:0,0:0:0:0:
180,328,18777,1,0,0:0:0:0:
248,348,18954,6,0,P|276:307|283:258,1,100,4|0,0:0|0:0,0:0:0:0:
272,188,19483,1,0,0:0:0:0:
232,132,19660,2,0,P|204:91|197:42,1,100,8|0,0:0|0:0,0:0:0:0:
86,41,20365,2,0,P|114:82|121:131,1,100
116,200,20895,1,0,0:0:0:0:
80,260,21071,2,0,P|52:301|45:350,1,100,8|2,0:0|0:0,0:0:0:0:
256,192,21777,12,0,23189,0:0:0:0:
456,168,24601,6,0,P|456:100|324:76,1,200,4|8,0:0|0:0,0:0:0:0:
268,136,25660,1,0,0:0:0:0:
240,28,26012,1,0,0:0:0:0:
346,60,26365,1,0,0:0:0:0:
346,60,26542,1,0,0:0:0:0:
346,60,26718,1,8,0:0:0:0:
372,168,27071,1,0,0:0:0:0:
353,235,27248,1,0,0:0:0:0:
298,279,27424,6,0,L|191:284,2,100,2|2|8,0:0|0:0|0:0,0:0:0:0:
216,204,28483,1,2,0:0:0:0:
119,257,28836,1,0,0:0:0:0:
121,146,29189,1,0,0:0:0:0:
121,146,29365,1,0,0:0:0:0:
121,146,29542,2,0,P|173:150|249:66,1,150,8|0,0:0|0:0,0:0:0:0:
249,16,30248,6,0,P|333:52|373:32,1,100,4|0,0:0|0:0,0:0:0:0:
446,44,30954,2,0,P|410:128|430:168,1,100,8|0,0:0|0:0,0:0:0:0:
442,236,31660,1,0,0:0:0:0:
396,336,32012,1,0,0:0:0:0:
288,360,32365,1,8,0:0:0:0:
180,332,32718,1,0,0:0:0:0:
84,276,33071,6,0,P|52:248|20:188,2,100,2|2|10,0:0|0:0|0:0,0:0:0:0:
180,332,34130,1,0,0:0:0:0:
180,220,34483,1,0,0:0:0:0:
288,180,34836,1,0,0:0:0:0:
288,180,35012,1,0,0:0:0:0:
288,180,35189,2,0,P|348:188|388:268,1,150,8|0,0:0|0:0,0:0:0:0:
448,308,35895,6,0,P|392:308|332:340,1,100,4|0,0:0|0:0,0:0:0:0:
248,360,36601,1,8,0:0:0:0:
262,252,36954,1,0,0:0:0:0:
219,150,37307,1,0,0:0:0:0:
328,164,37660,1,0,0:0:0:0:
328,164,37836,1,0,0:0:0:0:
328,164,38012,1,8,0:0:0:0:
262,252,38365,1,0,0:0:0:0:
219,150,38718,6,0,P|166:123|95:134,2,100,2|2|10,0:0|0:0|0:0,0:0:0:0:
144,232,39777,1,0,0:0:0:0:
202,325,40130,1,0,0:0:0:0:
253,228,40483,1,0,0:0:0:0:
253,228,40660,1,0,0:0:0:0:
253,228,40836,2,0,P|305:224|373:300,1,150,8|0,0:0|0:0,0:0:0:0:
352,360,41542,6,0,P|436:324|476:344,1,100,4|0,0:0|0:0,0:0:0:0:
448,216,42248,2,0,P|412:132|432:92,1,100,8|0,0:0|0:0,0:0:0:0:
476,40,42954,1,0,0:0:0:0:
368,68,43307,1,0,0:0:0:0:
264,24,43660,1,8,0:0:0:0:
168,80,44012,1,0,0:0:0:0:
96,160,44365,6,0,P|53:162|-8:134,2,100,2|2|10,0:0|0:0|0:0,0:0:0:0:
168,80,45424,1,0,0:0:0:0:
245,157,45777,1,0,0:0:0:0:
276,176,45954,1,0,0:0:0:0:
312,180,46130,1,0,0:0:0:0:
344,168,46307,1,0,0:0:0:0:
376,152,46483,2,0,P|428:152|480:176,1,100,8|0,0:0|0:0,0:0:0:0:
398,301,47189,5,4,0:0:0:0:
256,192,47365,12,2,50012,0:0:0:0:
